<?xml version="1.0" standalone="no"?>
<!DOCTYPE svg PUBLIC "-//W3C//DTD SVG 1.1//EN" "http://www.w3.org/Graphics/SVG/1.1/DTD/svg11.dtd" >
<svg xmlns="http://www.w3.org/2000/svg">
<metadata></metadata>
<defs>
<font id="wrexhamscript" horiz-adv-x="1978" >
<font-face units-per-em="2048" ascent="1638" descent="-410" />
<missing-glyph horiz-adv-x="512" />
<glyph unicode="&#xd;" horiz-adv-x="512" />
<glyph unicode=" "  horiz-adv-x="512" />
<glyph unicode="&#x09;" horiz-adv-x="512" />
<glyph unicode="&#xa0;" horiz-adv-x="512" />
<glyph unicode="!" horiz-adv-x="662" d="M311 385q-59 91 -59 201q0 89 67 260q21 51 36 96.5t23 80.5q15 65 15 138q0 60 -12 123l-6 33q0 15 102.5 59.5t118.5 44.5q20 0 36.5 -59.5t16.5 -132.5q0 -116 -42.5 -223t-129.5 -238q-75 -117 -103 -180.5t-28 -116.5l4 -30l4 -33q0 -8 -43 -23zM106 160 q9 22 17.5 46.5t13.5 43.5q3 24 10 24q12 0 27 -18q66 -63 141 -63q41 0 76 16l17 4q6 0 6 -10q0 -6 -15 -45q-26 -68 -47.5 -106t-51 -56.5t-77.5 -18.5q-57 0 -116 27t-60 41l10 21q23 29 49 94z" />
<glyph unicode="&#x22;" horiz-adv-x="901" d="M279 1337l188 60q0 -102 -9.5 -167t-46 -147t-108.5 -188l-63 -10q13 35 23.5 72.5t19.5 74.5q16 77 16 142q0 45 -4 80t-16 83zM616 1358l189 59v-20v-16v-14v-12q0 -20 -1 -37t-4 -32q0 -42 -20 -102q-15 -51 -47.5 -116.5t-91.5 -152.5l-63 -10q30 88 44.5 155 t14.5 134q0 78 -21 164z" />
<glyph unicode="#" horiz-adv-x="1368" d="M86 889v143h320l86 398h143l-86 -398h401l84 398h144l-86 -398h190v-143h-217l-74 -350h291v-144h-317l-84 -395h-146l86 395h-403l-82 -395h-143l81 395h-188v144h219l72 350h-291zM922 889h-402l-71 -348h401z" />
<glyph unicode="$" horiz-adv-x="1067" d="M580 934l108 391q-95 0 -147 -61.5t-52 -124.5q0 -102 91 -205zM549 522l-129 -469q65 6 119.5 40t85 87.5t30.5 116.5q0 103 -106 225zM702 1382l13 50h80l-15 -56q111 -23 177.5 -63.5t66.5 -83.5q0 -33 -24 -79t-74 -126q-28 0 -42 6.5t-14 38.5l6 47l5 58 q0 64 -28 96q-26 32 -89 47l-125 -463q131 -140 182 -231.5t51 -192.5q0 -33 -7 -69t-22 -74q-27 -74 -84 -139t-152 -114q-90 -45 -210 -57l-53 -190h-78l53 197q-113 21 -194 90q-22 18 -52 52q-26 32 -28 42q0 25 76 180q17 37 24.5 45.5t22.5 9.5q35 0 35 -41l-2 -25 l-3 -44l-1 -25q0 -89 32.5 -138t110.5 -73l149 547q-122 129 -171.5 220t-49.5 186q0 85 45.5 170.5t143.5 143.5t245 58z" />
<glyph unicode="%" horiz-adv-x="1559" d="M90 -500l1108 1768q-146 -62 -273 -95.5t-214 -33.5q-66 0 -129 10q-40 -228 -135.5 -294.5t-172.5 -66.5q-87 0 -146.5 64t-59.5 162q0 69 34.5 159t81.5 146q38 45 90 79t84 34q27 0 27 -29q0 -18 -37 -74q-52 -78 -82 -167t-30 -156q0 -60 21.5 -99t59.5 -39 q23 0 64 30t78.5 96t54.5 180q-39 27 -54.5 55t-15.5 69q0 52 22.5 93t49.5 41q78 0 78 -209q66 -11 117 -11q129 0 303 62l189 78q177 75 204 75q33 0 33 -36q0 -12 -6 -23l-1174 -1868h-170zM1485 -66l28 -10q0 -45 -7 -55t-33 -10q-19 -120 -68.5 -201.5t-111 -120.5 t-124.5 -39q-86 0 -145 63.5t-59 157.5q0 67 20 133q11 36 23.5 65.5t32.5 63.5q35 59 81 97q30 26 69.5 45.5t59.5 19.5q29 0 29 -24q0 -21 -31 -64q-73 -118 -96 -207.5t-23 -144.5q0 -56 21.5 -90.5t54.5 -34.5q24 0 65.5 30t79 96.5t58.5 180.5q-40 25 -54 50t-14 71 q0 60 19.5 98.5t50.5 38.5q74 0 74 -209z" />
<glyph unicode="&#x26;" horiz-adv-x="1386" d="M600 727q-101 -48 -164 -97t-91 -108t-28 -131q0 -102 53.5 -178t127.5 -76q48 0 94.5 31.5t126.5 103.5q-31 73 -52 137l-33 129zM598 807v84q0 73 13 139.5t40 125.5q52 117 146 185t209 68q96 0 165.5 -42.5t69.5 -100.5q0 -31 -64 -80t-81 -51q-30 0 -39 63 q0 18 -6.5 38.5t-18.5 44.5q-21 44 -74 44q-36 0 -61.5 -31t-40 -93t-14.5 -140q0 -84 13 -187.5t38.5 -214t61.5 -220t69 -173t69 -92.5t78 -29q72 0 127 70q23 21 29 21q12 0 27.5 -15.5t15.5 -25.5q0 -15 -46.5 -70t-120 -101.5t-154.5 -46.5q-87 0 -157.5 52.5 t-139.5 169.5q-132 -120 -227 -171t-197 -51q-119 0 -195 76t-76 193q0 135 95 248t204 180t242 133z" />
<glyph unicode="'" horiz-adv-x="492" d="M279 1358l188 59v-20v-16v-14v-12q0 -20 -1 -37t-4 -32q0 -42 -20 -102q-15 -51 -47.5 -116.5t-91.5 -152.5l-63 -10q13 36 24 73t20 76q15 72 15 140q0 81 -20 164z" />
<glyph unicode="(" horiz-adv-x="981" d="M502 -477h-103q-81 110 -142 212t-105 239q-21 69 -32 144t-11 158q0 128 24.5 249.5t71 231t117.5 215t163 202.5q85 85 155 137q65 48 200 137h110q-81 -79 -147 -150t-137 -170q-67 -95 -133 -225q-61 -124 -109 -289q-40 -143 -60 -271.5t-20 -248.5q0 -161 36 -292 q18 -65 48 -134t74 -145z" />
<glyph unicode=")" horiz-adv-x="981" d="M164 -477h-113q125 119 196.5 201.5t129.5 175.5q64 106 119 226q50 111 88 243q35 124 54 251.5t19 251.5q0 116 -14.5 207.5t-49.5 181.5q-17 47 -38.5 92t-50.5 95h100q74 -95 132 -189.5t91.5 -184.5t51.5 -184.5t18 -197.5q0 -67 -7 -133.5t-22 -131.5 q-27 -127 -80 -245t-134 -228t-187 -210q-31 -28 -62 -53.5t-68 -51.5q-62 -45 -173 -116z" />
<glyph unicode="*" horiz-adv-x="981" d="M203 1243l119 182q78 -64 123.5 -149.5t84.5 -245.5q109 183 152 340l209 -55q-27 -64 -63 -114t-93.5 -98t-146.5 -102q181 -49 364 -49l13 -213q-108 12 -195 54q-41 21 -92.5 56.5t-110.5 84.5q0 -45 4.5 -82.5t13.5 -78.5q14 -64 54 -204l-203 -73q-4 27 -7 58.5 t-3 53.5v45q3 20 4.5 32.5t3 25.5t7.5 34.5t9 32.5t11 35l37 115q-52 -17 -103 -42q-44 -21 -92 -51.5t-123 -84.5l-139 165q80 43 150 62q35 9 81 14.5t99 5.5l108 -6q-81 96 -140 150t-136 102z" />
<glyph unicode="+" horiz-adv-x="1366" d="M133 469v158h469v469h158v-469h469v-158h-469v-469h-158v469h-469z" />
<glyph unicode="," horiz-adv-x="492" d="M66 -344l-21 61q129 72 177 120t48 110q0 87 -100 127q-33 12 -35 24q0 9 33 39q54 49 129 154q86 -51 124 -107t38 -129q0 -125 -100.5 -227t-292.5 -172z" />
<glyph unicode="-" horiz-adv-x="670" d="M80 305l55 129q15 42 33 57t59 21q6 0 57 2t97 2h23h18h15h12h43q14 3 32.5 5t46.5 24q13 9 23 10q22 0 22 -18l-47 -109q-27 -58 -41 -79.5t-36 -30.5q-23 -7 -66 -7l-113 4l-108 4q-45 0 -80 -26q-14 -8 -25 -10q-12 0 -17 5q-3 6 -3 17z" />
<glyph unicode="." horiz-adv-x="406" d="M131 276l71 -55q19 -12 40 -21q11 -3 24.5 -5t30.5 -2q34 0 98 16q-21 -70 -41.5 -117.5t-38.5 -69.5q-36 -45 -110 -45q-50 0 -85 14q-37 12 -89 50q28 46 53 104q19 47 47 131z" />
<glyph unicode="/" horiz-adv-x="811" d="M78 -453l448 1883h230l-447 -1883h-231z" />
<glyph unicode="0" horiz-adv-x="1067" d="M997 934q-28 -138 -71 -291.5t-117 -306.5t-186 -256t-261 -103q-89 0 -156 49t-103.5 141.5t-36.5 209.5q0 135 36 278t102.5 273.5t157.5 238.5q88 104 195 176q26 17 53 32.5t49 25.5q46 20 70 20q16 0 16 -35q0 -26 -26 -51q-84 -82 -148.5 -200t-117.5 -267 q-48 -145 -72 -272q-11 -60 -17 -118.5t-6 -110.5q0 -110 36.5 -175t99.5 -65q28 0 61.5 15.5t60.5 41.5q64 61 113 157.5t89 211.5t63 209l45 188q-72 21 -111 70t-39 119q0 48 20 116.5t56 118t80 49.5q90 0 90 -217q0 -15 -1 -45t-1 -44q0 -39 -8 -93l30 -16q13 -3 17 -8 t6 -21q0 -49 -33 -49l-17 2z" />
<glyph unicode="1" horiz-adv-x="811" d="M211 975q-23 -40 -35 -41q-19 0 -36 11.5t-17 25.5q0 7 15.5 37.5t55 82t112.5 121.5q38 37 77.5 71.5t89 72t93.5 53.5q44 14 118 14q31 0 40 -5.5t9 -24.5l-2 -25l-66 -268l-108 -418q-33 -127 -60.5 -227t-61.5 -211q-61 -206 -85 -230q-16 -16 -84.5 -27.5 t-152.5 -11.5q-52 0 -52 25q0 15 17 63q75 202 129 371q58 179 111 367l118 424q-93 -78 -149.5 -146.5t-75.5 -103.5z" />
<glyph unicode="2" horiz-adv-x="1069" d="M387 506l113 104q113 119 178 222t65 255q0 66 -23 118t-67.5 80t-99.5 28q-53 0 -98 -26.5t-76 -72.5q-27 -45 -27 -98q0 -32 15 -60.5t51 -58.5q35 -27 35 -47q0 -18 -38 -44q-34 -23 -84.5 -40.5t-76.5 -17.5q-38 0 -66 37t-28 88q0 83 42 162.5t117.5 146t168 104 t186.5 37.5q106 0 188.5 -43t129 -122.5t46.5 -176.5q0 -89 -41.5 -173t-108.5 -154q-61 -62 -135 -119q-34 -25 -80.5 -57.5t-105.5 -73.5q-189 -127 -257 -185t-115 -118q72 20 119 28q22 3 46 5t54 2q39 0 148 -11l140 -10q61 0 96.5 23t53.5 73q9 24 16 25q21 0 39.5 -9 t20.5 -16q0 -12 -14.5 -54.5t-45.5 -102.5q-36 -74 -70.5 -111t-81 -51.5t-120.5 -14.5q-28 0 -170 13q-54 0 -96.5 4t-87.5 8q-86 0 -164 -18q-16 -5 -33 -7q-14 0 -14 19q0 62 21 119.5t100.5 153t234.5 237.5z" />
<glyph unicode="3" horiz-adv-x="1067" d="M973 412q0 -127 -73 -226t-202.5 -155t-287.5 -56q-183 0 -281 75.5t-98 215.5q0 51 26 75.5t111 51.5q72 23 90 23q9 0 17 -7l11 -16q3 -7 5 -22q0 -14 -15 -49q-26 -60 -26 -107q0 -69 52 -117q25 -23 57 -35t71 -12q127 0 192.5 121t65.5 256q0 105 -46.5 172.5 t-119.5 67.5l-71 -4q-35 0 -35 41q0 44 12 62.5t49 18.5q83 0 128 11q47 10 92 58t71.5 124.5t26.5 148.5q0 90 -54.5 147.5t-140.5 57.5q-47 0 -93.5 -21t-72.5 -58.5t-26 -77.5q0 -20 15 -54.5t15 -56.5q0 -26 -70.5 -63t-99.5 -37q-21 0 -40 29q-17 31 -17 67 q0 74 56.5 159.5t166 144t246.5 58.5q108 0 192 -39t130.5 -109t46.5 -161q0 -248 -357 -356q63 -22 101.5 -45.5t70.5 -53.5q109 -98 109 -247z" />
<glyph unicode="4" horiz-adv-x="1067" d="M711 1231q-44 -28 -146 -132q-96 -99 -217 -252q-115 -148 -205 -306q98 0 184 1t177 3l71 219l62 206zM336 61l121 328l-353 12l-52 3q-10 2 -14 6.5t-5 17.5q0 47 6 71q3 11 13 33t28 54q39 69 88 144q28 44 59 86.5t75 97.5q81 104 185 212q54 56 111.5 109t122.5 108 q40 34 70 51.5t56 22t45.5 6.5t45.5 2q32 0 43 -5t14 -25q0 -30 -47 -211l-30 -129l-105 -393l-27 -97q54 0 100.5 5.5t94.5 17.5l16 4q31 0 31 -21q0 -8 -5 -27t-18 -58q-21 -70 -30 -78q-23 -21 -236 -21l-53 -192q-41 -155 -74 -181q-17 -14 -89 -26q-32 -5 -71 -8 t-83 -3q-47 0 -47 25q0 9 3 23t11 36z" />
<glyph unicode="5" horiz-adv-x="1067" d="M469 1165l-84 -309q43 11 85.5 17t80.5 6q120 0 213.5 -51.5t149 -146.5t55.5 -208q0 -137 -71.5 -251.5t-199 -179.5t-278.5 -65q-130 0 -217 44t-128.5 107t-41.5 122q0 63 43 84l47 23l71 31q38 15 54 15q24 0 24 -24q0 -16 -4 -38.5t-7 -37.5l-11 -65q0 -53 21.5 -96 t62.5 -66t88 -23q51 0 99.5 32.5t83.5 90t57 137.5q10 39 15 79t5 87q0 126 -67 197.5t-191 71.5q-25 0 -51 -3t-54 -10l-20 -2q-18 0 -18 19q0 9 12 51l156 561q15 59 49 59l34 -6q39 -8 99.5 -15t111.5 -7q139 0 283 28q-15 -64 -32 -106.5t-42 -74.5q-43 -58 -102 -75.5 t-152 -17.5q-101 0 -229 16z" />
<glyph unicode="6" horiz-adv-x="1067" d="M322 252q0 -89 39.5 -145t101.5 -56q80 0 138 90.5t88 212t30 195.5q0 70 -35 118t-78 48q-24 0 -53 -10l-29 -9q-5 0 -14 9q-4 5 -6 9t-2 11q0 6 41.5 39t95 59.5t98.5 26.5q67 0 128 -44t99 -119q17 -35 27 -76.5t10 -84.5q0 -139 -78 -266t-208 -205t-271 -78 q-111 0 -194.5 56.5t-130.5 162.5t-47 242q0 221 89 406.5t215 310.5t255.5 196.5t189.5 71.5l43 -24q6 -6 8 -15q0 -9 -24 -24q-146 -82 -251 -238q-101 -153 -163 -331q-58 -170 -85 -322.5t-27 -216.5z" />
<glyph unicode="7" horiz-adv-x="1081" d="M168 1096l57 186q30 92 58 107q21 14 88 24q29 4 64.5 7t64.5 3q67 0 184 -18q56 -9 97.5 -14t68.5 -5q85 0 149 29l23 8q9 0 14.5 -8t7.5 -16q0 -23 -41 -117q-20 -46 -46 -99.5t-58 -115.5q-73 -144 -133.5 -280t-116.5 -274l-81 -216q-28 -82 -52.5 -170t-50.5 -113 q-16 -15 -92 -27t-152 -12q-47 0 -47 33q0 36 37 137q48 140 141 288.5t271 367.5l115 149q17 23 30 43q10 15 28 44q27 42 66 120q-30 -4 -52.5 -6t-47.5 -2l-85 6q-31 0 -53.5 2.5t-65.5 8.5l-83 8l-61 4q-79 0 -121 -33t-68 -121q-24 -12 -49 -12q-22 0 -22 24 q0 17 14 60z" />
<glyph unicode="8" horiz-adv-x="1071" d="M967 1124h61q12 0 12 -14q0 -11 -12 -53q-16 -8 -45 -8q-35 0 -55 6q-29 -51 -61 -89q-27 -33 -63 -64q-32 -28 -118 -91q68 -76 109 -136q38 -57 58 -117q9 -29 14 -57.5t5 -60.5q0 -89 -39 -174t-107.5 -150t-156.5 -103t-180 -38q-151 0 -248.5 82.5t-97.5 212.5 q0 99 53.5 183t124.5 141t168 121q-133 151 -133 307q0 102 47.5 186t134 140t203.5 77l43 -34q0 -11 -33 -25q-76 -34 -121 -96.5t-45 -132.5q0 -62 29 -114t117 -153q90 53 138.5 101t90.5 121q-76 55 -76 149q0 48 18 90t50 67t68 25q39 0 63.5 -33.5t24.5 -89.5 q0 -85 -41 -176zM442 657q-69 -38 -136.5 -88.5t-126 -129.5t-58.5 -165q0 -95 75 -159t187 -64q74 0 132.5 29.5t93 87t34.5 123.5q0 53 -20 111t-66 122t-115 133z" />
<glyph unicode="9" horiz-adv-x="1067" d="M739 1149q0 89 -39 145t-102 56q-81 0 -138.5 -90t-87.5 -212.5t-30 -195.5q0 -67 36 -116.5t77 -49.5q20 0 50 9l32 10q8 0 14 -9t8 -20q-3 -4 -5 -6q-5 -6 -17 -17l-58 -44q-36 -24 -78 -42q-42 -16 -77 -16q-69 0 -129 44t-98 119.5t-38 159.5q0 140 78 267t208 204.5 t271 77.5q83 0 151.5 -32t118.5 -93t76.5 -147t26.5 -188q0 -223 -89 -407.5t-217.5 -311t-253 -197t-189.5 -70.5l-43 25q-9 9 -9 14q0 9 25 25q145 80 251 237q101 153 163 330q28 82 50.5 165.5t35.5 156.5q26 150 26 219z" />
<glyph unicode=":" horiz-adv-x="575" d="M291 854l73 -58q19 -14 44 -23q11 -3 23.5 -5t29.5 -2q29 0 65 12l35 10q-36 -132 -78 -183.5t-118 -51.5q-49 0 -81 13q-14 6 -41 19.5t-55 30.5q12 16 21 28.5t18.5 29.5t26.5 64zM137 276q65 -50 95 -67q16 -8 32 -12t39 -4q16 0 45 6q34 9 55 14q-36 -134 -77 -185 t-115 -51q-45 0 -75 12t-99 52q35 53 54.5 102t45.5 133z" />
<glyph unicode=";" horiz-adv-x="662" d="M387 852q51 -48 86 -67q37 -17 78 -17q27 0 100 20q-20 -84 -47 -137.5t-62 -76.5t-85 -23q-22 0 -40.5 3t-35.5 11t-40.5 21t-59.5 35q33 44 59 96q12 27 21.5 55t25.5 80zM51 -344l-20 63q129 72 177 120t48 110q0 84 -100 127q-33 11 -33 22q0 14 31 41l60 66l71 88 q83 -52 121 -108.5t38 -127.5q0 -83 -45.5 -157.5t-133.5 -135t-214 -108.5z" />
<glyph unicode="&#x3c;" horiz-adv-x="1366" d="M1231 186v-170l-1096 459v143l1096 459v-170l-883 -360z" />
<glyph unicode="=" horiz-adv-x="1366" d="M135 705v157h1096v-157h-1096zM135 231v158h1096v-158h-1096z" />
<glyph unicode="&#x3e;" horiz-adv-x="1366" d="M135 907v172l1094 -461v-141l-1094 -459v170l883 359z" />
<glyph unicode="?" horiz-adv-x="897" d="M340 397l-39 -14q-47 80 -47 139q0 48 27.5 89.5t93.5 93.5q72 56 122.5 104t83.5 116.5t33 159.5q0 101 -48.5 160.5t-135.5 59.5q-53 0 -94 -23t-65.5 -65t-24.5 -91q0 -41 18 -73t43 -35q53 0 53 -23q0 -24 -72 -70t-98 -46q-20 0 -44 24q-20 22 -35 61q-13 41 -13 78 q0 93 65 182.5t172.5 144t219.5 54.5q91 0 162.5 -40t113 -113.5t41.5 -167.5q0 -93 -39 -174t-124 -163q-80 -76 -226 -167q-65 -40 -94 -64.5t-41 -47t-12 -54.5zM170 279q43 -46 80 -64t88 -18q23 0 94 18q-32 -134 -76.5 -186t-124.5 -52q-42 0 -80 15q-19 7 -39.5 19 t-50.5 34q31 44 53 89q16 34 56 145z" />
<glyph unicode="@" horiz-adv-x="1704" d="M1016 778l33 115l233 8l-176 -606q-29 -92 -29 -148q0 -31 24 -55q25 -22 56 -22q52 0 124.5 43t136.5 120.5t110 191.5q21 56 32 116.5t11 126.5q0 133 -45.5 246t-126.5 193t-196 124.5t-251 44.5q-262 0 -456 -126.5t-295 -332.5t-101 -430q0 -216 96 -390.5t270 -272 t390 -97.5q53 0 108 7t111.5 21.5t111 37t111.5 55.5q110 62 201.5 165t145.5 247h59q-57 -141 -139.5 -249t-193 -183.5t-240 -114.5t-279.5 -39q-92 0 -176 15t-164 47q-155 61 -270 176t-178.5 270.5t-63.5 337.5q0 193 69 363.5t194 293t297.5 191.5t371.5 69 q80 0 148 -11t135 -36q129 -45 219 -131.5t140 -207.5t50 -265q0 -189 -75.5 -347.5t-208.5 -248.5t-293 -90q-89 0 -142 46.5t-53 125.5q0 54 22 133q-82 -138 -158.5 -221.5t-174.5 -83.5q-74 0 -118 59t-44 158q0 175 84.5 341.5t203.5 268t210 101.5q60 0 92.5 -35.5 t46.5 -114.5zM903 858q-52 0 -118 -109q-61 -105 -108.5 -253t-47.5 -228q0 -36 15 -64t40 -28q33 0 82.5 52.5t95.5 134.5q43 77 76 179t33 187q0 56 -18 91t-50 38z" />
<glyph unicode="A" horiz-adv-x="1386" d="M756 401q63 568 362 897q-40 23 -94 36.5t-104 13.5q-144 0 -255 -96t-185 -242.5t-113 -303.5q-17 -73 -27 -143t-10 -123q0 -112 42.5 -183t112.5 -71q45 0 86 23t86 69.5t99 122.5zM1409 336v-115q-118 -126 -220.5 -186t-201.5 -60q-111 0 -171 79q-32 41 -49 93.5 t-17 116.5q-70 -84 -122 -136q-56 -56 -104 -89.5t-93.5 -48.5t-94.5 -15q-89 0 -158 52.5t-106 153t-37 225.5q0 132 42.5 300.5t149 333.5t294 275t456.5 110q123 0 220 -14.5t189 -46.5v-66l-44 -56l-23 -32q-72 -107 -137.5 -274t-105.5 -332q-20 -85 -30 -150.5 t-10 -119.5q0 -80 32 -124t91 -44q105 0 250 170z" />
<glyph unicode="B" horiz-adv-x="1556" d="M1069 707l10 73q56 0 95 23q48 30 79 97.5t31 148.5q0 93 -40.5 161t-119 105t-178.5 37q-102 0 -197.5 -31t-174.5 -87t-123.5 -126.5t-44.5 -142.5q0 -87 94 -127q24 -9 24 -19v-31q0 -21 -80 -54.5t-104 -33.5q-25 0 -54 30q-25 28 -47 75q-18 45 -18 90 q0 81 49 174.5t146 176.5q94 79 246.5 132.5t338.5 53.5q160 0 285.5 -45.5t195.5 -130.5t70 -191q0 -68 -29.5 -128t-104.5 -112.5t-206 -87.5q267 -84 267 -327q0 -89 -35 -167t-97 -137.5t-144.5 -94t-176.5 -34.5q-51 0 -95.5 15.5t-71.5 40.5q-25 27 -25 57 q0 34 36 85.5t64 51.5q40 0 49 -96q0 -17 3.5 -32t9.5 -26q11 -18 34 -18q33 0 64.5 41.5t56.5 115t37 149t12 143.5q0 182 -131 203zM37 252q42 39 110 73.5t89 34.5q36 0 36 -55l-8 -62l-8 -65q0 -123 106 -123q69 0 129.5 62.5t102.5 181.5t62 275t41 249.5t51.5 154.5 t80.5 112q29 29 72.5 57.5t85.5 46.5t72 18q26 0 53 -45q-43 -40 -71 -85q-23 -39 -38.5 -101.5t-28.5 -170t-26 -188t-28 -142.5q-27 -123 -97 -226q-56 -87 -138 -151q-77 -60 -175 -94t-205 -34q-131 0 -202.5 56t-71.5 159q0 36 6 62z" />
<glyph unicode="C" horiz-adv-x="1153" d="M1176 336v-115q-105 -103 -234 -174.5t-338 -71.5q-160 0 -283 68.5t-193.5 191t-70.5 277.5q0 184 67 352q34 84 78.5 157.5t100.5 136.5q110 125 245 196t263 71q96 0 170 -39t116 -111t42 -163q0 -116 -50 -218.5t-135.5 -165t-183.5 -62.5q-76 0 -127 39.5t-51 103.5 q0 54 43 100q32 -59 88 -59q27 0 51.5 11t51.5 36q51 46 82.5 121t31.5 151q0 84 -38 132.5t-103 48.5q-72 0 -150.5 -69t-147.5 -183q-31 -53 -58.5 -116.5t-48 -133t-30.5 -132.5t-10 -126q0 -209 117.5 -343t302.5 -134q112 0 203.5 50.5t198.5 172.5z" />
<glyph unicode="D" horiz-adv-x="1556" d="M983 1153l39 -53q-31 -31 -58 -69q-22 -32 -41 -79q-14 -39 -24 -90t-22 -147q-17 -151 -49.5 -245t-92 -159.5t-168.5 -130.5q48 -18 90 -39q85 -35 131 -49q45 -12 84 -12q122 0 204.5 113t122.5 273.5t40 297.5q0 134 -33.5 240.5t-93.5 183t-144.5 118.5t-189.5 42 q-108 0 -212.5 -54t-174.5 -142q-34 -44 -50.5 -86t-16.5 -87q0 -99 84 -135q36 -18 36 -45q0 -21 -36 -42q-15 -8 -39 -19q-16 -7 -45 -19l-54 -17q-52 0 -90.5 60.5t-38.5 130.5q0 82 45.5 175t136.5 174t228.5 133t308.5 52q153 0 276 -42.5t211 -123.5t135.5 -196.5 t47.5 -257.5q0 -82 -16 -161t-49 -155q-63 -149 -177.5 -266.5t-264.5 -183.5t-312 -66q-176 0 -334 78q-126 -78 -217 -78q-53 0 -88 29.5t-35 73.5q0 70 73.5 118t182.5 48q77 0 149 -25q42 33 66.5 82t36 104t25.5 161t29.5 177.5t37 126.5t53 98.5t74.5 80.5 q102 90 219 104z" />
<glyph unicode="E" horiz-adv-x="1067" d="M1090 336v-115q-92 -89 -176 -141t-178 -77.5t-199 -25.5q-73 0 -133 11t-118 36q-109 47 -168 134q-29 43 -44 93t-15 107q0 164 127 281q58 50 126 80.5t182 56.5q-213 78 -213 273q0 77 38.5 144.5t107 119.5t159 82t196.5 30q113 0 177.5 -35.5t85 -74t20.5 -55.5 t-23 -54.5t-53.5 -68.5t-46.5 -33q-27 0 -39 76q-27 170 -137 170q-55 0 -107 -43.5t-84 -117.5t-32 -149q0 -78 36.5 -135t151.5 -57q30 0 40.5 -3t12.5 -18q0 -18 -3 -37.5t-11 -44.5q-14 -47 -39 -47l-38 3l-45 6l-42 2q-70 0 -129 -39t-95 -110q-16 -34 -25 -71.5 t-9 -76.5q0 -86 41 -158t112 -111t161 -39q111 0 224.5 59.5t203.5 172.5z" />
<glyph unicode="F" horiz-adv-x="1237" d="M1188 1444h51q-20 -105 -49 -158.5t-81.5 -75.5t-137.5 -22l-155 4l-157 4q-130 0 -219.5 -50.5t-89.5 -152.5q0 -89 109 -141q36 -16 37 -31q0 -30 -40.5 -70t-93.5 -61q-135 36 -135 174q0 30 9 70t29 90q39 100 109.5 191t178.5 154t238 63q28 0 72.5 -4t75.5 -7 l151 -10q80 0 98 33zM1196 834l-18 -175q-14 -23 -71 -44q-48 -17 -171 -52q0 -72 -20.5 -139.5t-58.5 -143.5q-64 -132 -186.5 -216t-289.5 -84q-120 0 -195 36.5t-110 86t-35 85.5q0 20 33 58q32 34 75 66t64 32q25 0 31 -18.5t6 -73.5q0 -90 38.5 -142.5t104.5 -52.5 t117 47t87 139.5t54 231.5q-91 -18 -209 -86l43 135q85 71 181 107q15 162 54 255t130 187q64 8 104.5 12.5t57.5 4.5q-26 -52 -38.5 -97.5t-18.5 -100.5l-7 -157q122 41 248 99z" />
<glyph unicode="G" horiz-adv-x="1300" d="M741 -111q-260 -129 -260 -256q0 -30 18.5 -48.5t45.5 -18.5q80 0 122 92q20 43 38.5 100.5t35.5 130.5zM1323 336v-115l-52 -50q-22 -20 -56 -41l-71 -42l-81 -45q-22 -129 -53 -208q-15 -40 -36.5 -79.5t-49.5 -77.5q-69 -93 -157.5 -142.5t-188.5 -49.5 q-82 0 -128.5 38t-46.5 105q0 110 102.5 197t258.5 164q24 83 41 139q22 71 33 104q-53 -82 -173 -156.5t-233 -74.5q-111 0 -199.5 65.5t-140 183.5t-51.5 265q0 186 78 354.5t205.5 291.5t279 193t291.5 70q112 0 200.5 -44t137.5 -124.5t49 -183.5q0 -57 -13 -107 t-43 -101q-54 -97 -147 -156.5t-196 -59.5q-63 0 -110 20.5t-76 56.5q-27 36 -27 79q0 41 24 71.5t54 30.5t30 -35q0 -36 25 -50.5t51 -14.5q41 0 79.5 29.5t74.5 79.5q31 48 53 112q10 31 15 60t5 63q0 60 -26 105t-73 69.5t-105 24.5q-108 0 -207.5 -75t-177.5 -197 q-74 -118 -119 -263q-21 -71 -32 -138.5t-11 -133.5q0 -106 31 -186t89.5 -123.5t135.5 -43.5q63 0 127 31.5t125 92t123 153.5l188 27q21 0 28 -2.5t7 -14.5q0 -7 -16 -52l-15 -46l-41 -135l-29 -107q40 24 74.5 47t62.5 46q52 43 103 106z" />
<glyph unicode="H" horiz-adv-x="1812" d="M1835 336v-115q-85 -88 -155 -142t-138 -79t-133 -25q-62 0 -126 35.5t-108.5 129.5t-44.5 243q0 65 21 217l-184 -14q-24 -125 -57.5 -213.5t-78.5 -155.5q-54 -78 -121 -130.5t-152.5 -82t-170.5 -29.5q-102 0 -180 33t-119 82t-41 86q0 31 33 70t77 68.5t60 29.5 q39 0 39 -84q0 -207 139 -207q129 0 185.5 140t91.5 352q-121 -18 -238 -117q-5 12 -14 86q62 65 120 98.5t158 63.5q25 110 50 178.5t60.5 123t92 117t154.5 160.5q-109 -41 -170 -41q-40 0 -111 25q-63 21 -100 21q-61 0 -104 -30.5t-66 -76t-23 -80.5q0 -64 68 -117 q29 -19 31 -36q0 -31 -40 -75t-75 -44q-39 0 -72 56t-33 122q0 72 38.5 150t105.5 148q64 64 141 106t148 42q16 0 44.5 -6t77.5 -20q94 -25 119 -25q29 0 64.5 15.5t60.5 40.5q75 -39 76 -50q0 -12 -40 -53t-68 -83.5t-49.5 -104t-42.5 -168t-42 -256.5q35 0 54.5 1.5 t60.5 6.5l86 10q27 95 52 158q13 35 25.5 62t32.5 64q36 69 82 144q66 107 93 140.5t62 50t128 41.5l63 16l62 16q12 0 12 -6q0 -16 -39 -69q-22 -32 -46 -71.5t-50 -88.5q-46 -85 -80 -155l-54 -127l-48 -138q18 4 38 8.5t37 10.5q33 9 62 26q30 15 84 51q12 -4 15.5 -16.5 t3.5 -58.5q-30 -36 -69.5 -63.5t-90.5 -47.5t-117 -37l-36 -188q-5 -35 -5 -88q0 -96 43.5 -154.5t114.5 -58.5q49 0 92.5 23.5t79.5 58t94 100.5z" />
<glyph unicode="I" horiz-adv-x="1237" d="M584 922q-5 -39 -42 -78t-71 -39q-39 0 -72.5 54.5t-33.5 121.5q0 73 38 151t105 146q64 64 142 105.5t149 41.5q49 0 120 -24.5t111 -24.5q55 0 103 35q19 12 34 14q15 0 40.5 -16t25.5 -33q0 -10 -53 -69q-45 -49 -72 -100t-46 -111q-4 -13 -13 -51.5t-13 -56.5 l-32 -200q-20 -137 -45 -248t-48 -165q-62 -157 -154 -246t-187 -121q-47 -15 -91.5 -23t-89.5 -8q-105 0 -184 36t-117.5 84.5t-38.5 84.5q0 24 34.5 62t76 68t55.5 32q28 0 36 -21q3 -11 5 -28.5t2 -44.5q0 -86 39 -140.5t104 -54.5q88 0 143 75t82 171q23 88 44 215 q32 208 77 326.5t114 205.5t200 209q-51 -20 -93.5 -30t-84.5 -10q-41 0 -113 24q-55 23 -94 23q-50 0 -93 -25.5t-69.5 -70t-26.5 -93.5q0 -65 64 -110q15 -11 21.5 -19.5t11.5 -23.5z" />
<glyph unicode="J" horiz-adv-x="1067" d="M438 -88q-160 -56 -243.5 -125t-83.5 -145q0 -31 18.5 -51.5t50.5 -20.5q54 0 130.5 70.5t127.5 271.5zM1090 336v-115q-38 -38 -87 -74q-42 -30 -104 -61q-55 -27 -174 -76q-46 -125 -87 -197q-21 -38 -44.5 -70t-56.5 -69q-81 -88 -177 -138t-184 -50q-63 0 -103 40 t-40 107q0 133 122.5 218.5t305.5 150.5l93 528q24 123 56.5 228.5t75 178t129.5 181.5q82 104 109 148q-99 -52 -164 -52q-28 0 -49 6l-47 17q-25 12 -44.5 16.5t-31.5 6.5t-27 2q-75 0 -132.5 -56t-57.5 -129q0 -63 67 -114q33 -26 35 -43q0 -16 -46 -65.5t-71 -49.5 q-11 0 -40 21q-25 21 -45.5 61t-20.5 92q0 96 66 202.5t168.5 175t197.5 68.5q33 0 54.5 -6.5t54.5 -22.5l48 -20l42 -4q51 0 116 53q78 -9 78 -30q0 -7 -6 -21t-20 -37q-65 -101 -97.5 -206t-66.5 -302l-15 -100q-16 -107 -25 -164q-13 -82 -22 -127l-27 -157l-18 -92 q-7 -32 -9.5 -43.5t-10.5 -36.5q110 39 190 93t142 134z" />
<glyph unicode="K" horiz-adv-x="1729" d="M1751 336v-115q-84 -88 -153 -144q-65 -52 -126 -77q-27 -11 -58.5 -17t-65.5 -6q-102 0 -170 77t-68 192l13 127l14 141q0 51 -9 81q-7 29 -30 54l-37 -2q-47 0 -47 41q0 37 21.5 48.5t62.5 11.5l22 -3q75 0 116.5 71.5t74.5 209.5q37 146 78 227.5t98 126.5t119 45 q47 0 88 -34t41 -74q0 -23 -36.5 -95.5t-58.5 -72.5q-10 0 -26 25q-31 49 -72 49q-52 0 -84.5 -64t-54.5 -149q-27 -107 -68 -189t-123 -116q104 -54 147.5 -124t43.5 -180l-4 -72l-4 -73q0 -55 18.5 -84t71.5 -29q103 0 266 193zM1016 911l-21 -123q-40 -270 -97.5 -419 t-154.5 -244q-76 -74 -164.5 -111t-193.5 -37q-132 0 -237 63t-105 144q0 25 33.5 63t73.5 66.5t59 28.5q47 0 47 -76q0 -213 135 -213t192 156.5t81 322.5q13 80 24.5 138t25.5 106q24 89 62.5 159t94.5 134q29 33 72 78q39 41 106 108q-114 -43 -187 -43q-42 0 -141 33 q-73 29 -117 29q-66 0 -113 -52t-47 -124q0 -84 76 -148q24 -21 25 -32q0 -18 -46 -63.5t-77 -45.5q-34 0 -69.5 60.5t-35.5 119.5q0 106 61.5 209t158.5 166t198 63q58 0 156 -36q79 -31 117 -31q60 0 106 49q15 15 29 16q13 0 43 -9.5t31 -22.5q0 -10 -33 -52 q-54 -69 -84.5 -126.5t-48.5 -123t-35 -180.5z" />
<glyph unicode="L" horiz-adv-x="1300" d="M1323 336v-115q-81 -81 -159 -134.5t-159.5 -80t-166.5 -26.5q-33 0 -48.5 1t-41.5 7q-43 6 -95 25q-26 9 -56.5 21.5t-64.5 28.5q-82 38 -163 62q-69 -75 -128.5 -111.5t-115.5 -36.5q-24 0 -43.5 11t-33.5 31q-11 20 -11 44q0 78 75 135t210 78q38 53 57 104.5t27 114 t11 101t3 78.5q0 92 18 177.5t49 162.5q58 146 140.5 234.5t177.5 132.5t176 44q68 0 127.5 -23t99.5 -63t64 -97.5t24 -127.5q0 -101 -42 -192t-113 -146t-152 -55q-64 0 -99.5 35t-35.5 94q0 30 12 72q28 -31 68 -31q46 0 84.5 38t62 102t23.5 134q0 85 -38.5 135 t-107.5 50q-81 0 -126 -57.5t-65 -140.5q-8 -37 -15 -85.5t-17 -126.5q-19 -165 -40 -265.5t-72 -200t-140 -191.5h49q89 0 241.5 -57.5t236.5 -57.5q85 0 160 39.5t153 128.5z" />
<glyph unicode="M" horiz-adv-x="2048" d="M1640 1174l58 104q-41 -44 -83 -97q-33 -42 -80 -120q-42 -72 -93 -183t-117 -276q-90 -223 -159 -359q-65 -127 -150 -212q-28 -28 -67 -40q-18 -5 -46 -8t-67 -3q-22 0 -29 3.5t-8 16.5l4 31q16 67 28 161q9 81 10 86q5 46 5 78l8 188l4 183q0 89 6.5 158.5t21.5 143.5 q24 127 66 239q-38 -46 -71 -119q-14 -31 -29 -70.5t-29.5 -86.5t-36.5 -127q-13 -48 -26 -95l-25 -98q-31 -122 -61.5 -214t-64.5 -163.5t-70 -120.5q-66 -94 -145 -144t-156 -50q-55 0 -99 22.5t-72 61.5t-28 81q0 33 33 72t76 69.5t55 32.5q20 0 28.5 -18t18.5 -82 q11 -106 90 -106q58 0 127 90q36 47 72 120q33 68 71 181q34 103 70 241l29 121q33 130 62.5 213.5t69.5 153.5t115 172q7 11 66 19q30 4 56.5 6t60.5 2q12 0 15 -3.5t5 -19.5l-6 -45q-18 -132 -18 -281l2 -268q0 -350 -56 -565q35 47 68 119.5t86 210.5q116 300 195 444 t141 219q52 64 104 113.5t70 52.5l91 13l93 8q27 0 27 -15q0 -22 -33 -94q-49 -111 -101 -296q-48 -181 -81 -361q-15 -90 -23 -164t-8 -133q0 -96 31.5 -148.5t91.5 -52.5q51 0 107.5 40.5t130.5 129.5v-115q-70 -75 -142 -130q-67 -52 -136.5 -81.5t-129.5 -29.5 q-124 0 -176.5 121t-52.5 276q0 43 5 92t18 128t29 148t42 152q23 77 50.5 145.5t61.5 131.5z" />
<glyph unicode="N" horiz-adv-x="1812" d="M1204 692l34 -202l17 -122l11 -92q43 111 83.5 266t80 364t106 364t201.5 155q82 0 82 -94q0 -50 -20 -73t-73 -33q-63 -6 -106 -49t-66 -105t-45 -153l-47 -216l-30 -139q-34 -150 -79.5 -273.5t-75.5 -186t-50 -95.5q-6 -6 -21 -11l-37 -7l-108 -13q-25 0 -33 5 q-10 3 -10 22l-8 116q0 33 -2.5 63t-6.5 60q0 19 -3.5 44t-10.5 57q-4 27 -13 72t-22 100l-41 226l-22 148l-19 200q-10 -20 -28 -82l-119 -433q-26 -90 -50 -162.5t-48 -130.5q-46 -118 -132.5 -211.5t-211.5 -93.5q-100 0 -156.5 62t-56.5 111q0 22 34.5 61t76.5 71 q20 15 35 23t24 8q29 0 41 -73q8 -74 37 -106t63 -32q64 0 123 102t99 228q23 71 38 121q9 30 33 117l30 121q101 381 136 475l32 94q11 28 21 38q8 6 53 13l105 14q46 0 58.5 -6.5t12.5 -42.5q0 -89 7 -163q0 -43 9.5 -101.5t13.5 -86.5q16 -117 28 -182z" />
<glyph unicode="O" horiz-adv-x="1300" d="M791 1425v-16q-70 -69 -103 -106q-151 -169 -240.5 -392t-89.5 -438q0 -50 6 -90.5t20 -77.5q26 -71 74.5 -109t114.5 -38q119 0 235 119t203 267.5t138 308.5t51 294q0 88 -28 140q-14 26 -32 39t-44 13q-60 0 -114 -63.5t-88 -152.5t-34 -148q0 -72 68 -82 q15 0 21.5 -6t6.5 -21q0 -45 -45 -87t-94 -42q-59 0 -100 54.5t-41 136.5q0 112 60 228.5t154 192.5t183 76q64 0 108.5 -33.5t68.5 -94t24 -148.5q0 -191 -79 -398.5t-211 -383.5t-286.5 -283t-296.5 -107q-93 0 -168.5 54.5t-117 154t-41.5 220.5q0 178 60.5 352 t150.5 312q46 69 90 125t88 100q88 88 137 104q81 26 191 26z" />
<glyph unicode="P" horiz-adv-x="1386" d="M1096 836q110 136 110 270q0 74 -33.5 129.5t-97.5 86t-151 30.5q-127 0 -246 -54t-193.5 -143.5t-74.5 -183.5q0 -95 86 -129q34 -15 34 -41q0 -27 -75.5 -63t-104.5 -36q-28 0 -58.5 28.5t-48.5 71t-18 89.5q0 84 49.5 178t139.5 175t223.5 132t290.5 51q106 0 191 -26 t144.5 -74.5t92.5 -118.5t33 -157q0 -111 -47 -190t-108 -119t-97 -40q-25 0 -56.5 21.5t-31.5 40.5q0 12 47 72zM1116 1167q-38 -35 -60 -67.5t-37 -77t-29 -111.5l-29 -198q-21 -188 -63 -308q-38 -115 -114 -206q-55 -66 -132 -118q-37 -25 -76 -43.5t-86 -33.5 q-87 -27 -179 -27q-126 0 -206 63.5t-80 160.5q0 22 4.5 34.5t16.5 24.5t40 31q36 25 85 49.5t67 24.5q14 0 26.5 -11t14.5 -28l-10 -78l-9 -72q0 -56 27.5 -87.5t72.5 -31.5q92 0 176 109.5t123 417.5q21 177 54 287t85.5 179.5t141.5 120.5q78 43 119 43q10 0 28.5 -15.5 t28.5 -31.5z" />
<glyph unicode="Q" horiz-adv-x="1300" d="M760 1425l2 -14l-105 -106q-99 -111 -174 -250.5t-115 -290.5q-20 -77 -30 -148t-10 -145q0 -50 6 -90.5t20 -77.5q25 -70 74.5 -108.5t116.5 -38.5q43 0 70.5 10t82.5 43q-49 70 -79.5 93.5t-71.5 23.5l-10 -2l-19 -3l-10 -2q-13 0 -14 13q0 13 26 44t70 57t84 26 q41 0 77.5 -21.5t98.5 -83.5q90 113 162.5 245.5t114.5 270.5t42 277q0 88 -28 138q-14 26 -32 39t-44 13q-60 0 -114.5 -64t-88 -152t-33.5 -146q0 -75 68 -84q16 0 22.5 -6t6.5 -19q0 -46 -45.5 -87.5t-94.5 -41.5q-60 0 -100.5 54t-40.5 135q0 86 35.5 174.5t93.5 161.5 t129 118t137 45q93 0 148 -74.5t55 -205.5q0 -135 -38 -276t-116 -286t-194 -292q50 -69 87 -104t87 -35q59 0 115.5 45t138.5 139v-115q-96 -96 -156 -145.5t-108 -74t-92 -24.5q-30 0 -50.5 6.5t-49.5 28t-52 46.5q-15 16 -30 33t-42 50q-206 -164 -370 -164 q-94 0 -170.5 54t-118 152t-41.5 220q0 181 62 355.5t151 311t177 225.5t136 104q87 26 191 26z" />
<glyph unicode="R" horiz-adv-x="1642" d="M1665 336v-115q-121 -130 -214 -188q-45 -28 -89.5 -42t-91.5 -14q-98 0 -157.5 64.5t-59.5 167.5q0 59 30 176q27 102 27 162q0 96 -61 96q-19 0 -28 8t-9 27q0 59 47 59l34 -3l29 -1q37 0 60.5 9.5t56.5 39.5q44 50 66 114.5t22 150.5q0 303 -344 303q-143 0 -271 -54 t-208 -144t-80 -185q0 -82 82 -125q39 -20 39 -49q0 -26 -77 -59.5t-103 -33.5q-44 0 -79.5 58t-35.5 131q0 147 104 271.5t281.5 195.5t388.5 71q152 0 260 -34.5t178 -92.5t103 -131q16 -35 25 -71t9 -72t-8 -67t-27 -66q-32 -62 -94 -113q-43 -34 -104 -57.5t-178 -54.5 q90 -52 130 -113t40 -147q0 -50 -15 -127l-6 -64q0 -86 68 -86q54 0 113 50t147 155zM1151 1178q-56 -44 -86 -91q-25 -42 -47 -129q-18 -82 -39 -243q-24 -176 -64.5 -306t-146.5 -239q-86 -91 -202 -142t-238 -51q-114 0 -178 41.5t-86.5 95t-22.5 93.5q0 24 12 41 q19 25 96 69.5t103 44.5q33 0 33 -38q0 -16 -4 -37t-7 -35l-10 -66q0 -57 32.5 -93t80.5 -36q46 0 100.5 34.5t112 154t85.5 336.5t66.5 327t120.5 189q51 49 116.5 81.5t117.5 32.5q21 0 55 -34z" />
<glyph unicode="S" horiz-adv-x="1153" d="M938 1053h-18q-9 4 -17 18l-8 41q-8 73 -37 123.5t-76 80.5t-102 30q-52 0 -96 -26t-70.5 -70.5t-26.5 -98.5q0 -85 53 -154q50 -65 171 -182q118 -112 177.5 -198.5t59.5 -192.5q0 -120 -71 -222t-190 -164.5t-255 -62.5q-120 0 -208 39t-136.5 91t-48.5 79q0 26 60 129 t71 103q31 0 46 -19q12 -16 17.5 -74.5t21 -115.5t66 -104.5t146.5 -47.5q52 0 98 18t86 55t60 81t20 90q0 78 -48 137t-159.5 166.5t-169 198t-57.5 209.5q0 90 46.5 185t145 162.5t236.5 67.5q103 0 181.5 -34t119.5 -76.5t41 -69.5q0 -37 -129 -192z" />
<glyph unicode="T" horiz-adv-x="1386" d="M1374 1368l21 -6q-12 -104 -59.5 -159.5t-123.5 -55.5q-48 0 -163 35q-189 61 -308 61q-100 0 -179.5 -52t-126.5 -124q-22 -34 -34 -63t-12 -52q0 -74 96 -137q39 -24 39 -45q0 -27 -55 -73t-84 -46q-46 0 -87.5 54.5t-41.5 117.5q0 87 54 193.5t151 199.5t228 151 t274 58q69 0 133 -12t139 -39q68 -22 92 -22t41 14l3 1zM406 55q79 0 145.5 35t116.5 103q32 46 52 99q8 22 15 55.5t11 73t7 90.5t3 122q0 145 19 213.5t75 124.5q7 6 23.5 18.5t29.5 20.5q32 21 64.5 33t52.5 12q39 0 39 -25q-14 -37 -22 -93q-5 -58 -5 -161l-2 -125 q0 -89 -17 -163t-52 -146q-62 -132 -155 -210t-205 -116.5t-218 -38.5q-117 0 -196 36t-115.5 85t-36.5 86q0 17 18 44q10 15 25.5 31t21.5 21q27 24 58 43t49 19q43 0 43 -80l3 -77q3 -29 18 -62q15 -29 48 -49q35 -19 87 -19z" />
<glyph unicode="U" horiz-adv-x="1556" d="M1579 336v-115q-229 -244 -391 -244q-50 0 -96.5 26.5t-81.5 76.5q-29 46 -39 97t-10 136q-45 -84 -98.5 -157t-130 -126t-169.5 -53q-109 0 -174 84t-65 222q0 37 7 87.5t22 110.5q30 118 93 301q35 100 71 224q32 114 32 172q0 68 -32.5 111.5t-84.5 43.5t-104.5 -42.5 t-88.5 -112.5q-16 -32 -25 -66t-9 -68q0 -90 67 -151q24 -21 25 -37q0 -34 -44.5 -81.5t-78.5 -47.5q-41 0 -78 59.5t-37 128.5q0 92 37.5 185.5t100 165t143.5 116.5q39 21 78 32t80 11q84 0 150.5 -45t102 -127t35.5 -188q0 -52 -6 -105.5t-19.5 -114t-35.5 -132.5 t-57 -168l-40 -114l-31 -112q-11 -53 -11 -83q0 -52 23.5 -81.5t64.5 -29.5q50 0 99.5 48t89.5 123t72.5 160.5t53.5 161.5l104 379q57 206 107 349q15 41 28 48t81 15l143 16q27 0 27 -14l-47 -170l-57 -211l-80 -326q-35 -156 -56.5 -269t-21.5 -161q0 -65 25 -105t67 -40 q51 0 108 47t162 160z" />
<glyph unicode="V" horiz-adv-x="1386" d="M502 1427q87 0 154 -45t104 -130.5t37 -194.5q0 -106 -29.5 -216.5t-81.5 -252.5q-84 -225 -84 -332q0 -69 42 -116.5t104 -47.5q74 0 152 67t145 181t107 250t40 266q0 161 -98 348q-31 56 -31 78q0 25 41 58t94.5 59t69.5 26q21 0 45 -48q21 -43 37 -115t16 -138 q0 -165 -53 -363t-150 -378t-227.5 -293t-273.5 -113q-93 0 -165 45t-112.5 127t-40.5 189q0 152 109 440q100 276 100 393q0 77 -29.5 120.5t-83.5 43.5t-105.5 -42t-87.5 -111q-16 -33 -25 -67.5t-9 -67.5q0 -46 13.5 -77.5t45.5 -64.5q29 -24 29 -47q0 -37 -43 -84 t-78 -47q-41 0 -79 57q-35 58 -35 129q0 80 33.5 172.5t91.5 169.5t139.5 124.5t171.5 47.5z" />
<glyph unicode="W" horiz-adv-x="1962" d="M791 1071q0 -62 -12 -131q-6 -39 -14 -72t-22.5 -82.5t-30 -98t-38.5 -109.5q-19 -59 -37 -117q-13 -41 -28 -95q-11 -39 -17 -75t-6 -64q0 -44 24 -74q25 -28 64 -28q56 0 113 62t114 190.5t103 296.5l94 352q33 124 63 208q19 53 30.5 83t31.5 76q4 11 93 22 q29 3 64.5 6.5t59.5 3.5q21 0 30 -2.5t9 -13.5q0 -13 -47 -176l-136 -522q-79 -322 -79 -449q0 -64 25.5 -99.5t70.5 -35.5t122 57.5t150.5 157.5t122.5 229q23 63 36 133t13 140q0 89 -23 184t-67 184q-25 50 -25 66q0 27 40 63q36 32 89 58t72 26q22 0 46 -42t41 -110 q8 -35 12 -64.5t4 -63.5q0 -206 -72.5 -413t-192 -380.5t-252 -274t-243.5 -100.5q-42 0 -91.5 21.5t-91.5 96.5t-42 220q-78 -141 -170.5 -239.5t-221.5 -98.5q-110 0 -177.5 81t-67.5 216q0 96 30.5 212t83.5 269.5t81 266t28 176.5q0 58 -33.5 97.5t-83.5 39.5t-104 -44 t-89.5 -111.5t-35.5 -130.5q0 -50 18 -84t49 -71q27 -33 29 -48q0 -15 -42.5 -67t-74.5 -52q-14 0 -42 18t-51.5 61t-23.5 112q0 98 35 187q18 44 42.5 85t55.5 78q62 73 143 116t159 43q81 0 148.5 -46t106 -128t38.5 -182z" />
<glyph unicode="X" horiz-adv-x="1473" d="M1495 336v-115q-68 -71 -153 -125.5t-172 -87.5q-43 -15 -84 -23t-78 -8q-69 0 -135 33t-113 96q-42 56 -63 120q-18 65 -27 171q-87 -182 -192.5 -301t-239.5 -119q-82 0 -135.5 57.5t-53.5 88.5q0 22 80 96t102 74t31 -45t37 -75q30 -28 70 -28q89 0 185 194 q91 190 156.5 445.5t65.5 356.5q0 91 -37.5 142.5t-101.5 51.5q-61 0 -125 -48t-105.5 -120.5t-41.5 -140.5q0 -131 135 -131q37 0 37 -21q0 -8 -24.5 -49.5t-58.5 -73.5t-75 -32q-43 0 -81 27q-34 26 -59 75q-22 50 -22 103q0 107 69 226t182.5 197t238.5 78 q79 0 141.5 -30t101.5 -88q31 -46 47 -105q6 -25 10.5 -67.5t4.5 -85.5q72 156 141.5 241.5t117 110t77.5 24.5q46 0 86.5 -32.5t40.5 -71.5q0 -24 -21 -63q-21 -36 -49.5 -64.5t-44.5 -28.5q-19 0 -39 35q-29 51 -61 51q-51 0 -108 -96t-110 -248q-25 -71 -45 -143.5 t-36.5 -149t-24.5 -133.5t-8 -96q0 -115 59.5 -186.5t157.5 -71.5q172 0 350 209z" />
<glyph unicode="Y" horiz-adv-x="1556" d="M924 -90q-89 -30 -165 -75t-117.5 -95.5t-41.5 -95.5q0 -36 26.5 -61t63.5 -25q47 0 87.5 36.5t75 111t71.5 204.5zM1505 1200l-155 -678q-37 -166 -107 -413q105 36 181.5 84.5t154.5 142.5v-115q-56 -68 -143 -116q-83 -45 -224 -91q-75 -220 -173.5 -337.5 t-187.5 -155t-159 -37.5q-75 0 -121.5 41t-46.5 110q0 215 424 363l23 94l38 153l50 200q8 32 16 65q3 11 19 63l57 191l-139 -294q-93 -194 -216 -337t-266 -143q-100 0 -162.5 78.5t-62.5 203.5q0 41 7 92.5t21 109t38 137.5t55 167q104 300 104 408q0 65 -34 109t-88 44 q-53 0 -105 -41.5t-86.5 -109t-34.5 -135.5q0 -95 68 -154q24 -21 24 -35q0 -30 -40 -82.5t-78 -52.5q-43 0 -82 58q-37 60 -37 126q0 107 57 229.5t157.5 206t225.5 83.5q84 0 150.5 -45.5t103.5 -128.5t37 -187t-28 -223q-13 -57 -37 -136.5t-58 -172.5q-84 -236 -84 -332 q0 -90 66 -90q67 0 155 112q45 58 87.5 128.5t91.5 168.5q90 182 169 394q58 151 92 254q30 87 60 192q4 21 17.5 30t52.5 15l70 8l80 9l34 4q21 0 23 -15z" />
<glyph unicode="Z" horiz-adv-x="1153" d="M649 829l68 72q106 112 164 181q53 65 84 112q-70 -35 -156 -35q-78 0 -209 31q-108 24 -162 24q-77 0 -127.5 -38t-50.5 -95q0 -28 13 -50.5t49 -55.5q38 -30 38 -55q0 -20 -23 -46.5t-52 -47.5t-43 -21q-32 0 -67 51q-32 52 -32 105q0 83 39.5 165.5t107.5 151t152 109 t162 40.5q28 0 39.5 -1.5t33.5 -5.5t44.5 -8t47.5 -10l110 -20q20 -3 45 -6.5t43 -3.5q72 0 123 41q12 12 24 12q20 0 29 -3q7 -1 8 -13q0 -57 -61 -164q-31 -54 -70.5 -109t-93.5 -116l-90 -101l-177 -193l-184 -202l-78 -86q-85 -94 -141 -196q92 26 131 34q17 3 40 5 t52 2q59 0 114 -11t142 -43l121 -38q39 -9 80 -9q56 0 107.5 32.5t132.5 121.5v-115q-135 -129 -251 -188q-57 -28 -115 -42t-124 -14q-51 0 -94.5 11t-120.5 43q-30 13 -60.5 24t-56.5 17q-48 12 -94 12q-53 0 -77.5 -14.5t-39.5 -59.5q-11 -33 -32 -33h-22q-14 0 -26 2 q-11 0 -17.5 5.5t-6.5 17.5q0 10 20 59q17 41 38.5 82t50.5 86q57 91 132.5 185t174.5 204.5t194 210.5z" />
<glyph unicode="[" horiz-adv-x="981" d="M37 -459l491 1886h469l-26 -92h-219l-443 -1702h219l-26 -92h-465z" />
<glyph unicode="\" horiz-adv-x="20" d="M43 336v-115q-41 -44 -102 -94q-52 -41 -103 -74q-47 -28 -63 -28q-11 0 -23.5 19t-13.5 32q0 12 53 39q113 59 252 221z" />
<glyph unicode="]" horiz-adv-x="981" d="M485 1335l25 92h469l-502 -1886h-465l21 92h223l449 1702h-220z" />
<glyph unicode="^" horiz-adv-x="1167" d="M360 666h-151l409 718h82l406 -718h-160l-295 512z" />
<glyph unicode="_" horiz-adv-x="1024" d="M-20 -256v102h1060v-102h-1060z" />
<glyph unicode="`" horiz-adv-x="682" d="M414 975l-47 -27q-126 77 -200 155t-136 195l231 39q17 -98 49.5 -175.5t102.5 -186.5z" />
<glyph unicode="a" horiz-adv-x="1067" d="M543 770q-67 0 -132 -81.5t-106 -198.5t-41 -203q0 -52 26 -87q28 -34 68 -34q69 0 132.5 81.5t104 199.5t40.5 204q0 55 -24 87t-68 32zM1090 336v-115q-151 -142 -221.5 -193t-139.5 -51q-149 0 -149 279q-103 -148 -188 -213.5t-171 -65.5q-57 0 -106 37.5t-77 104.5 t-28 143q0 125 53 232t133.5 186.5t172 125.5t163.5 46q124 0 175 -115l204 113h56l-88 -293l-46 -170q-10 -42 -16 -77.5t-6 -55.5q0 -41 17 -63.5t44 -22.5q32 0 74 33t144 135z" />
<glyph unicode="b" horiz-adv-x="897" d="M377 756q160 155 245 292.5t85 204.5q0 26 -12 45t-31 19q-41 0 -82.5 -59t-81.5 -153q-33 -79 -74 -199zM920 336v-115q-68 -74 -168 -74q-43 0 -78 15.5t-88 58.5q-121 -138 -200 -189q-41 -26 -81.5 -39t-87.5 -13q-87 0 -146 72.5t-59 178.5q0 188 90 467 q31 92 49 144q25 72 43 117q39 104 69 169.5t61 118.5l49 84q44 14 94 29q61 18 138 39q101 26 116 26q31 0 51.5 -38t20.5 -93q0 -93 -60 -204.5t-130.5 -197.5t-143.5 -159l-131 -131l-38 -144l-19 -101l-5 -76q0 -57 25.5 -91t68.5 -34q44 0 82 27t95 100q-50 88 -50 176 q0 68 21 139.5t57 128.5t80.5 90t87.5 33q36 0 58 -31t22 -82q0 -167 -184 -448q56 -68 125 -68q35 0 61 12t43 32z" />
<glyph unicode="c" horiz-adv-x="748" d="M770 336v-115q-64 -63 -125.5 -111t-114.5 -77q-106 -56 -217 -56q-129 0 -214 84t-85 215q0 103 42 207t112.5 186.5t161 131.5t176.5 49q90 0 145.5 -48.5t55.5 -129.5q0 -11 -1.5 -21.5t-10.5 -23.5t-38 -25l-116 -55q-19 -8 -31 -10q-14 0 -14 20l6 53l6 54 q0 42 -18 70t-50 28q-48 0 -93 -49.5t-73 -131.5t-28 -173q0 -117 57 -189t152 -72q50 0 96.5 18t98.5 59t120 112z" />
<glyph unicode="d" horiz-adv-x="1067" d="M539 774q-64 0 -127 -85q-30 -41 -54.5 -90.5t-46.5 -110.5q-39 -117 -39 -201q0 -56 25 -87.5t70 -31.5q53 0 100 47t86.5 126t60.5 160t21 144q0 59 -26 94q-24 35 -70 35zM672 784l143 598q91 21 144.5 31t91.5 10q19 0 20 -16q0 -6 -9 -45.5t-29 -114.5l-88 -354 q-49 -198 -86.5 -381.5t-37.5 -257.5q0 -35 15 -61q15 -23 43 -23q38 0 92 46.5t119 119.5v-115q-80 -79 -141 -133q-53 -47 -110 -79t-102 -32q-49 0 -102 50t-53 221q-81 -124 -162 -189q-103 -82 -191 -82q-54 0 -102.5 35.5t-80.5 99t-32 134.5q0 143 74.5 284 t195.5 230.5t242 89.5q50 0 78 -14q29 -12 68 -52z" />
<glyph unicode="e" horiz-adv-x="748" d="M246 406q125 36 190.5 103t65.5 163q0 46 -19 71t-51 25q-39 0 -82 -42t-73.5 -124.5t-30.5 -195.5zM770 336v-115q-52 -50 -92 -84.5t-79 -63.5q-68 -49 -137.5 -72.5t-142.5 -23.5q-136 0 -219.5 87.5t-83.5 228.5q0 103 39.5 205t105.5 179t153 124t175 47 q92 0 148.5 -47.5t56.5 -126.5q0 -86 -69 -153t-161 -107q-87 -37 -210 -76q20 -95 74.5 -145t134.5 -50q54 0 99.5 22t84.5 56q17 14 49 43.5t74 71.5z" />
<glyph unicode="f" horiz-adv-x="811" d="M0 311l190 197l55 260q10 44 20.5 80.5t30 96.5t36.5 108t33 86q34 84 58 133.5t34.5 65.5t137.5 52q63 17 96.5 25.5t43.5 9.5q38 0 62 -50t24 -130q0 -164 -87 -292t-267 -298l-84 -417q48 -105 147 -105q71 0 145 49t159 154v-115q-98 -110 -202 -177t-186 -67 q-36 0 -104 29l-20 -110l-15 -93l-18 -116l-21 -156q-84 -12 -250 -43q33 276 111 711l-39 96l-67 -74h-23v90zM498 791q112 97 181 216.5t69 219.5q0 40 -16 68t-38 28q-30 0 -60 -52q-11 -21 -25 -56t-28 -77q-25 -83 -45 -172q-15 -75 -18 -88q-7 -33 -20 -87z" />
<glyph unicode="g" horiz-adv-x="981" d="M520 772q-74 0 -133.5 -68.5t-96.5 -175.5q-16 -50 -25 -99t-9 -91q0 -69 29 -109.5t75 -40.5q61 0 108.5 60t74.5 142t43 164.5t16 109.5q0 45 -23.5 76.5t-58.5 31.5zM444 -68q-165 -59 -244 -125t-79 -143q0 -43 27 -72.5t69 -29.5q69 0 122 86t105 284zM465 20 l43 197q-98 -112 -168.5 -160.5t-138.5 -48.5q-82 0 -135.5 79t-53.5 202q0 66 17.5 130t53.5 132q71 130 185.5 214.5t229.5 84.5q93 0 172 -82q86 32 188 80h23q-15 -49 -30 -105t-30 -125l-94 -501q74 30 137 78.5t140 140.5v-115q-69 -70 -139 -116q-34 -21 -75 -41 q-35 -17 -90 -39q-80 -254 -208 -396.5t-273 -142.5q-77 0 -125.5 50t-48.5 128q0 91 63.5 159.5t152 112t204.5 84.5z" />
<glyph unicode="h" horiz-adv-x="981" d="M311 631q357 414 357 612q0 28 -9.5 43.5t-23.5 16.5q-37 0 -93.5 -85.5t-119 -236t-111.5 -350.5zM248 27l-223 -52q-13 109 -13 228q0 153 20 285t60 260t106 270t154 285q58 24 115 46t106 38q105 36 119 36q25 0 43.5 -42.5t18.5 -104.5q0 -65 -27.5 -145.5 t-85.5 -175.5t-156 -224q133 77 177 97t90 20q50 0 83 -37q31 -37 31 -96q0 -14 -1.5 -30.5t-9.5 -48.5q-5 -26 -12 -53t-20 -64q-9 -30 -20 -62t-23 -62q-25 -68 -43 -127q-6 -24 -9.5 -41t-4.5 -28q0 -22 13.5 -39t31.5 -17q31 0 89.5 47.5t146.5 145.5v-115 q-120 -124 -216 -185t-174 -61q-67 0 -112 46.5t-45 117.5q0 117 92 338q49 112 49 154q0 18 -11 29q-9 12 -28 12q-41 0 -120 -58t-156 -145q-18 -108 -28 -208q0 -35 -3.5 -117t-3.5 -117z" />
<glyph unicode="i" horiz-adv-x="492" d="M260 1249l72 -39q27 -10 55 -10q53 0 107 39q0 -118 -44.5 -179t-132.5 -61q-86 0 -147 52q56 87 90 198zM514 336v-115q-234 -246 -350 -246q-64 0 -108 67t-44 163q0 136 41.5 281t102.5 309l254 53h12l-100 -313q-34 -110 -48 -172t-14 -105q0 -34 14.5 -54t36.5 -20 q43 0 81.5 31.5t121.5 120.5z" />
<glyph unicode="j" horiz-adv-x="748" d="M496 1247q6 -4 49 -26q25 -13 29 -15q21 -8 55 -8q60 0 119 43q0 -119 -54 -181.5t-149 -62.5q-84 0 -152 58q44 58 71 105q10 19 17.5 40.5t14.5 46.5zM264 -258l21 174q-82 -36 -131.5 -103t-49.5 -139q0 -44 20.5 -76t49.5 -32q71 0 90 176zM358 731l62 80 q107 12 235 39l-46 -274l-58 -429q51 27 99 69t118 118l2 -113q-96 -95 -233 -170q-22 -132 -33 -176q-25 -100 -74 -190.5t-112.5 -144.5t-129.5 -54q-68 0 -114.5 55.5t-46.5 136.5q0 104 71 186t193 144l74 602q-100 -124 -180 -216q-71 -82 -162 -173h-23v90 q63 63 123 129q28 31 57 65.5t60 73.5z" />
<glyph unicode="k" horiz-adv-x="981" d="M348 705l66 73q81 93 152 183q29 38 55 77q23 34 46 76q40 77 40 129q0 30 -14 46t-40 16q-34 0 -83 -55q-45 -52 -102.5 -181.5t-119.5 -363.5zM252 18l-227 -38q-6 44 -9.5 86t-3.5 100q0 152 22 301t63 281.5t104.5 268t156.5 283.5q150 59 250 91t113 32 q23 0 46.5 -48t23.5 -101q0 -87 -55 -188.5t-187 -260.5q88 25 141 25q91 0 151 -47.5t60 -120.5q0 -50 -28.5 -94t-94.5 -83q-62 -36 -176 -67q117 -27 117 -137l-1 -14l-1 -23l-3 -31l-1 -22q0 -61 57 -61q35 0 81 33t120 116l33 39v-115q-67 -73 -110.5 -111.5 t-94.5 -73.5q-24 -16 -48 -28.5t-44 -19.5q-41 -15 -80 -15q-72 0 -121 50.5t-49 124.5q0 33 12 105l12 79q0 20 -16 34.5t-41 14.5q-18 0 -32.5 9t-14.5 30q0 36 15.5 48.5t53.5 12.5q123 0 170.5 50.5t47.5 95.5q0 26 -12.5 47.5t-37 34t-55.5 12.5q-65 0 -119.5 -39.5 t-140.5 -151.5q-18 -99 -31 -201q-6 -48 -9.5 -86t-3.5 -68z" />
<glyph unicode="l" horiz-adv-x="662" d="M301 612q75 80 143 196q64 110 103 223t39 198q0 37 -11 59.5t-28 22.5q-16 0 -41 -37q-6 -10 -17 -31q-15 -30 -33 -71q-27 -64 -57 -162q-24 -78 -48.5 -179t-49.5 -219zM684 336v-115q-140 -129 -242.5 -186.5t-191.5 -57.5q-71 0 -125 37t-83.5 107t-29.5 162 q0 72 7 136.5t24 142t37 151t46 149.5q52 150 103 268q55 127 95 199l254 94l18 4q30 0 48 -43t18 -114q0 -135 -40 -261.5t-127 -261.5q-43 -67 -98 -136.5t-123 -143.5l-8 -143q0 -89 32 -139t85 -50q62 0 125 45q31 23 74 61.5t102 94.5z" />
<glyph unicode="m" horiz-adv-x="1473" d="M242 33l-222 -53q0 42 -4 106t-4 86q0 61 3 109t11 96q13 88 50 196t98 234l242 47q-30 -77 -56 -157t-45 -158l20 22l30 33q51 60 118.5 122t131.5 99t112 37q51 0 84 -42.5t33 -111.5q0 -34 -10 -118q99 99 162.5 156.5t115 86.5t100.5 29q54 0 89.5 -44.5t35.5 -111.5 q0 -107 -69 -307q-49 -136 -49 -190q0 -25 11 -40.5t30 -15.5q54 0 196 152l39 41v-115q-144 -138 -228 -191t-159 -53q-64 0 -103.5 45.5t-39.5 122.5q0 108 69 320q39 119 39 156q0 32 -33 32q-29 0 -99 -62t-142 -157q-16 -72 -43 -183.5t-58 -227.5l-254 -46l97 412 l25 132l16 104q0 34 -23 34t-99 -64t-175 -185l-25 -141l-12 -106z" />
<glyph unicode="n" horiz-adv-x="981" d="M244 27l-221 -52q0 47 -3.5 96l-7.5 105q0 75 9 147.5t27 149.5t46 148q13 34 31.5 79.5t44.5 104.5l244 47q-73 -199 -101 -326q72 80 132 139.5t112 102.5q100 82 188 82q32 0 60 -17.5t43.5 -49.5t15.5 -68q0 -35 -11 -80q-4 -23 -11.5 -49.5t-19.5 -62.5 q-21 -71 -44 -124q-59 -151 -59 -196q0 -26 12.5 -43t36.5 -17q45 0 116.5 68t119.5 125v-115q-119 -125 -214.5 -184.5t-181.5 -59.5q-67 0 -108 47t-41 126q0 106 88 327q40 104 47 150q0 32 -25 32q-37 0 -108 -74q-64 -66 -185 -208q-18 -91 -19 -99q-8 -49 -8 -83 q0 -30 -2.5 -90t-2.5 -78z" />
<glyph unicode="o" horiz-adv-x="897" d="M545 250q-94 118 -94 254q0 85 32.5 148t106.5 128q-15 6 -43 6q-97 0 -159 -72.5t-90 -177t-28 -204.5q0 -103 33 -158t88 -55q69 0 154 131zM920 336v-115q-44 -40 -87.5 -61t-87.5 -21q-21 0 -35.5 2.5t-35.5 10.5q-31 13 -72 43q-69 -106 -154 -163q-41 -27 -85 -41 t-91 -14q-75 0 -135 39t-92.5 112t-32.5 167q0 76 18 144t56 133q74 126 200.5 202t274.5 76q84 0 123.5 -18.5t49 -43t9.5 -63.5q0 -186 -102 -459q25 -22 51.5 -34.5t55.5 -12.5q35 0 77.5 29.5t94.5 87.5z" />
<glyph unicode="p" horiz-adv-x="1153" d="M446 403l-61 -260q29 -46 57 -68q26 -18 58 -18q70 0 128.5 74.5t93.5 184.5q16 52 25 101.5t9 92.5q0 77 -30.5 124.5t-82.5 47.5q-50 0 -104 -55q-29 -32 -50 -77q-17 -39 -43 -147zM0 221v90q96 102 180 239.5t133 258.5l226 41l-39 -172q51 62 96 99.5t89 54t93 16.5 q66 0 117.5 -34.5t81 -99t29.5 -147.5q0 -108 -41 -215t-110 -191t-158 -134t-175 -50q-10 0 -21 0.5t-31 3.5t-33 9t-32 20l-38 29q-12 -53 -23.5 -105t-31 -154t-38.5 -249l-254 -45l37 229q10 62 23 135.5t20 110.5l51 247l50 226l-37 -47l-81 -103q-27 -31 -60 -63h-23z " />
<glyph unicode="q" horiz-adv-x="1067" d="M580 774q-62 0 -119.5 -56.5t-101 -143t-69.5 -180t-26 -148.5q0 -38 26 -65t64 -27q78 0 150 89t119 213.5t47 200.5q0 33 -11.5 60t-31.5 42t-47 15zM356 -514l207 717q-72 -87 -122.5 -132t-106 -69.5t-113.5 -24.5q-61 0 -108 31t-75 88t-28 127q0 146 82.5 292.5 t214.5 241.5t260 95q132 0 174 -123q99 55 179 123h67l-262 -942q74 107 170.5 219t194.5 207v-115l-86 -91q-61 -65 -140.5 -165.5t-145.5 -210t-104 -221.5q-84 -11 -148 -22t-110 -25z" />
<glyph unicode="r" horiz-adv-x="748" d="M0 221v90q78 83 141 174q-86 39 -86 113q0 25 11 66q5 22 12.5 42.5t19.5 41.5q20 39 60.5 70.5t93.5 31.5q78 0 78 -80q0 -60 -45 -180q89 12 155.5 69.5t134.5 184.5l91 4l-93 -256l-55 -160q-23 -72 -30 -103q-3 -16 -5 -31t-2 -30q0 -40 19.5 -66t52.5 -26 q25 0 45.5 9.5t60.5 46.5q11 10 34 31q42 39 77 73v-115q-42 -41 -79.5 -75t-76.5 -64q-70 -55 -127.5 -81t-103.5 -26q-60 0 -102.5 51.5t-42.5 127.5q0 71 36.5 163.5t114.5 214.5q-36 -17 -75.5 -30t-86.5 -23q-66 -118 -204 -258h-23z" />
<glyph unicode="s" horiz-adv-x="831" d="M0 221v90q99 105 192 237.5t138 258.5l73 17q55 12 100 18l50 6q9 0 10 -8q0 -11 -1 -16t-7 -15q-16 -48 -16 -88q0 -54 53 -129q36 -54 51.5 -97.5t15.5 -82.5q0 -98 -68 -201.5t-174 -169.5t-208 -66q-47 0 -87 17q-39 15 -67 43q-26 28 -26 53q0 24 56 91t79 67 q31 0 53 -70q17 -51 37 -72.5t53 -21.5q40 0 78 25.5t65 67.5q25 42 25 85q0 64 -65 164q-10 15 -33 52q-16 25 -23 38q-13 26 -37 90q-70 -111 -138 -198q-61 -81 -156 -185h-23z" />
<glyph unicode="t" horiz-adv-x="575" d="M156 823l94 312l268 55l-102 -348l139 8l-33 -154l-155 -12l-35 -112q-30 -98 -48 -172.5t-18 -125.5q0 -45 24 -77q24 -29 60 -29q58 0 107.5 37t140.5 131v-115q-130 -130 -222 -187t-171 -57q-86 0 -139.5 73t-53.5 190q0 68 14 136.5t40 153.5l40 136l-77 -4l32 157z " />
<glyph unicode="u" horiz-adv-x="1067" d="M549 369l131 426l272 55l-69 -224l-52 -172l-34 -129q-9 -41 -9 -69q0 -43 18.5 -68.5t45.5 -25.5q23 0 49.5 12.5t70 49.5t77.5 73l21 20l20 19v-115q-99 -93 -163.5 -143.5t-117 -75.5t-100.5 -25q-82 0 -123 65t-41 169q-114 -124 -202 -182q-84 -54 -165 -54 q-74 0 -121 64t-47 170q0 211 140 586l266 53q-15 -39 -57 -170t-75 -259q-16 -64 -24 -109t-8 -77q0 -42 19 -70q20 -26 53 -26q53 0 130 85t95 147z" />
<glyph unicode="v" horiz-adv-x="897" d="M920 336v-115q-74 -65 -166 -74q-72 0 -144 56q-86 -110 -181 -168t-196 -58q-104 0 -162.5 72.5t-58.5 198.5q0 44 9 104q5 29 10.5 58t12.5 57.5t16.5 60.5t21.5 66l70 205l272 51l-121 -361q-8 -25 -15.5 -55.5t-19.5 -78.5q-18 -86 -18 -122q0 -53 28.5 -90t69.5 -37 q47 0 97.5 39t109.5 125q-51 102 -51 205q0 39 4 68.5t16 67.5q20 66 55 120t78 85.5t88 31.5q68 0 68 -105q0 -204 -164 -469q25 -22 51.5 -34.5t55.5 -12.5q35 0 75.5 27.5t88.5 81.5z" />
<glyph unicode="w" horiz-adv-x="1386" d="M420 850l-74 -223q-46 -144 -70 -245t-24 -155q0 -51 24.5 -84.5t63.5 -33.5q78 0 160 124q0 68 9 137.5t48 188.5l82 242l268 49l-112 -346q-54 -159 -54 -264q0 -59 25.5 -94t69.5 -35q32 0 63 15t61 45t82 97q-31 61 -43 103q-4 18 -7 44t-3 54q0 96 34 184.5 t91 142.5t119 54q65 0 65 -98q0 -99 -42 -224.5t-121 -253.5q24 -22 51 -34.5t55 -12.5q33 0 76 28t92 81v-115q-78 -65 -170 -74q-38 0 -72 13.5t-71 42.5q-81 -98 -176 -162t-199 -64q-140 0 -203 156q-135 -156 -289 -156q-101 0 -159 66t-58 184q0 115 32 241.5 t112 332.5z" />
<glyph unicode="x" horiz-adv-x="1153" d="M0 221v90q58 58 117 154q124 201 226 292t200 91q165 0 200 -195q53 106 107 150.5t129 44.5q82 0 118 -48.5t36 -86.5q0 -12 -56.5 -66.5t-77.5 -54.5q-14 0 -14 33t-20 71q-17 37 -52 37q-57 0 -102 -106q-40 -100 -68 -235q-24 -128 -24 -179q0 -57 29.5 -92t74.5 -35 q131 0 353 250v-115q-249 -246 -435 -246q-177 0 -231 203q-101 -203 -270 -203q-68 0 -125.5 37.5t-57.5 81.5q0 11 27.5 40.5t60 53t39.5 25.5q15 0 31 -43q33 -90 94 -90q57 0 102 73q42 69 71 174q26 96 40 183q1 9 9 66q4 30 4 38q0 50 -20.5 78.5t-57.5 28.5t-72 -31 q-30 -23 -84 -92t-104.5 -154.5t-88 -131.5t-85.5 -91h-23z" />
<glyph unicode="y" horiz-adv-x="1067" d="M424 -113q-119 -52 -187.5 -121.5t-68.5 -136.5q0 -28 15.5 -47.5t41.5 -19.5q54 0 105.5 82.5t93.5 242.5zM76 545l96 254l291 51l-125 -297q-29 -72 -57.5 -167t-28.5 -157q0 -90 61 -90q40 0 91 45t101 127q45 75 83 174l114 314l273 51l-33 -94l-197 -592l-30 -96 q139 66 210 119q78 56 165 149v-115q-27 -24 -54 -46t-55 -43q-48 -34 -125 -77q-60 -33 -172 -86q-69 -196 -149 -305q-133 -178 -302 -178q-63 0 -102 39t-39 104q0 42 17.5 84.5t59.5 89t112 93.5q36 23 76.5 44.5t95.5 45.5l61 215q-95 -109 -175.5 -160t-156.5 -51 q-77 0 -124.5 63.5t-47.5 167.5q0 66 18 156t48 168z" />
<glyph unicode="z" horiz-adv-x="981" d="M0 221v90q97 98 205 238l76 103l66 99l38 64q14 33 27 33l30 -4q47 -11 98 -17t101 -6q95 0 217 21q33 6 47 6q18 0 19 -10q0 -16 -41 -78l-78 -101l-141 -172l-144 -173l-80 -97l66 4q28 0 136.5 -22.5t125.5 -22.5q43 0 73.5 13.5t66.5 48t96 98.5v-115l-100 -105 q-47 -48 -84.5 -77.5t-77.5 -47.5q-20 -8 -38 -12t-40 -4q-35 0 -134 31q-107 35 -159 35q-65 0 -109 -47q-15 -17 -24 -19q-68 0 -70 9q0 15 60 93l145 181l188 227l123 150q-54 -12 -125 -12q-87 0 -186 30q-64 -93 -126 -172q-17 -22 -42 -53q-44 -54 -68.5 -83t-53 -60 t-60.5 -64h-23z" />
<glyph unicode="{" horiz-adv-x="807" d="M164 455v59q94 17 144 71.5t50 147.5q0 64 -20 150q-15 56 -23 100.5t-8 77.5q0 39 11 75t36 75q48 75 125 118q49 27 101 39q31 7 64 11.5t73 4.5v-45q-89 -18 -142 -65t-53 -123q0 -72 25 -162q24 -111 24 -174q0 -114 -90 -207q-41 -44 -90 -70q-43 -21 -147 -53 q93 -27 147 -57q54 -27 95.5 -70.5t63.5 -97.5q11 -26 17 -52t6 -54q0 -63 -24 -156q-11 -48 -18 -95t-7 -75q0 -85 48 -130t145 -69v-45q-138 0 -231.5 49t-137 126t-43.5 147q0 61 31 182q22 94 22 156q0 88 -49.5 141t-144.5 70z" />
<glyph unicode="|" horiz-adv-x="1118" d="M479 -512v2048h160v-2048h-160z" />
<glyph unicode="}" horiz-adv-x="807" d="M643 514v-61q-91 -15 -142.5 -70t-51.5 -147q0 -36 4 -67.5t17.5 -87.5t21.5 -100t8 -73q0 -78 -47 -151t-125 -117q-49 -26 -102 -40q-30 -7 -63 -11.5t-73 -4.5v45q91 17 143 64.5t52 124.5q0 63 -24.5 168t-24.5 168q0 113 90 206q26 26 59 50q27 19 73 38l105 33 q-100 32 -148.5 58t-92.5 73q-39 41 -64 94.5t-25 106.5q0 45 25 158q11 48 18 95t7 75q0 86 -49 132.5t-144 65.5v45q140 0 231.5 -48.5t136 -124t44.5 -148.5t-31 -184q-22 -91 -22 -156q0 -176 194 -209z" />
<glyph unicode="~" horiz-adv-x="1366" d="M197 508h-58q0 31 1 45.5t7 39.5q6 39 18.5 70t27.5 56q80 112 206 112q29 0 55 -4t69 -16q74 -20 257 -100l135 -51q46 -13 78 -13q74 0 120 48t56 134h58q0 -47 -9.5 -89.5t-28.5 -81.5q-33 -73 -93.5 -112.5t-137.5 -39.5q-23 0 -36 1t-39 6q-36 8 -96 29.5t-206 82.5 t-208 61q-148 0 -176 -178z" />
<glyph unicode="&#xa1;" />
<glyph unicode="&#xa2;" />
<glyph unicode="&#xa3;" horiz-adv-x="1300" d="M1145 328l47 -19q-132 -334 -393 -334q-53 0 -103 14.5t-135 55.5q-53 27 -90.5 39.5t-79.5 21.5q-125 -131 -246 -131q-49 0 -81.5 26.5t-32.5 68.5q0 55 62 116t255 78q56 149 80 373q-32 0 -56.5 -1t-46.5 -2q-19 0 -33 -4t-34 -13q-30 -13 -51 -42q-13 -16 -29 -16 q-20 0 -20 21q0 29 30.5 94.5t49.5 83.5q27 24 75 32q23 3 59 5t85 2q31 164 80.5 295t167 232t313.5 101q143 0 211 -59q55 -52 55 -98q0 -24 -33.5 -54t-78 -55t-60.5 -26q-27 0 -33 65q0 37 -6.5 63t-18.5 49q-18 38 -79 38q-75 0 -123 -78t-78 -258l-35 -226 q24 -6 68 -6q78 0 132 11t99 53q6 9 17 10q24 0 24 -20q0 -30 -39 -105q-30 -66 -55.5 -88.5t-91.5 -22.5h-188q-28 -102 -65 -175q-19 -38 -46 -80.5t-66 -96.5q15 0 134 -24l171 -31l72 -8q80 0 130 29t89 96h21z" />
<glyph unicode="&#xa4;" />
<glyph unicode="&#xa5;" />
<glyph unicode="&#xa6;" horiz-adv-x="1118" d="M479 -358v716h160v-716h-160zM479 666v716h160v-716h-160z" />
<glyph unicode="&#xa7;" />
<glyph unicode="&#xa8;" horiz-adv-x="682" d="M268 1266q75 -45 109.5 -59.5t81.5 -20.5q-20 -164 -133 -164q-62 0 -144 61q58 95 86 183zM631 1266q1 -1 46 -25.5t56 -30.5q32 -13 84 -28q0 -40 -9.5 -68.5t-28.5 -52.5q-32 -41 -87 -41t-153 61q60 99 92 185z" />
<glyph unicode="&#xa9;" />
<glyph unicode="&#xaa;" />
<glyph unicode="&#xab;" />
<glyph unicode="&#xac;" horiz-adv-x="1366" d="M135 717v157h1096v-645h-158v488h-938z" />
<glyph unicode="&#xad;" />
<glyph unicode="&#xae;" />
<glyph unicode="&#xaf;" />
<glyph unicode="&#xb0;" />
<glyph unicode="&#xb1;" />
<glyph unicode="&#xb2;" />
<glyph unicode="&#xb3;" />
<glyph unicode="&#xb4;" />
<glyph unicode="&#xb5;" />
<glyph unicode="&#xb6;" />
<glyph unicode="&#xb7;" />
<glyph unicode="&#xb8;" horiz-adv-x="682" d="M80 -446l14 79q209 0 209 121q0 43 -27 67q-14 12 -34 18.5t-47 6.5q75 73 147 162h102l-63 -76q133 -24 133 -147q0 -92 -94 -156q-70 -47 -150.5 -61t-189.5 -14z" />
<glyph unicode="&#xb9;" />
<glyph unicode="&#xba;" />
<glyph unicode="&#xbb;" />
<glyph unicode="&#xbc;" horiz-adv-x="1520" d="M961 78l215 4l58 183l64 222q-24 -14 -88.5 -78.5t-128.5 -148.5q-68 -90 -120 -182zM1071 -227l80 223l-166 4h-13q-43 0 -56.5 3t-14.5 11v33q0 25 66 126.5t162.5 212t201.5 183.5q37 29 103 29q27 0 28 -14l-18 -88q-16 -76 -60 -228l-11 -45l-16 -59l-18 -70 q36 0 62.5 2.5t44.5 7.5l18 5q6 0 11 -5q6 -3 6 -8q-16 -66 -27.5 -83t-36.5 -17l-104 -4l-45 -152q-12 -39 -23 -56.5t-43 -24.5q-16 -3 -40 -5t-60 -2q-31 0 -31 21zM297 -238l887 1661h100l-883 -1661h-104zM377 1120l51 185q-16 -3 -66 -58t-86 -112q-31 10 -32 16 q0 23 56.5 88.5t121.5 120.5q50 42 76 51.5t77 9.5q27 0 27 -14l-6 -35l-133 -506q-53 -205 -72 -245q-5 -13 -16.5 -24t-41.5 -17.5t-93 -6.5q-30 0 -31 11l14 47l23 68l14 38l78 246l17 58z" />
<glyph unicode="&#xbd;" horiz-adv-x="1518" d="M1384 -41l33 -12q-33 -118 -72 -156.5t-118 -38.5l-95 8l-116 7l-63 -6l-48 -7q-6 0 -8 15q0 106 195 280q121 109 171 187.5t50 164.5q0 60 -32 98q-30 38 -81 38q-50 0 -85.5 -36.5t-35.5 -82.5q0 -37 37 -68q21 -15 21 -28q0 -15 -45 -37.5t-68 -22.5q-20 0 -38 22 q-15 21 -15 50q0 65 42 125t112.5 98.5t144.5 38.5q95 0 154 -54.5t59 -142.5q0 -99 -71 -173q-36 -38 -85 -77.5t-121 -87.5q-92 -62 -139.5 -101t-77.5 -79q73 19 131 19l84 -6l78 -7q43 0 62.5 14.5t39.5 57.5zM279 -238l886 1661h101l-883 -1661h-104zM338 981l90 324 q-19 -3 -69 -59q-46 -52 -83 -111q-31 10 -32 16q0 23 54.5 87.5t123.5 121.5q50 42 76 51.5t77 9.5q27 0 27 -14l-6 -35l-133 -506q-53 -205 -72 -245q-5 -13 -16.5 -24t-41.5 -17.5t-93 -6.5q-30 0 -31 11q0 13 14 51l20 53l17 49z" />
<glyph unicode="&#xbe;" horiz-adv-x="1495" d="M936 78l215 4q58 177 123 405q-47 -28 -155 -151.5t-183 -257.5zM1047 -227l79 223l-165 4h-13q-43 0 -56.5 3t-14.5 11v33q0 25 68 128.5t164 212t198 181.5q35 29 102 29q28 0 29 -14l-9 -47l-24 -103q-14 -60 -45 -166l-45 -174q38 0 64 2.5t42 7.5l19 5q8 -3 12 -5.5 t4 -7.5q-17 -67 -27 -83.5t-36 -16.5l-105 -4l-45 -152q-4 -13 -8 -27q-7 -19 -16 -31.5t-41 -21t-101 -8.5q-15 0 -22 3.5t-8 17.5zM309 -238l887 1661h100l-882 -1661h-105zM334 979l-41 -4q-17 0 -17 20q0 33 10.5 40t45.5 7q76 0 121 57t45 142q0 57 -32.5 93t-86.5 36 q-46 0 -79.5 -28.5t-33.5 -67.5l9 -29l10 -33q0 -18 -40 -38.5t-59 -20.5q-11 0 -20.5 17.5t-9.5 37.5q0 83 83.5 147t188.5 64q97 0 156 -50t59 -132q0 -69 -47.5 -117.5t-157.5 -87.5q87 -40 123.5 -87t36.5 -116q0 -73 -41 -131.5t-117 -91.5t-170 -33q-101 0 -161 44 t-60 118q0 27 11 41.5t40 26.5q66 22 82 22q17 0 17 -22q0 -8 -6 -23q-17 -31 -17 -71q0 -38 31 -68q32 -27 78 -27q54 0 89 39t49.5 92t14.5 91q0 62 -29.5 102.5t-74.5 40.5z" />
<glyph unicode="&#xbf;" horiz-adv-x="2232" d="M1006 1296v-53q-63 -63 -113.5 -92t-97.5 -29q-55 0 -87 31.5t-32 81.5q0 22 18 88q13 47 13 78q0 45 -31 45q-21 0 -21 18q0 29 25 29l16 -1l19 -1q35 0 61 25q49 46 49 129q0 145 -186 145q-39 0 -73.5 -6t-72.5 -20q-69 -25 -112 -70t-43 -90q0 -37 45 -60 q18 -10 20 -24q0 -11 -42 -29q-40 -14 -56 -16q-24 0 -42.5 29.5t-18.5 62.5q0 71 56 131t153 95.5t209 35.5q155 0 233 -58t78 -137q0 -69 -70 -118q-22 -17 -53 -29l-100 -27q48 -24 70 -54.5t22 -74.5q0 -18 -1 -28t-7 -33l-5 -29q0 -43 37 -43q31 0 63 25t77 73z M729 1706q-45 -31 -60 -68t-32 -157q-7 -46 -14.5 -80t-20.5 -68q-21 -61 -78 -114q-100 -97 -239 -97q-87 0 -120.5 38t-33.5 75q0 12 6 20q10 12 51.5 33t57.5 23q16 0 16 -19q0 -4 -1 -14t-4 -25l-5 -26q0 -27 15.5 -45.5t45.5 -18.5q42 0 90 52.5t72 203.5 q15 110 35.5 161.5t64.5 88.5q23 20 61 37.5t64 17.5q12 0 29 -18zM1421 1655q0 -82 -63 -240q-47 -121 -47 -170t47 -49q46 0 93.5 69.5t84.5 196.5l49 172q33 104 70 178q1 5 50 11l67 6q19 0 20 -8l-13 -44l-14 -44l-71 -252q-21 -77 -32 -131.5t-11 -87.5 q0 -30 14.5 -48t38.5 -18q33 0 91.5 49.5t103.5 130.5t45 168q0 86 -50 180q-12 19 -14 31q0 20 45 47t64 27q12 0 24.5 -21.5t21.5 -54.5t9 -63q0 -99 -39 -199.5t-102 -184.5t-136 -134t-133 -50q-43 0 -82 32.5t-39 133.5q-97 -166 -210 -166q-60 0 -97 41.5t-37 104.5 q0 77 62 235l44 130q15 45 15 83q0 29 -17.5 48.5t-45.5 19.5q-29 0 -58 -22q-25 -19 -47 -54q-18 -32 -18 -63q0 -33 24.5 -63t26.5 -36q0 -5 -23 -30t-40 -27q-15 0 -41 21q-23 21 -23 71q0 60 34 118.5t89.5 94t112.5 35.5q45 0 80 -22.5t56 -61.5t21 -90zM115 475 q-14 -18 -21 -20q-11 0 -19 4.5t-9 11.5q0 13 46.5 66t143.5 122q31 21 51 27t62 6q25 0 26 -16v-10l-58 -207q-18 -65 -40 -140t-46 -148q-46 -150 -65 -166.5t-125 -16.5q-24 0 -26 12q0 11 1 16t7 15q53 130 98 263l95 302q-72 -54 -121 -121zM836 559q0 42 -21 69 t-55 27q-61 0 -99 -88t-38 -151q0 -31 18.5 -56.5t40.5 -25.5h16l12 4l15 4q12 0 12 -14q-4 -3 -6 -5q-16 -14 -39 -29q-47 -28 -80 -28q-56 0 -99.5 48.5t-43.5 109.5q0 65 42 129t112 101.5t147 37.5q91 0 146 -61.5t55 -163.5q0 -108 -47.5 -197t-117 -150.5 t-138.5 -97.5q-33 -16 -60 -25t-43 -9l-6 3q-6 4 -16 11l-4 6q0 1 2.5 3.5t11.5 8.5q103 51 165 159.5t90 217.5t28 162zM1413 559q0 44 -21.5 70t-56.5 26q-61 0 -99 -88t-38 -151q0 -31 18.5 -56.5t40.5 -25.5q14 0 29 4l17 4q12 0 12 -14q-6 -5 -11 -9q-16 -12 -35 -25 q-47 -28 -81 -28q-57 0 -100.5 48t-43.5 110q0 66 42 128.5t112.5 101t147.5 38.5q90 0 145 -61.5t55 -163.5q0 -107 -48.5 -197.5t-115 -150.5t-137 -95.5t-102.5 -35.5q-7 0 -25 14l-4 6q0 1 2.5 3.5t11.5 8.5q101 51 165 158.5t92 220t28 160.5zM2116 201q0 -61 -39 -109 t-111 -76t-156 -28q-95 0 -149.5 36t-54.5 105q0 22 13 35q12 10 60 26q4 2 22 7.5t28 5.5q16 0 16 -23q0 -12 -6 -24q-15 -30 -15 -52q0 -33 29 -56t70 -23q66 0 101.5 58.5t35.5 123.5q0 51 -25 85t-63 34l-39 -4q-18 0 -18 20q0 21 6 30t24 9q42 0 70.5 6t48.5 29 q23 20 38 58.5t15 74.5q0 28 -14 50q-12 24 -36.5 37t-53.5 13q-42 0 -73.5 -23t-31.5 -55q0 -10 8.5 -25.5t8.5 -27.5t-36.5 -30.5t-53.5 -18.5q-31 0 -31 47q0 37 30.5 78.5t89 69.5t132.5 28q31 0 54 -4t49 -15q45 -18 70 -52.5t25 -79.5q0 -120 -190 -172q63 -25 90 -50 q62 -45 62 -118zM2091 840h-1987v147h1987v-147z" />
<glyph unicode="&#xc0;" />
<glyph unicode="&#xc1;" horiz-adv-x="1386" d="M756 401q63 568 362 897q-40 23 -94 36.5t-104 13.5q-144 0 -255 -96t-185 -242.5t-113 -303.5q-17 -73 -27 -143t-10 -123q0 -112 42.5 -183t112.5 -71q45 0 86 23t86 69.5t99 122.5zM1409 336v-115q-118 -126 -220.5 -186t-201.5 -60q-111 0 -171 79q-32 41 -49 93.5 t-17 116.5q-70 -84 -122 -136q-56 -56 -104 -89.5t-93.5 -48.5t-94.5 -15q-89 0 -158 52.5t-106 153t-37 225.5q0 132 42.5 300.5t149 333.5t294 275t456.5 110q123 0 220 -14.5t189 -46.5v-66l-44 -56l-23 -32q-72 -107 -137.5 -274t-105.5 -332q-20 -85 -30 -150.5 t-10 -119.5q0 -80 32 -124t91 -44q105 0 250 170zM915 1534l-61 20q78 94 128 172q23 36 41.5 73.5t35.5 82.5l229 25q-13 -54 -38.5 -99t-69.5 -89t-105 -86.5t-160 -98.5z" />
<glyph unicode="&#xc2;" horiz-adv-x="1386" d="M756 401q63 568 362 897q-40 23 -94 36.5t-104 13.5q-144 0 -255 -96t-185 -242.5t-113 -303.5q-17 -73 -27 -143t-10 -123q0 -112 42.5 -183t112.5 -71q45 0 86 23t86 69.5t99 122.5zM1409 336v-115q-118 -126 -220.5 -186t-201.5 -60q-111 0 -171 79q-32 41 -49 93.5 t-17 116.5q-70 -84 -122 -136q-56 -56 -104 -89.5t-93.5 -48.5t-94.5 -15q-89 0 -158 52.5t-106 153t-37 225.5q0 132 42.5 300.5t149 333.5t294 275t456.5 110q123 0 220 -14.5t189 -46.5v-66l-44 -56l-23 -32q-72 -107 -137.5 -274t-105.5 -332q-20 -85 -30 -150.5 t-10 -119.5q0 -80 32 -124t91 -44q105 0 250 170zM561 1528l10 49q100 71 170 147t140 187l215 39q0 -115 6.5 -176.5t26.5 -105.5q18 -45 61 -97l-8 -39q-86 24 -138 73t-116 160q-64 -73 -113.5 -112.5t-106.5 -68.5q-50 -24 -147 -56z" />
<glyph unicode="&#xc3;" />
<glyph unicode="&#xc4;" />
<glyph unicode="&#xc5;" />
<glyph unicode="&#xc6;" />
<glyph unicode="&#xc7;" />
<glyph unicode="&#xc8;" />
<glyph unicode="&#xc9;" horiz-adv-x="1067" d="M1090 336v-115q-92 -89 -176 -141t-178 -77.5t-199 -25.5q-73 0 -133 11t-118 36q-109 47 -168 134q-29 43 -44 93t-15 107q0 164 127 281q58 50 126 80.5t182 56.5q-213 78 -213 273q0 77 38.5 144.5t107 119.5t159 82t196.5 30q113 0 177.5 -35.5t85 -74t20.5 -55.5 t-23 -54.5t-53.5 -68.5t-46.5 -33q-27 0 -39 76q-27 170 -137 170q-55 0 -107 -43.5t-84 -117.5t-32 -149q0 -78 36.5 -135t151.5 -57q30 0 40.5 -3t12.5 -18q0 -18 -3 -37.5t-11 -44.5q-14 -47 -39 -47l-38 3l-45 6l-42 2q-70 0 -129 -39t-95 -110q-16 -34 -25 -71.5 t-9 -76.5q0 -86 41 -158t112 -111t161 -39q111 0 224.5 59.5t203.5 172.5zM694 1534l-61 20q78 94 128 172q23 36 41.5 73.5t35.5 82.5l229 25q-13 -54 -38.5 -99t-69.5 -89t-105 -86.5t-160 -98.5z" />
<glyph unicode="&#xca;" horiz-adv-x="1067" d="M1090 336v-115q-92 -89 -176 -141t-178 -77.5t-199 -25.5q-73 0 -133 11t-118 36q-109 47 -168 134q-29 43 -44 93t-15 107q0 164 127 281q58 50 126 80.5t182 56.5q-213 78 -213 273q0 77 38.5 144.5t107 119.5t159 82t196.5 30q113 0 177.5 -35.5t85 -74t20.5 -55.5 t-23 -54.5t-53.5 -68.5t-46.5 -33q-27 0 -39 76q-27 170 -137 170q-55 0 -107 -43.5t-84 -117.5t-32 -149q0 -78 36.5 -135t151.5 -57q30 0 40.5 -3t12.5 -18q0 -18 -3 -37.5t-11 -44.5q-14 -47 -39 -47l-38 3l-45 6l-42 2q-70 0 -129 -39t-95 -110q-16 -34 -25 -71.5 t-9 -76.5q0 -86 41 -158t112 -111t161 -39q111 0 224.5 59.5t203.5 172.5zM401 1528l11 49q61 44 119 96q46 44 95 102q40 50 95 136l215 39q0 -115 6.5 -176.5t26.5 -105.5q18 -45 61 -97l-8 -39q-86 24 -138 73t-116 160q-64 -73 -113.5 -112.5t-106.5 -68.5 q-50 -24 -147 -56z" />
<glyph unicode="&#xcb;" horiz-adv-x="1075" d="M1090 336v-115q-92 -89 -176 -141t-178 -77.5t-199 -25.5q-73 0 -133 11t-118 36q-109 47 -168 134q-29 43 -44 93t-15 107q0 164 127 281q58 50 126 80.5t182 56.5q-213 78 -213 273q0 77 38.5 144.5t107 119.5t159 82t196.5 30q113 0 177.5 -35.5t85 -74t20.5 -55.5 t-23 -54.5t-53.5 -68.5t-46.5 -33q-27 0 -39 76q-27 170 -137 170q-55 0 -107 -43.5t-84 -117.5t-32 -149q0 -78 36.5 -135t151.5 -57q30 0 40.5 -3t12.5 -18q0 -18 -3 -37.5t-11 -44.5q-14 -47 -39 -47l-38 3l-45 6l-42 2q-70 0 -129 -39t-95 -110q-16 -34 -25 -71.5 t-9 -76.5q0 -86 41 -158t112 -111t161 -39q111 0 224.5 59.5t203.5 172.5zM569 1784l183 45q0 -73 -9.5 -122t-43 -107.5t-105.5 -141.5l-57 -8q26 66 39.5 115t13.5 98q0 59 -21 121zM895 1800l180 43q0 -108 -26.5 -179.5t-130.5 -190.5l-62 -7q57 114 57 213 q0 62 -18 121z" />
<glyph unicode="&#xcc;" />
<glyph unicode="&#xcd;" />
<glyph unicode="&#xce;" horiz-adv-x="1237" d="M584 922q-5 -39 -42 -78t-71 -39q-39 0 -72.5 54.5t-33.5 121.5q0 73 38 151t105 146q64 64 142 105.5t149 41.5q49 0 120 -24.5t111 -24.5q55 0 103 35q19 12 34 14q15 0 40.5 -16t25.5 -33q0 -10 -53 -69q-45 -49 -72 -100t-46 -111q-4 -13 -13 -51.5t-13 -56.5 l-32 -200q-20 -137 -45 -248t-48 -165q-62 -157 -154 -246t-187 -121q-47 -15 -91.5 -23t-89.5 -8q-105 0 -184 36t-117.5 84.5t-38.5 84.5q0 24 34.5 62t76 68t55.5 32q28 0 36 -21q3 -11 5 -28.5t2 -44.5q0 -86 39 -140.5t104 -54.5q88 0 143 75t82 171q23 88 44 215 q32 208 77 326.5t114 205.5t200 209q-51 -20 -93.5 -30t-84.5 -10q-41 0 -113 24q-55 23 -94 23q-50 0 -93 -25.5t-69.5 -70t-26.5 -93.5q0 -65 64 -110q15 -11 21.5 -19.5t11.5 -23.5zM518 1528l10 49q100 71 170 147t140 187l215 39q0 -115 6.5 -176.5t26.5 -105.5 q18 -45 61 -97l-8 -39q-86 24 -138 73t-116 160q-64 -73 -113.5 -112.5t-106.5 -68.5q-50 -24 -147 -56z" />
<glyph unicode="&#xcf;" horiz-adv-x="1237" d="M584 922q-5 -39 -42 -78t-71 -39q-39 0 -72.5 54.5t-33.5 121.5q0 73 38 151t105 146q64 64 142 105.5t149 41.5q49 0 120 -24.5t111 -24.5q55 0 103 35q19 12 34 14q15 0 40.5 -16t25.5 -33q0 -10 -53 -69q-45 -49 -72 -100t-46 -111q-4 -13 -13 -51.5t-13 -56.5 l-32 -200q-20 -137 -45 -248t-48 -165q-62 -157 -154 -246t-187 -121q-47 -15 -91.5 -23t-89.5 -8q-105 0 -184 36t-117.5 84.5t-38.5 84.5q0 24 34.5 62t76 68t55.5 32q28 0 36 -21q3 -11 5 -28.5t2 -44.5q0 -86 39 -140.5t104 -54.5q88 0 143 75t82 171q23 88 44 215 q32 208 77 326.5t114 205.5t200 209q-51 -20 -93.5 -30t-84.5 -10q-41 0 -113 24q-55 23 -94 23q-50 0 -93 -25.5t-69.5 -70t-26.5 -93.5q0 -65 64 -110q15 -11 21.5 -19.5t11.5 -23.5zM670 1843l77 -44q33 -16 59 -24l54 -12q-9 -79 -42.5 -121.5t-90.5 -42.5q-32 0 -64 13 q-30 14 -79 49q56 89 86 182zM1032 1843l98 -55q27 -11 89 -29q0 -36 -10 -65t-29 -54q-34 -43 -86 -43q-54 0 -154 62q32 52 54.5 97.5t37.5 86.5z" />
<glyph unicode="&#xd0;" />
<glyph unicode="&#xd1;" />
<glyph unicode="&#xd2;" />
<glyph unicode="&#xd3;" />
<glyph unicode="&#xd4;" horiz-adv-x="1300" d="M791 1425v-16q-70 -69 -103 -106q-151 -169 -240.5 -392t-89.5 -438q0 -50 6 -90.5t20 -77.5q26 -71 74.5 -109t114.5 -38q119 0 235 119t203 267.5t138 308.5t51 294q0 88 -28 140q-14 26 -32 39t-44 13q-60 0 -114 -63.5t-88 -152.5t-34 -148q0 -72 68 -82 q15 0 21.5 -6t6.5 -21q0 -45 -45 -87t-94 -42q-59 0 -100 54.5t-41 136.5q0 112 60 228.5t154 192.5t183 76q64 0 108.5 -33.5t68.5 -94t24 -148.5q0 -191 -79 -398.5t-211 -383.5t-286.5 -283t-296.5 -107q-93 0 -168.5 54.5t-117 154t-41.5 220.5q0 178 60.5 352 t150.5 312q46 69 90 125t88 100q88 88 137 104q81 26 191 26zM528 1528l11 49q61 44 119 96q46 44 95 102q40 50 95 136l215 39q0 -115 6.5 -176.5t26.5 -105.5q18 -45 61 -97l-8 -39q-86 24 -138 73t-116 160q-64 -73 -113.5 -112.5t-106.5 -68.5q-50 -24 -147 -56z" />
<glyph unicode="&#xd5;" />
<glyph unicode="&#xd6;" horiz-adv-x="1331" d="M791 1425v-16q-70 -69 -103 -106q-151 -169 -240.5 -392t-89.5 -438q0 -50 6 -90.5t20 -77.5q26 -71 74.5 -109t114.5 -38q119 0 235 119t203 267.5t138 308.5t51 294q0 88 -28 140q-14 26 -32 39t-44 13q-60 0 -114 -63.5t-88 -152.5t-34 -148q0 -72 68 -82 q15 0 21.5 -6t6.5 -21q0 -45 -45 -87t-94 -42q-59 0 -100 54.5t-41 136.5q0 112 60 228.5t154 192.5t183 76q64 0 108.5 -33.5t68.5 -94t24 -148.5q0 -191 -79 -398.5t-211 -383.5t-286.5 -283t-296.5 -107q-93 0 -168.5 54.5t-117 154t-41.5 220.5q0 178 60.5 352 t150.5 312q46 69 90 125t88 100q88 88 137 104q81 26 191 26zM758 1798l225 41q0 -103 -34 -169.5t-165 -176.5l-75 -6q69 104 69 199q0 34 -4 58t-16 54zM1167 1812l226 41q0 -69 -12 -114q-10 -44 -53.5 -99.5t-133.5 -132.5l-76 -6q70 107 70 199q0 55 -21 112z" />
<glyph unicode="&#xd7;" />
<glyph unicode="&#xd8;" />
<glyph unicode="&#xd9;" />
<glyph unicode="&#xda;" />
<glyph unicode="&#xdb;" horiz-adv-x="1515" d="M1579 336v-115q-229 -244 -391 -244q-50 0 -96.5 26.5t-81.5 76.5q-29 46 -39 97t-10 136q-45 -84 -98.5 -157t-130 -126t-169.5 -53q-109 0 -174 84t-65 222q0 37 7 87.5t22 110.5q30 118 93 301q35 100 71 224q32 114 32 172q0 68 -32.5 111.5t-84.5 43.5t-104.5 -42.5 t-88.5 -112.5q-16 -32 -25 -66t-9 -68q0 -90 67 -151q24 -21 25 -37q0 -34 -44.5 -81.5t-78.5 -47.5q-41 0 -78 59.5t-37 128.5q0 92 37.5 185.5t100 165t143.5 116.5q39 21 78 32t80 11q84 0 150.5 -45t102 -127t35.5 -188q0 -52 -6 -105.5t-19.5 -114t-35.5 -132.5 t-57 -168l-40 -114l-31 -112q-11 -53 -11 -83q0 -52 23.5 -81.5t64.5 -29.5q50 0 99.5 48t89.5 123t72.5 160.5t53.5 161.5l104 379q57 206 107 349q15 41 28 48t81 15l143 16q27 0 27 -14l-47 -170l-57 -211l-80 -326q-35 -156 -56.5 -269t-21.5 -161q0 -65 25 -105t67 -40 q51 0 108 47t162 160zM671 1522h-151l409 264h82l406 -264h-160l-295 188z" />
<glyph unicode="&#xdc;" horiz-adv-x="2001" d="M791 1071q0 -62 -12 -131q-6 -39 -14 -72t-22.5 -82.5t-30 -98t-38.5 -109.5q-19 -59 -37 -117q-13 -41 -28 -95q-11 -39 -17 -75t-6 -64q0 -44 24 -74q25 -28 64 -28q56 0 113 62t114 190.5t103 296.5l94 352q33 124 63 208q19 53 30.5 83t31.5 76q4 11 93 22 q29 3 64.5 6.5t59.5 3.5q21 0 30 -2.5t9 -13.5q0 -13 -47 -176l-136 -522q-79 -322 -79 -449q0 -64 25.5 -99.5t70.5 -35.5t122 57.5t150.5 157.5t122.5 229q23 63 36 133t13 140q0 89 -23 184t-67 184q-25 50 -25 66q0 27 40 63q36 32 89 58t72 26q22 0 46 -42t41 -110 q8 -35 12 -64.5t4 -63.5q0 -206 -72.5 -413t-192 -380.5t-252 -274t-243.5 -100.5q-42 0 -91.5 21.5t-91.5 96.5t-42 220q-78 -141 -170.5 -239.5t-221.5 -98.5q-110 0 -177.5 81t-67.5 216q0 96 30.5 212t83.5 269.5t81 266t28 176.5q0 58 -33.5 97.5t-83.5 39.5t-104 -44 t-89.5 -111.5t-35.5 -130.5q0 -50 18 -84t49 -71q27 -33 29 -48q0 -15 -42.5 -67t-74.5 -52q-14 0 -42 18t-51.5 61t-23.5 112q0 98 35 187q18 44 42.5 85t55.5 78q62 73 143 116t159 43q81 0 148.5 -46t106 -128t38.5 -182zM655 1473l23 49q145 58 225 98q44 22 87.5 47 t89.5 56q86 57 175 132l404 39q0 -117 10 -175t44.5 -104.5t115.5 -98.5l-14 -39q-111 17 -187.5 43t-141.5 70t-149 120q-55 -32 -115 -64q-51 -27 -98 -49q-83 -37 -196 -68q-51 -13 -122 -27.5t-151 -28.5z" />
<glyph unicode="&#xdd;" horiz-adv-x="1569" d="M924 -90q-89 -30 -165 -75t-117.5 -95.5t-41.5 -95.5q0 -36 26.5 -61t63.5 -25q47 0 87.5 36.5t75 111t71.5 204.5zM1505 1200l-155 -678q-37 -166 -107 -413q105 36 181.5 84.5t154.5 142.5v-115q-56 -68 -143 -116q-83 -45 -224 -91q-75 -220 -173.5 -337.5 t-187.5 -155t-159 -37.5q-75 0 -121.5 41t-46.5 110q0 215 424 363l23 94l38 153l50 200q8 32 16 65q3 11 19 63l57 191l-139 -294q-93 -194 -216 -337t-266 -143q-100 0 -162.5 78.5t-62.5 203.5q0 41 7 92.5t21 109t38 137.5t55 167q104 300 104 408q0 65 -34 109t-88 44 q-53 0 -105 -41.5t-86.5 -109t-34.5 -135.5q0 -95 68 -154q24 -21 24 -35q0 -30 -40 -82.5t-78 -52.5q-43 0 -82 58q-37 60 -37 126q0 107 57 229.5t157.5 206t225.5 83.5q84 0 150.5 -45.5t103.5 -128.5t37 -187t-28 -223q-13 -57 -37 -136.5t-58 -172.5q-84 -236 -84 -332 q0 -90 66 -90q67 0 155 112q45 58 87.5 128.5t91.5 168.5q90 182 169 394q58 151 92 254q30 87 60 192q4 21 17.5 30t52.5 15l70 8l80 9l34 4q21 0 23 -15zM510 1501l10 43q96 38 175.5 80t151.5 93q38 26 71 52.5t73 63.5l332 35q0 -103 7.5 -153.5t36.5 -92t93 -84.5 l-8 -33q-93 15 -152 37t-117.5 61.5t-121.5 102.5q-61 -39 -125 -74q-60 -31 -119.5 -53.5t-137.5 -42.5q-17 -4 -79 -17q-48 -10 -90 -18z" />
<glyph unicode="&#xde;" />
<glyph unicode="&#xdf;" />
<glyph unicode="&#xe0;" />
<glyph unicode="&#xe1;" horiz-adv-x="1067" d="M543 770q-67 0 -132 -81.5t-106 -198.5t-41 -203q0 -52 26 -87q28 -34 68 -34q69 0 132.5 81.5t104 199.5t40.5 204q0 55 -24 87t-68 32zM1090 336v-115q-151 -142 -221.5 -193t-139.5 -51q-149 0 -149 279q-103 -148 -188 -213.5t-171 -65.5q-57 0 -106 37.5t-77 104.5 t-28 143q0 125 53 232t133.5 186.5t172 125.5t163.5 46q124 0 175 -115l204 113h56l-88 -293l-46 -170q-10 -42 -16 -77.5t-6 -55.5q0 -41 17 -63.5t44 -22.5q32 0 74 33t144 135zM623 956l-62 21q77 90 125 167.5t80 160.5l229 24q-14 -55 -39.5 -100.5t-71 -90.5 t-111.5 -90.5t-150 -91.5z" />
<glyph unicode="&#xe2;" horiz-adv-x="1067" d="M543 770q-67 0 -132 -81.5t-106 -198.5t-41 -203q0 -52 26 -87q28 -34 68 -34q69 0 132.5 81.5t104 199.5t40.5 204q0 55 -24 87t-68 32zM1090 336v-115q-151 -142 -221.5 -193t-139.5 -51q-149 0 -149 279q-103 -148 -188 -213.5t-171 -65.5q-57 0 -106 37.5t-77 104.5 t-28 143q0 125 53 232t133.5 186.5t172 125.5t163.5 46q124 0 175 -115l204 113h56l-88 -293l-46 -170q-10 -42 -16 -77.5t-6 -55.5q0 -41 17 -63.5t44 -22.5q32 0 74 33t144 135zM279 950l10 49q100 73 168 146t141 188l215 39q0 -114 7 -173q3 -33 9 -58.5t17 -50.5 q20 -47 61 -97l-8 -39q-86 24 -138.5 73t-115.5 161q-91 -103 -162 -149t-204 -89z" />
<glyph unicode="&#xe3;" />
<glyph unicode="&#xe4;" />
<glyph unicode="&#xe5;" />
<glyph unicode="&#xe6;" />
<glyph unicode="&#xe7;" />
<glyph unicode="&#xe8;" />
<glyph unicode="&#xe9;" horiz-adv-x="748" d="M246 406q125 36 190.5 103t65.5 163q0 46 -19 71t-51 25q-39 0 -82 -42t-73.5 -124.5t-30.5 -195.5zM770 336v-115q-52 -50 -92 -84.5t-79 -63.5q-68 -49 -137.5 -72.5t-142.5 -23.5q-136 0 -219.5 87.5t-83.5 228.5q0 103 39.5 205t105.5 179t153 124t175 47 q92 0 148.5 -47.5t56.5 -126.5q0 -86 -69 -153t-161 -107q-87 -37 -210 -76q20 -95 74.5 -145t134.5 -50q54 0 99.5 22t84.5 56q17 14 49 43.5t74 71.5zM463 956l-62 21q77 90 125 167.5t80 160.5l230 24q-14 -55 -39.5 -100.5t-69 -88.5t-109.5 -89q-60 -41 -155 -95z" />
<glyph unicode="&#xea;" horiz-adv-x="748" d="M246 406q125 36 190.5 103t65.5 163q0 46 -19 71t-51 25q-39 0 -82 -42t-73.5 -124.5t-30.5 -195.5zM770 336v-115q-52 -50 -92 -84.5t-79 -63.5q-68 -49 -137.5 -72.5t-142.5 -23.5q-136 0 -219.5 87.5t-83.5 228.5q0 103 39.5 205t105.5 179t153 124t175 47 q92 0 148.5 -47.5t56.5 -126.5q0 -86 -69 -153t-161 -107q-87 -37 -210 -76q20 -95 74.5 -145t134.5 -50q54 0 99.5 22t84.5 56q17 14 49 43.5t74 71.5zM119 950l10 49q100 73 168 146t141 188l215 39q0 -110 6 -170.5t27 -109.5t62 -99l-9 -39q-84 26 -138.5 76t-115.5 158 q-88 -100 -162 -149q-66 -43 -204 -89z" />
<glyph unicode="&#xeb;" horiz-adv-x="768" d="M246 406q125 36 190.5 103t65.5 163q0 46 -19 71t-51 25q-39 0 -82 -42t-73.5 -124.5t-30.5 -195.5zM770 336v-115q-52 -50 -92 -84.5t-79 -63.5q-68 -49 -137.5 -72.5t-142.5 -23.5q-136 0 -219.5 87.5t-83.5 228.5q0 103 39.5 205t105.5 179t153 124t175 47 q92 0 148.5 -47.5t56.5 -126.5q0 -86 -69 -153t-161 -107q-87 -37 -210 -76q20 -95 74.5 -145t134.5 -50q54 0 99.5 22t84.5 56q17 14 49 43.5t74 71.5zM340 1364l170 61q0 -98 -8.5 -168.5t-38.5 -148.5q-15 -40 -39 -88.5t-59 -106.5l-60 -10q27 85 40 155.5t13 137.5 q0 75 -18 168zM637 1384l170 62q0 -99 -9 -170q-4 -33 -13.5 -70.5t-24.5 -77t-38.5 -87t-59.5 -107.5l-54 -10q54 201 54 295q0 84 -25 165z" />
<glyph unicode="&#xec;" />
<glyph unicode="&#xed;" />
<glyph unicode="&#xee;" horiz-adv-x="492" d="M514 336v-115q-240 -246 -350 -246q-64 0 -108 67t-44 163q0 136 41.5 281t102.5 309l254 53h12l-100 -313q-34 -110 -48 -172t-14 -105q0 -34 14.5 -54t36.5 -20q43 0 83.5 33t119.5 119zM-8 950l10 49q100 73 168 146t141 188l215 39q0 -110 6 -170.5t27 -109.5t62 -99 l-9 -39q-84 26 -138.5 76t-115.5 158q-88 -100 -162 -149q-66 -43 -204 -89z" />
<glyph unicode="&#xef;" horiz-adv-x="492" d="M514 336v-115q-240 -246 -350 -246q-64 0 -108 67t-44 163q0 136 41.5 281t102.5 309l254 53h12l-100 -313q-34 -110 -48 -172t-14 -105q0 -34 14.5 -54t36.5 -20q43 0 83.5 33t119.5 119zM133 1266q67 -41 109 -59q38 -15 82 -21q-20 -164 -134 -164q-61 0 -143 61 q58 95 86 183zM496 1266q66 -39 102 -57q36 -15 84 -27q0 -40 -9.5 -68.5t-28.5 -52.5q-32 -41 -87 -41q-54 0 -154 61q62 100 93 185z" />
<glyph unicode="&#xf0;" />
<glyph unicode="&#xf1;" />
<glyph unicode="&#xf2;" />
<glyph unicode="&#xf3;" />
<glyph unicode="&#xf4;" horiz-adv-x="897" d="M545 250q-94 118 -94 254q0 85 32.5 148t106.5 128q-15 6 -43 6q-97 0 -159 -72.5t-90 -177t-28 -204.5q0 -103 33 -158t88 -55q69 0 154 131zM920 336v-115q-44 -40 -87.5 -61t-87.5 -21q-21 0 -35.5 2.5t-35.5 10.5q-31 13 -72 43q-69 -106 -154 -163q-41 -27 -85 -41 t-91 -14q-75 0 -135 39t-92.5 112t-32.5 167q0 76 18 144t56 133q74 126 200.5 202t274.5 76q84 0 123.5 -18.5t49 -43t9.5 -63.5q0 -186 -102 -459q25 -22 51.5 -34.5t55.5 -12.5q35 0 77.5 29.5t94.5 87.5zM164 950l10 49q100 73 168 146t141 188l215 39q0 -110 6 -170.5 t27 -109.5t62 -99l-9 -39q-84 26 -138.5 76t-115.5 158q-88 -100 -162 -149q-66 -43 -204 -89z" />
<glyph unicode="&#xf5;" />
<glyph unicode="&#xf6;" horiz-adv-x="881" d="M545 250q-94 118 -94 254q0 85 32.5 148t106.5 128q-15 6 -43 6q-97 0 -159 -72.5t-90 -177t-28 -204.5q0 -103 33 -158t88 -55q69 0 154 131zM920 336v-115q-44 -40 -87.5 -61t-87.5 -21q-21 0 -35.5 2.5t-35.5 10.5q-31 13 -72 43q-69 -106 -154 -163q-41 -27 -85 -41 t-91 -14q-75 0 -135 39t-92.5 112t-32.5 167q0 76 18 144t56 133q74 126 200.5 202t274.5 76q84 0 123.5 -18.5t49 -43t9.5 -63.5q0 -186 -102 -459q25 -22 51.5 -34.5t55.5 -12.5q35 0 77.5 29.5t94.5 87.5zM399 1368l164 62q0 -106 -7 -171t-39 -151t-95 -195l-57 -10 q27 90 39 156t12 137q0 37 -4 80.5t-13 91.5zM694 1386l170 62q0 -99 -8 -168t-38.5 -148.5t-100.5 -197.5l-58 -10q58 182 58 297q0 90 -23 165z" />
<glyph unicode="&#xf7;" />
<glyph unicode="&#xf8;" />
<glyph unicode="&#xf9;" />
<glyph unicode="&#xfa;" />
<glyph unicode="&#xfb;" horiz-adv-x="1034" d="M549 369l131 426l272 55l-69 -224l-52 -172l-34 -129q-9 -41 -9 -69q0 -43 18.5 -68.5t45.5 -25.5q23 0 49.5 12.5t70 49.5t77.5 73l21 20l20 19v-115q-99 -93 -163.5 -143.5t-117 -75.5t-100.5 -25q-82 0 -123 65t-41 169q-114 -124 -202 -182q-84 -54 -165 -54 q-74 0 -121 64t-47 170q0 211 140 586l266 53q-15 -39 -57 -170t-75 -259q-16 -64 -24 -109t-8 -77q0 -42 19 -70q20 -26 53 -26q53 0 130 85t95 147zM323 949h-136l367 255h74l364 -255h-144l-264 182z" />
<glyph unicode="&#xfc;" horiz-adv-x="1397" d="M420 850l-74 -223q-46 -144 -70 -245t-24 -155q0 -51 24.5 -84.5t63.5 -33.5q78 0 160 124q0 68 9 137.5t48 188.5l82 242l268 49l-112 -346q-54 -159 -54 -264q0 -59 25.5 -94t69.5 -35q32 0 63 15t61 45t82 97q-31 61 -43 103q-4 18 -7 44t-3 54q0 96 34 184.5 t91 142.5t119 54q65 0 65 -98q0 -99 -42 -224.5t-121 -253.5q24 -22 51 -34.5t55 -12.5q33 0 76 28t92 81v-115q-78 -65 -170 -74q-38 0 -72 13.5t-71 42.5q-81 -98 -176 -162t-199 -64q-140 0 -203 156q-135 -156 -289 -156q-101 0 -159 66t-58 184q0 115 32 241.5 t112 332.5zM412 940l18 57q83 58 145 114q56 50 113 117q49 59 113 154l256 48q0 -130 8.5 -200.5t33 -127.5t72.5 -111l-10 -47q-98 30 -163 88t-144 185q-74 -84 -130 -129t-129 -80q-61 -28 -183 -68z" />
<glyph unicode="&#xfd;" horiz-adv-x="1061" d="M424 -113q-119 -52 -187.5 -121.5t-68.5 -136.5q0 -28 15.5 -47.5t41.5 -19.5q54 0 105.5 82.5t93.5 242.5zM76 545l96 254l291 51l-125 -297q-29 -72 -57.5 -167t-28.5 -157q0 -90 61 -90q40 0 91 45t101 127q45 75 83 174l114 314l273 51l-33 -94l-197 -592l-30 -96 q139 66 210 119q78 56 165 149v-115q-27 -24 -54 -46t-55 -43q-48 -34 -125 -77q-60 -33 -172 -86q-69 -196 -149 -305q-133 -178 -302 -178q-63 0 -102 39t-39 104q0 42 17.5 84.5t59.5 89t112 93.5q36 23 76.5 44.5t95.5 45.5l61 215q-95 -109 -175.5 -160t-156.5 -51 q-77 0 -124.5 63.5t-47.5 167.5q0 66 18 156t48 168zM324 940l8 57q73 61 122.5 114.5t92 112.5t98.5 158l223 48l3 -154q0 -35 2 -55t10.5 -63.5t26.5 -79.5t55 -87l-15 -47q-85 30 -138.5 89t-115.5 184q-28 -37 -60 -72q-28 -32 -54 -56q-50 -47 -109 -81 q-55 -31 -149 -68z" />
<glyph unicode="&#x2c6;" horiz-adv-x="682" d="M86 950l10 49q97 71 168 147t142 187l215 39q0 -114 7 -173q3 -33 9 -58.5t17 -50.5q20 -47 61 -97l-8 -39q-86 24 -138.5 73t-115.5 161q-64 -73 -113 -112q-22 -18 -48.5 -35t-56.5 -33q-56 -26 -149 -58z" />
<glyph unicode="&#x2013;" horiz-adv-x="1024" d="M-10 422v182h1044v-182h-1044z" />
<glyph unicode="&#x2014;" horiz-adv-x="2048" d="M-10 422v182h2068v-182h-2068z" />
<glyph unicode="&#x2015;" />
<glyph unicode="&#x2016;" />
<glyph unicode="&#x2017;" />
<glyph unicode="&#x2018;" horiz-adv-x="639" d="M590 1639l12 -66q-117 -57 -171 -111q-26 -27 -39 -55t-13 -61q0 -44 27.5 -77t82.5 -54q22 -10 23 -17q0 -14 -62 -76l-98 -120q-164 86 -164 237q0 40 12 78.5t38 78.5q49 79 139.5 142.5t212.5 100.5z" />
<glyph unicode="&#x2019;" horiz-adv-x="500" d="M120 1002l-14 61q87 47 135.5 83.5t69 72t20.5 77.5q0 89 -102 125q-29 10 -31 21q0 8 35 47q77 82 127 150q160 -85 160 -236q0 -32 -6 -61t-20 -60q-25 -58 -76.5 -109.5t-123.5 -93.5q-64 -36 -174 -77z" />
<glyph unicode="&#x201a;" horiz-adv-x="492" d="M66 -352l-21 61q44 28 82 54q33 22 58 42q44 35 64.5 70t20.5 76q0 87 -100 127q-33 12 -35 24q0 9 33 39q54 49 129 154q86 -51 124 -107t38 -129q0 -124 -101 -228.5t-292 -182.5z" />
<glyph unicode="&#x201b;" />
<glyph unicode="&#x201c;" horiz-adv-x="1081" d="M563 1647l12 -62q-125 -65 -174 -116t-49 -115q0 -87 106 -129q27 -11 27 -17q0 -15 -53 -69q-38 -38 -109 -127q-162 96 -162 225q0 124 81 214t170 134.5t151 61.5zM1054 1647l13 -60q-126 -66 -175 -117.5t-49 -115.5q0 -87 107 -127q25 -9 26 -19q0 -14 -53 -67 l-31 -33l-40 -48l-37 -46q-160 91 -160 223q0 120 76 207.5t168.5 136t154.5 66.5z" />
<glyph unicode="&#x201d;" horiz-adv-x="999" d="M635 1002l-12 65q118 58 171.5 111.5t53.5 117.5q0 45 -34.5 79t-72.5 46q-28 6 -28 25l15 20l28 32l24 26l46 54q37 44 47 61q163 -86 163 -240q0 -33 -8 -64t-27 -70q-33 -72 -122.5 -141.5t-243.5 -121.5zM143 997l-10 66q85 43 132 78t69 72.5t22 80.5 q0 40 -30.5 76.5t-77.5 48.5q-27 9 -27 25l33 38l41 50l39 50l45 57q88 -45 127 -101.5t39 -136.5q0 -129 -102.5 -231.5t-299.5 -172.5z" />
<glyph unicode="&#x201e;" horiz-adv-x="981" d="M553 -352l-12 69q82 40 131 76.5t74 76.5q22 41 22 83q0 39 -21.5 67t-70.5 50q-39 17 -39 30q0 9 49 62q13 12 42 44.5t71 82.5q82 -49 117.5 -102t35.5 -128q0 -126 -98 -228.5t-301 -182.5zM252 225l59 70q83 -54 117.5 -109t34.5 -129q0 -254 -402 -403l-12 63 q129 72 177 120t48 110q0 83 -96 127q-30 15 -31 26q5 7 8 12q10 14 27 34z" />
<glyph unicode="&#x201f;" />
<glyph unicode="&#x2020;" />
<glyph unicode="&#x2021;" />
<glyph unicode="&#x2022;" />
<glyph unicode="&#x2023;" />
<glyph unicode="&#x2024;" />
<glyph unicode="&#x2025;" />
<glyph unicode="&#x2026;" horiz-adv-x="1217" d="M131 276l71 -55q19 -12 40 -21q11 -3 24.5 -5t30.5 -2q34 0 98 16q-21 -70 -41.5 -117.5t-38.5 -69.5q-36 -45 -110 -45q-50 0 -85 14q-37 12 -89 50q28 46 53 104q19 47 47 131zM537 276l71 -55q19 -12 40 -21q11 -3 24.5 -5t30.5 -2q34 0 98 16q-21 -70 -41.5 -117.5 t-38.5 -69.5q-36 -45 -110 -45q-50 0 -85 14q-37 12 -89 50q28 46 53 104q19 47 47 131zM942 276l71 -55q19 -12 40 -21q11 -3 24.5 -5t30.5 -2q34 0 98 16q-21 -70 -41.5 -117.5t-38.5 -69.5q-36 -45 -110 -45q-50 0 -85 14q-37 12 -89 50q28 46 53 104q19 47 47 131z" />
<glyph unicode="&#x2027;" />
<glyph unicode="&#x2028;" />
<glyph unicode="&#x2029;" />
<glyph unicode="&#x202a;" />
<glyph unicode="&#x202b;" />
<glyph unicode="&#x202c;" />
<glyph unicode="&#x202d;" />
<glyph unicode="&#x202e;" />
<glyph unicode="&#x202f;" />
<glyph unicode="&#x2030;" />
<glyph unicode="&#x2031;" />
<glyph unicode="&#x2032;" />
<glyph unicode="&#x2033;" />
<glyph unicode="&#x2034;" />
<glyph unicode="&#x2035;" />
<glyph unicode="&#x2036;" />
<glyph unicode="&#x2037;" />
<glyph unicode="&#x2038;" />
<glyph unicode="&#x2039;" horiz-adv-x="575" d="M293 377l63 -180l10 -26l9 -32q0 -10 -23 -22l-108 -41l-33 -13q-11 0 -43 84l-64 185q-36 102 -36 153q0 27 41 89t92 122l133 164q33 42 43 43q16 0 85 -43.5t70 -56.5l-26 -34q-24 -32 -31 -36l-141 -168q-60 -68 -60 -102q0 -28 19 -86z" />
<glyph unicode="&#xe000;" horiz-adv-x="850" d="M0 850h850v-850h-850v850z" />
</font>
</defs>
</svg>
