<?xml version="1.0" standalone="no"?>
<!DOCTYPE svg PUBLIC "-//W3C//DTD SVG 1.1//EN" "http://www.w3.org/Graphics/SVG/1.1/DTD/svg11.dtd" >
<svg xmlns="http://www.w3.org/2000/svg">
<metadata></metadata>
<defs>
<font id="poor_richardregular" horiz-adv-x="1024" >
<font-face units-per-em="2048" ascent="1638" descent="-410" />
<missing-glyph horiz-adv-x="328" />
<glyph horiz-adv-x="2048" />
<glyph horiz-adv-x="2048" />
<glyph unicode="&#xd;" horiz-adv-x="2048" />
<glyph unicode=" "  horiz-adv-x="328" />
<glyph unicode="&#x09;" horiz-adv-x="328" />
<glyph unicode="&#xa0;" horiz-adv-x="328" />
<glyph unicode="!" horiz-adv-x="264" d="M27 90q0 40 30 69t70 29q50 0 81.5 -29t31.5 -83q0 -38 -31.5 -65t-73.5 -27q-41 0 -74.5 33t-33.5 73zM33 1364q0 37 29 64.5t73 27.5q42 0 69 -31.5t27 -68.5q0 -92 -20 -442t-23 -419.5t-12 -97.5t-45 -28q-42 0 -45 55z" />
<glyph unicode="&#x22;" horiz-adv-x="463" d="M94 1341q0 43 39.5 67t64.5 24q24 0 38.5 -18.5t14.5 -38.5q0 -32 -32 -58q-16 -13 -26 -45t-14 -124t-16.5 -111.5t-23.5 -19.5q-12 0 -18.5 21t-7 99.5t-1.5 93.5t-9.5 53.5t-8.5 56.5zM300 1338q0 25 10.5 41t41 34t54.5 18t38 -18.5t14 -37.5q0 -31 -32 -58 q-16 -13 -26 -45t-14 -123.5t-15.5 -112t-23.5 -20.5q-15 0 -20.5 26t-6.5 106.5t-10.5 126t-9.5 63.5z" />
<glyph unicode="#" horiz-adv-x="1659" d="M57 364q0 13 27.5 78.5t80 107.5t127.5 42h229l92 340h-192q-36 0 -73.5 -9.5t-77.5 -39t-58 -29.5q-20 0 -20 14t26 78t79 107t130 43h229l95 348q4 16 18.5 26.5t28.5 10.5q15 0 24.5 -10.5t9.5 -24.5l-2 -8l-92 -342h350l95 348q4 16 19 26.5t28 10.5q36 0 36 -30 l-1 -7l-95 -348h213q31 0 63.5 10.5t72.5 44t57 33.5q21 0 21 -23q0 -17 -26 -83.5t-76.5 -106t-125.5 -39.5h-242l-92 -340h213q31 0 63.5 11t72.5 44t57 33q21 0 21 -23q0 -17 -26 -83.5t-76.5 -106t-125.5 -39.5h-242l-106 -397q-5 -17 -22 -30t-34 -13q-29 0 -29 25 q0 7 3 18l106 397h-350l-106 -397q-5 -17 -22 -30t-34 -13q-29 0 -29 25q0 7 3 18l106 397h-192q-36 0 -73.5 -9.5t-77.5 -39t-58 -29.5q-20 0 -20 14zM603 592h350l92 340h-350z" />
<glyph unicode="$" horiz-adv-x="1020" d="M33 408q0 38 35 38q28 0 56 -108q29 -113 89 -165t126 -73t84 -21q11 0 11 34v549q0 22 -20 30q-381 149 -381 422q0 138 106 235t269 111q17 2 22 6.5t6 18.5l6 94q3 37 31 37q18 0 29.5 -11t11.5 -26v-94q0 -21 23 -23q120 -8 207 -40t87 -81q0 -12 -4 -32 q-4 -21 -4 -33q0 -9 7 -32q14 -52 14 -103q0 -29 -27 -29q-15 0 -29.5 15t-17.5 34q-21 116 -87 165.5t-144 49.5q-14 0 -18.5 -4t-4.5 -22v-496q0 -23 23 -33q38 -16 100 -37q98 -32 176 -88.5t125 -138.5t47 -176q0 -183 -114.5 -282.5t-335.5 -110.5q-11 0 -15 -6t-4 -25 v-160q0 -17 -13 -30t-30 -13q-39 0 -39 43v160q0 31 -16 31q-141 8 -256 48t-115 83q0 14 2 40q2 51 2 109q0 24 -11 77q-9 45 -9 63zM201 1133q0 -114 102 -184.5t124 -70.5q11 0 11 19v459q0 20 -13 20q-27 0 -88.5 -25t-98.5 -82.5t-37 -135.5zM520 111q0 -20 1 -27t7 -7 q30 0 111 25t134.5 86.5t53.5 153.5q0 86 -52 151t-143 109t-104 44q-8 0 -8 -15v-520z" />
<glyph unicode="%" horiz-adv-x="2034" d="M143 1085q0 166 113.5 285t304.5 119q100 0 199 -57q216 -50 340 -50q196 0 327 86q18 30 30.5 36.5t47.5 6.5q46 0 46 -12q0 -5 -5 -12q-374 -590 -668 -1086l-272 -458q-16 -27 -29.5 -33t-46.5 -6q-41 0 -41 13q0 7 11 26q249 427 485 807l361 585 q-139 -112 -240 -112q-91 0 -203 57q47 -91 47 -213q0 -178 -116.5 -286.5t-286.5 -108.5q-162 0 -283 103t-121 310zM322 1057q0 -137 59 -234.5t164 -97.5q111 0 172 96t61 275q0 155 -61 247.5t-162 92.5q-105 0 -169 -112.5t-64 -266.5zM1120 416q0 165 113.5 284 t304.5 119q146 0 267.5 -110.5t121.5 -311.5q0 -178 -116.5 -286.5t-286.5 -108.5q-162 0 -283 103.5t-121 310.5zM1298 387q0 -136 59.5 -234t164.5 -98q111 0 172 96.5t61 274.5q0 155 -61 247.5t-162 92.5q-105 0 -169.5 -112.5t-64.5 -266.5z" />
<glyph unicode="&#x26;" horiz-adv-x="1833" d="M39 510q0 180 144.5 321.5t334.5 157.5q18 2 18 8t-14 25l-268 377q-9 12 -9 20q0 20 38.5 24.5t134.5 4.5h463q39 0 58 -6t29.5 -31.5t10.5 -81.5q0 -93 -14 -113t-41 -20q-28 0 -48 43q-18 39 -40 39h-277q-59 0 -59 -36q0 -18 14 -38l150 -215q5 -8 25 -26.5t20 -38.5 q0 -22 -33 -22q-9 0 -36 2.5t-44 2.5q-97 0 -221.5 -103t-124.5 -319q0 -173 120 -308.5t281 -135.5t304 109.5t143 265.5q0 117 -67 185.5t-142 68.5q-59 0 -100 -38.5t-41 -101.5q0 -42 41 -73q22 -16 22 -27q0 -14 -15 -25.5t-30 -11.5q-36 0 -66 40.5t-30 101.5 q0 73 35 139.5t126 136t206 100.5t302 31q170 0 275.5 36.5t105.5 115.5q0 9 -10 27.5t-10 29.5q0 35 43 35q25 0 41 -28.5t16 -61.5q0 -62 -50.5 -125.5t-140 -112t-200 -64.5t-305.5 -16q-111 0 -139.5 -11.5t-28.5 -18.5t18 -7q89 0 167.5 -94t78.5 -235 q0 -123 -80 -224.5t-216 -161t-267 -59.5q-260 0 -429 156t-169 387z" />
<glyph unicode="'" horiz-adv-x="250" d="M76 1341q0 43 40 67t64 24q25 0 39 -18.5t14 -38.5q0 -32 -32 -58q-16 -13 -25.5 -45t-14 -124.5t-16.5 -111.5t-25 -19q-16 0 -19.5 25t-3.5 133q0 56 -10.5 102t-10.5 64z" />
<glyph unicode="(" horiz-adv-x="485" d="M57 676q0 256 76.5 467t178.5 329.5t137 118.5q8 0 8 -8q0 -9 -22 -47q-107 -185 -148 -412.5t-41 -480.5q0 -199 36 -398t140 -412q31 -64 31 -79q0 -14 -10 -14q-38 0 -137.5 112.5t-174 328t-74.5 495.5z" />
<glyph unicode=")" horiz-adv-x="485" d="M51 1584q0 7 8 7q36 0 138.5 -119.5t179 -332t76.5 -469.5q0 -268 -75.5 -481t-176.5 -327.5t-137 -114.5q-8 0 -8 12q0 14 30 77q105 219 142.5 425t37.5 413q0 227 -41 441.5t-150 414.5q-24 45 -24 54z" />
<glyph unicode="*" horiz-adv-x="451" d="M31 1309q0 18 16.5 38t37.5 20q32 0 67 -40.5t45 -40.5l4 12q0 15 -10 44t-10 42q0 27 14.5 44.5t40.5 17.5q54 0 54 -57q0 -17 -8.5 -51.5t-8.5 -41.5q0 -12 5 -12q11 0 38 30.5t39.5 38t30.5 7.5q25 0 41.5 -21.5t16.5 -37.5q0 -20 -21 -34t-67 -26.5t-46 -21.5 q0 -11 63.5 -22t63.5 -57q0 -20 -14 -38.5t-38 -18.5q-16 0 -34 9q-6 4 -37 36.5t-40 32.5q-5 0 -5 -14q0 -17 10.5 -47.5t10.5 -44.5q0 -25 -16.5 -41.5t-37.5 -16.5q-25 0 -39 17t-14 43q0 9 11.5 46t11.5 48q0 12 -6 12q-15 0 -48.5 -39t-62.5 -39q-23 0 -38.5 16.5 t-15.5 38.5q0 25 16 38.5t55 23.5q54 14 54 23t-51 20q-78 18 -78 64z" />
<glyph unicode="+" horiz-adv-x="1188" d="M127 541q0 12 12.5 33.5t22.5 47.5t24.5 36t59.5 10h293v280q0 45 10 59.5t35.5 24.5t47 22.5t34.5 12.5q20 0 20 -23q0 -18 -8 -28q-16 -20 -16 -105v-243h256q84 0 99 12t34 12q22 0 22 -20q0 -13 -12.5 -34.5t-22.5 -47t-24 -35.5t-60 -10h-292v-305q0 -46 -10.5 -60 t-36 -24.5t-47 -22.5t-33.5 -12q-21 0 -21 22q0 19 8 28q17 21 17 105v269h-256q-85 0 -100 -12.5t-33 -12.5q-23 0 -23 21z" />
<glyph unicode="," horiz-adv-x="287" d="M31 90q0 49 29 77t75 28q47 0 84 -44.5t37 -117.5q0 -62 -67 -190t-99 -128q-18 0 -18 19q0 5 37.5 83t37.5 122q0 34 -43.5 55.5t-58 45t-14.5 50.5z" />
<glyph unicode="-" horiz-adv-x="821" d="M33 223q0 16 34 58.5t48.5 82t29 50t62.5 10.5h375q31 0 60 13.5t60 54t48 40.5q10 0 19 -9t9 -21q0 -22 -23.5 -52t-42.5 -83t-31.5 -59.5t-70.5 -6.5h-366q-36 0 -71 -12t-72 -55q-27 -31 -46 -31q-22 0 -22 20z" />
<glyph unicode="." horiz-adv-x="274" d="M33 80q0 42 31 73t73 31q43 0 74 -29t31 -75q0 -47 -30 -73.5t-71 -26.5q-36 0 -72 30.5t-36 69.5z" />
<glyph unicode="/" horiz-adv-x="1167" d="M-4 -218q0 7 9 22l283 465l793 1288q15 23 27.5 28.5t45.5 5.5q45 0 45 -12q0 -5 -5 -13l-322 -514l-749 -1228q-24 -41 -37 -48t-48 -7q-42 0 -42 13z" />
<glyph unicode="0" horiz-adv-x="1069" d="M31 731q0 309 142 527.5t378 218.5q111 0 228.5 -89.5t188 -266t70.5 -427.5q0 -332 -146.5 -531.5t-356.5 -199.5q-121 0 -241 81t-191.5 252t-71.5 435zM252 678q0 -256 74.5 -436.5t205.5 -180.5q138 0 214.5 179t76.5 510q0 288 -76.5 457t-201.5 169 q-131 0 -212 -205.5t-81 -492.5z" />
<glyph unicode="1" horiz-adv-x="627" d="M27 1178q0 18 32 44t117 83l118 82q81 55 105.5 69t44.5 14q33 0 33 -34q0 -24 -21 -56q-38 -58 -38 -131l6 -805l-4 -280q0 -32 15.5 -54.5t68.5 -32.5t64.5 -23t11.5 -31q0 -17 -17 -30t-47 -13q-17 0 -75.5 7t-112.5 7q-87 0 -131.5 -7t-53.5 -7q-65 0 -65 59 q0 15 10 25t62.5 16.5t70 32.5t17.5 63l2 940q0 34 -16.5 52t-30.5 18q-21 0 -60.5 -28t-58.5 -28q-47 0 -47 48z" />
<glyph unicode="2" horiz-adv-x="1094" d="M31 1053q0 199 145 316.5t391 117.5q88 0 215.5 -38.5t209 -145.5t81.5 -265q0 -123 -62 -225.5t-152.5 -181.5t-247 -190t-193.5 -165.5t-37 -105.5h401q15 0 23 10t8.5 49.5t9.5 50.5t25 11q92 0 92 -185q0 -16 4 -23.5t4 -23.5q0 -25 -20.5 -42t-48.5 -17h-619 q-39 0 -56.5 8.5t-17.5 34.5q0 71 74.5 191t201.5 221q66 53 226 218t160 390q0 122 -85 225t-259 103q-74 0 -166 -34.5t-144.5 -99t-52.5 -167.5q0 -88 43 -139.5t76 -51.5q9 0 29.5 8t36.5 8q34 0 59 -23.5t25 -64.5q0 -38 -40 -64t-96 -26q-105 0 -174 94.5t-69 221.5z " />
<glyph unicode="3" horiz-adv-x="1124" d="M0 172q0 17 12.5 28t26.5 11q24 0 63 -44q68 -76 138 -98t143 -22q114 0 232 67.5t186.5 192.5t68.5 293q0 53 -33 137t-94.5 136.5t-144.5 52.5q-61 0 -114.5 -26t-65.5 -26q-24 0 -24 26q0 23 22 54l182 267q11 16 11 35q0 20 -19 20h-289q-27 0 -53.5 -34t-46.5 -34 q-37 0 -37 78q0 33 6 61.5t6 41.5q0 59 66 59h592q79 0 79 -33q0 -15 -9 -27t-61.5 -34.5t-76.5 -59.5l-158 -239q-7 -11 -7 -16t13 -5q51 4 62 4q185 0 301.5 -140t116.5 -327q0 -163 -117 -320t-273.5 -230.5t-312.5 -73.5q-70 0 -160 27t-160.5 89.5t-70.5 108.5z" />
<glyph unicode="4" horiz-adv-x="1094" d="M37 524q0 15 24 45l687 875q29 39 57 39q14 0 24.5 -12.5t10.5 -32.5q0 -14 -6.5 -46t-6.5 -57v-700q0 -20 16.5 -24.5t57.5 -4.5q65 0 109 14.5t49 14.5q9 0 15.5 -7.5t6.5 -17.5q0 -41 -83 -82t-144 -41q-15 0 -20 -5.5t-5 -18.5v-297q0 -56 22 -74.5t56 -19.5 q86 -5 86 -52q0 -40 -71 -40q-19 0 -64.5 9t-118.5 9q-53 0 -111 -9t-71 -9q-40 0 -55 11.5t-15 35.5q0 15 11.5 25t66.5 15.5t70.5 26t15.5 74.5v307q0 25 -14 31q-120 49 -336 49q-76 0 -148 -33t-87 -33q-11 0 -20 9.5t-9 25.5zM253 650l17 3q89 25 193 25q75 0 117 -8 t47 -8q20 0 20 18v422q0 36 -8 36q-7 0 -31 -30l-348 -440z" />
<glyph unicode="5" horiz-adv-x="1051" d="M0 166q0 13 9.5 26t25.5 13q18 0 72 -44q87 -72 148 -94t118 -22q88 0 188.5 57.5t169 171t68.5 316.5q0 201 -113.5 332t-222.5 131q-145 0 -275 -175q-25 -34 -38 -41.5t-27 -7.5q-31 0 -31 45q0 20 5 43q14 63 14 201v252q0 70 73 70h418q25 0 49.5 14t48.5 14 q12 0 20.5 -9t8.5 -23q0 -43 -90 -97.5t-233 -54.5q-59 0 -118 11.5t-65 11.5q-14 0 -14 -21v-199q0 -21 14 -21q6 0 13 5q49 40 120 64t142 24q86 0 209 -54t217 -176t94 -343q0 -194 -89 -340t-238.5 -224.5t-276.5 -78.5q-118 0 -213.5 41.5t-148 99.5t-52.5 82z" />
<glyph unicode="6" horiz-adv-x="1106" d="M31 727q0 336 156.5 541t375.5 205q157 0 275 -71.5t118 -123.5q0 -10 -14.5 -19.5t-28.5 -9.5q-20 0 -92.5 44.5t-123.5 59.5t-95 15q-186 0 -265 -201.5t-79 -492.5q0 -290 79.5 -446t233.5 -156q151 0 217 133t66 418q0 170 -64.5 261t-164.5 91q-32 0 -69 -12 t-100 -51.5t-85 -39.5q-14 0 -24.5 11.5t-10.5 25.5q0 44 105 105t184 61q94 0 204.5 -60.5t177 -170.5t66.5 -254q0 -191 -72.5 -337t-197 -218t-223.5 -72q-248 0 -398.5 201t-150.5 563z" />
<glyph unicode="7" horiz-adv-x="1004" d="M0 1229v166q0 51 47 51h911q46 0 46 -29q0 -21 -32 -50q-60 -56 -100 -122q-203 -336 -288.5 -612t-85.5 -436q0 -61 21 -83t61 -34l6 -2l14 -2q86 -10 86 -51q0 -50 -84 -50q-22 0 -62 9.5t-65 9.5q-26 0 -66 -7t-59 -7q-22 0 -35.5 12.5t-13.5 56.5q0 162 64 382.5 t145.5 389.5t164.5 301t83 140q0 11 -41 11q-16 0 -62.5 -2.5t-72.5 -2.5h-422q-31 0 -44.5 -12t-13.5 -58q0 -61 -49 -61q-53 0 -53 92z" />
<glyph unicode="8" horiz-adv-x="1028" d="M31 424q0 102 60.5 199.5t195.5 205.5q11 10 11 15q0 6 -11 16q-87 76 -120.5 143t-33.5 148q0 147 110 238.5t263 91.5q160 0 253 -86.5t93 -243.5q0 -63 -26.5 -115t-118.5 -129l-8 -10l10 -10q157 -104 222.5 -208.5t65.5 -254.5q0 -206 -138.5 -328.5t-344.5 -122.5 q-191 0 -337 126.5t-146 324.5zM147 408q0 -145 99.5 -236.5t234.5 -91.5q102 0 204.5 88t102.5 221q0 146 -113 243q-65 56 -150 92.5t-95 41.5q-159 -95 -221 -178.5t-62 -179.5zM322 1186q0 -152 213 -223q178 74 178 215q0 81 -57.5 139.5t-137.5 58.5 q-85 0 -140.5 -54.5t-55.5 -135.5z" />
<glyph unicode="9" horiz-adv-x="1098" d="M31 846q0 186 74.5 336t197.5 220.5t221 70.5q247 0 395 -200.5t148 -563.5q0 -345 -155 -545.5t-371 -200.5q-157 0 -275.5 71t-118.5 124q0 10 15 19t28 9q21 0 91.5 -44t122.5 -59t98 -15q96 0 170.5 57.5t124 228t49.5 408.5q0 287 -79.5 444.5t-234.5 157.5 q-148 0 -215 -132t-67 -419q0 -170 64.5 -261t164.5 -91q37 0 78 12.5t98 51t78 38.5q14 0 24.5 -11.5t10.5 -25.5q0 -44 -101.5 -105t-187.5 -61q-94 0 -204.5 60.5t-177 170.5t-66.5 255z" />
<glyph unicode=":" horiz-adv-x="276" d="M33 88q0 42 32 71t76 29q42 0 72.5 -30.5t30.5 -71.5q0 -42 -29 -70t-74 -28q-44 0 -76 29t-32 71zM33 596q0 35 32.5 64.5t73.5 29.5q43 0 73 -30.5t30 -73.5t-30 -71t-73 -28t-74.5 32.5t-31.5 76.5z" />
<glyph unicode=";" horiz-adv-x="287" d="M31 90q0 48 29 74t77 26q47 0 83 -42.5t36 -114.5q0 -64 -65 -193t-101 -129q-18 0 -18 23q0 5 37.5 80.5t37.5 124.5q0 34 -43.5 55.5t-58 45t-14.5 50.5zM33 596q0 35 32.5 64.5t73.5 29.5q43 0 73 -30.5t30 -73.5t-30 -71t-73 -28t-74.5 32.5t-31.5 76.5z" />
<glyph unicode="&#x3c;" horiz-adv-x="1188" d="M178 606q0 30 47 53l674 342q53 27 72 27q10 0 34 -8t49.5 -14t25.5 -25q0 -8 -7.5 -15.5t-19.5 -20t-26.5 -22.5t-65.5 -36l-496 -254q-28 -14 -28 -21q0 -13 38 -32l486 -248q47 -24 63 -35t35 -31l12 -12q9 -9 9 -17q0 -18 -25.5 -24.5t-49.5 -14.5t-35 -8 q-17 0 -71 27l-680 338q-41 22 -41 51z" />
<glyph unicode="=" horiz-adv-x="1188" d="M127 332q0 12 12.5 33.5t22.5 47.5t24.5 36t59.5 10h672q84 0 99 12t34 12q22 0 22 -20q0 -12 -12.5 -34t-22.5 -47.5t-24 -35.5t-60 -10h-671q-85 0 -100 -12.5t-33 -12.5q-23 0 -23 21zM127 756q0 12 12.5 33.5t22.5 47.5t24.5 36t59.5 10h672q84 0 99 12t34 12 q22 0 22 -20q0 -13 -12.5 -34.5t-22.5 -47t-24 -35.5t-60 -10h-671q-85 0 -100 -12.5t-33 -12.5q-23 0 -23 21z" />
<glyph unicode="&#x3e;" horiz-adv-x="1188" d="M156 237q0 8 9 17l12 12q19 20 33.5 30t64.5 36l486 248q38 19 38 32q0 7 -11.5 12.5t-16.5 8.5l-496 254q-50 26 -65 36t-27 22.5t-19.5 20t-7.5 15.5q0 19 25.5 25t49 14t34.5 8q19 0 72 -27l674 -337q46 -25 46 -54q0 -30 -40 -51l-680 -342q-52 -27 -71 -27 q-11 0 -35 8t-49.5 14.5t-25.5 24.5z" />
<glyph unicode="?" horiz-adv-x="852" d="M33 1114q0 138 99.5 238t264.5 100q173 0 297.5 -104.5t124.5 -260.5q0 -87 -39.5 -159.5t-96 -126.5t-161 -136.5t-143.5 -148.5t-39 -121q0 -88 -51 -88q-27 0 -37 20.5t-10 92.5t38.5 146t155.5 184q120 114 152.5 193.5t32.5 160.5q0 97 -60 173.5t-158 76.5 q-119 0 -187.5 -63t-68.5 -161q0 -54 24 -92.5t62 -38.5q12 0 21.5 3.5t19.5 3.5q23 0 46.5 -17.5t23.5 -40.5q0 -41 -37 -64.5t-88 -23.5q-74 0 -130 66t-56 188zM203 86q0 44 32.5 74t77.5 30q40 0 73.5 -30t33.5 -82q0 -40 -32 -69t-75 -29t-76.5 31.5t-33.5 74.5z" />
<glyph unicode="@" horiz-adv-x="1667" d="M51 674q0 195 106.5 364t296.5 265t425 96q335 0 536 -187.5t201 -519.5q0 -154 -100 -253t-230 -99q-173 0 -256 94q-154 -112 -328 -112q-131 0 -219 73.5t-88 184.5q0 100 79.5 225.5t200.5 207t238 81.5q121 0 169 17t62 17q8 0 17 -2q-2 -13 -9 -35 q-22 -74 -22 -221v-335q0 -41 41.5 -71t116.5 -30q152 0 152 264q0 278 -147 443.5t-384 165.5q-303 0 -477 -175t-174 -458q0 -186 84.5 -318t228.5 -199t271 -67q129 0 230 26t122 65.5t52 39.5q24 0 42.5 -19.5t18.5 -34.5q0 -46 -145 -101.5t-320 -55.5 q-352 0 -571.5 172t-219.5 492zM567 580q0 -75 53.5 -116.5t151.5 -41.5q74 0 135.5 47.5t61.5 128.5v270q0 76 -17 107t-59 31q-127 0 -226.5 -139.5t-99.5 -286.5z" />
<glyph unicode="A" horiz-adv-x="1483" d="M-20 27q0 26 10 34t37 12q78 13 107.5 58.5t151.5 322.5l242 540q89 194 114.5 257.5t25.5 98.5q0 12 -8.5 43.5t-8.5 45.5q0 29 31 29q51 0 82 -43t83 -162l277 -626q151 -342 191 -423t65.5 -104.5t61 -34.5t48.5 -21.5t13 -35.5q0 -34 -63 -34q-21 0 -76.5 6t-110.5 6 t-114.5 -7t-81.5 -7q-34 0 -54 11.5t-20 31.5q0 17 12 28t64.5 16t68 22.5t15.5 43.5q0 28 -57 154.5t-71 134.5t-54 8h-447q-26 0 -47 16.5t-21 38.5q0 17 16.5 30t37.5 13h430q36 0 36 13q0 8 -14 39l-221 499q-20 46 -30 46q-12 0 -36 -64l-214 -489l-185 -412 q-8 -19 -8 -33q0 -15 11.5 -27t54.5 -24t54 -24t11 -27q0 -46 -60 -46q-14 0 -68.5 8.5t-90.5 8.5q-37 0 -76 -8t-57 -8q-25 0 -41 13.5t-16 31.5z" />
<glyph unicode="B" horiz-adv-x="1280" d="M23 1399q0 18 19.5 29.5t47.5 11.5h539q141 0 260 -91.5t119 -238.5q0 -79 -54 -139.5t-149 -93.5l-15 -10l15 -7q183 -30 312.5 -158t129.5 -299q0 -183 -156.5 -302t-451.5 -119q-469 0 -541.5 4t-72.5 41q0 18 10.5 31t61.5 19t66 30t15 57v1100q0 39 -14 62.5 t-64 23.5q-51 0 -64 13t-13 36zM344 999q0 -75 42.5 -92.5t135.5 -17.5q130 0 216.5 65.5t86.5 175.5q0 105 -85 163.5t-218 58.5q-103 0 -140.5 -21t-37.5 -80v-252zM354 180q0 -59 12 -81.5t51 -29t142 -6.5q222 0 353.5 99.5t131.5 275.5q0 164 -141 264.5t-350 100.5 q-93 0 -146 -24.5t-53 -69.5v-529z" />
<glyph unicode="C" horiz-adv-x="1370" d="M25 735q0 196 90 367.5t256 267.5t385 96q140 0 258.5 -36.5t187 -88.5t68.5 -79q0 -42 -2 -76t-2 -41q0 -12 7 -36.5t7 -45.5q0 -33 -41 -33q-13 0 -26 12t-38 67q-53 117 -114 170q-107 93 -299 93q-247 0 -384.5 -179.5t-137.5 -463.5q0 -309 149 -488.5t402 -179.5 q65 0 204.5 43.5t275.5 168.5q30 27 46 27q15 0 26 -11.5t11 -20.5q0 -35 -80.5 -111.5t-210.5 -131t-275 -54.5q-234 0 -406.5 102t-264.5 284t-92 378z" />
<glyph unicode="D" horiz-adv-x="1362" d="M16 1401q0 41 66 41h500q150 0 337.5 -86.5t303.5 -258.5t116 -401q0 -312 -192 -513t-498 -201l-567 4q-23 0 -39 11.5t-16 31.5q0 17 11 28t60 16.5t62.5 21t13.5 38.5v1137q0 45 -14.5 65t-31 23.5t-63.5 3.5q-29 0 -39 9.5t-10 29.5zM344 188q0 -58 53 -89t195 -31 q154 0 233 40q134 69 217.5 219t83.5 304q0 133 -22.5 250.5t-81 212t-176.5 178.5t-314 84q-188 0 -188 -82v-1086z" />
<glyph unicode="E" horiz-adv-x="1047" d="M4 1400q0 19 17 33.5t43 14.5h770q46 0 60 -19t20.5 -56t5.5 -122q0 -39 -32 -39q-19 0 -33.5 11.5t-32 58t-36 59.5t-42.5 13h-274q-69 0 -87 -19.5t-18 -58.5v-211q0 -74 20 -97.5t81 -23.5h266q33 0 50 26.5t17 59.5q0 17 14 28.5t33 11.5q20 0 33 -13t13 -37 q0 -21 -6.5 -60.5t-6.5 -64.5q0 -38 8.5 -80t8.5 -51q0 -23 -15 -38t-35 -15q-21 0 -35 18.5t-14 50.5q0 38 -20 54t-66 16h-264q-36 0 -59 -14.5t-23 -42.5v-639q0 -50 25.5 -67t87.5 -17h344q51 0 77.5 27t26.5 69q0 38 17 60.5t40 22.5t38.5 -21t15.5 -56t3 -75.5 t3 -55.5q0 -41 -11.5 -53.5t-59.5 -12.5h-809q-85 0 -116.5 13t-31.5 39q0 41 57 41q73 0 95 23.5t22 74.5v915q0 148 -5 196t-25 61.5t-80 13.5q-36 0 -55.5 13.5t-19.5 34.5z" />
<glyph unicode="F" horiz-adv-x="920" d="M16 1398q0 18 17 31t43 13h770q39 0 48 -10.5t14 -44t10.5 -64t5.5 -49.5q0 -60 -49 -60q-12 0 -22.5 10.5t-27 57t-33 60.5t-36.5 14h-274q-71 0 -93 -19.5t-22 -58.5v-211q0 -67 19 -95t92 -28h266q32 0 49 26.5t17 61.5q0 17 11 27t27 10q17 0 29 -12.5t12 -34.5 q0 -21 -3 -60.5t-3 -64.5q0 -38 5 -80t5 -51q0 -22 -11.5 -35.5t-28.5 -13.5q-18 0 -30.5 17.5t-12.5 47.5q0 72 -86 72h-265q-50 0 -67 -15t-17 -44v-596q0 -39 19.5 -68.5t80 -47t73 -32t12.5 -33.5q0 -34 -41 -34q-20 0 -76.5 16t-110.5 16q-95 0 -156 -17t-79 -17 q-62 0 -62 51q0 13 10.5 23t63.5 22t70.5 35.5t17.5 54.5v915q0 139 -6.5 191.5t-26.5 66t-73 13.5q-36 0 -55.5 12.5t-19.5 31.5z" />
<glyph unicode="G" horiz-adv-x="1393" d="M25 725q0 200 91.5 372t254.5 268.5t366 96.5q197 0 365 -71.5t168 -159.5v-80q0 -12 5 -36.5t5 -45.5q0 -20 -9.5 -34.5t-25.5 -14.5q-17 0 -32 13.5t-44 74.5q-55 114 -115 165q-105 89 -292 89q-237 0 -379.5 -173t-142.5 -454q0 -320 154 -493.5t397 -173.5 q126 0 234 50.5t108 147.5v135q0 49 -92 49q-16 0 -49.5 -2t-47.5 -2q-38 0 -59 15t-21 39q0 43 58 43h376q35 0 48.5 -6.5t13.5 -28.5t-24.5 -46.5t-24.5 -68.5v-82q0 -33 19.5 -52t19.5 -34q0 -41 -87.5 -104t-220.5 -107.5t-256 -44.5q-312 0 -536.5 206.5t-224.5 549.5z " />
<glyph unicode="H" horiz-adv-x="1397" d="M31 1399q0 12 15 23.5t36 11.5q39 0 95 -8.5t89 -8.5q34 0 83.5 7.5t94.5 7.5q48 0 48 -39q0 -25 -12.5 -33.5t-46.5 -16t-56.5 -30t-22.5 -90.5v-1049q0 -31 16.5 -56t67.5 -41.5t61.5 -28.5t10.5 -28q0 -14 -21 -27t-53 -13q-25 0 -82.5 9t-77.5 9q-30 0 -82.5 -8 t-74.5 -8q-72 0 -72 43q0 25 12 33t45 14t54.5 26t21.5 88v1053q0 34 -15 61.5t-64.5 41t-59.5 26.5t-10 31zM405 902q0 24 20.5 35t74.5 11h473q39 0 50 12.5t11 47.5q0 221 -5.5 267.5t-83.5 67.5q-41 12 -50.5 25t-9.5 31q0 12 15 23.5t36 11.5q39 0 95 -8.5t89 -8.5 q34 0 83.5 7.5t94.5 7.5q48 0 48 -39q0 -25 -12 -33t-46 -14t-57 -28.5t-23 -94.5v-1049q0 -34 17 -61t68 -41t61 -25t10 -27q0 -14 -21 -27t-53 -13q-25 0 -82.5 9t-77.5 9q-30 0 -82.5 -8t-74.5 -8q-72 0 -72 43q0 25 12.5 33t46.5 14t56 26t22 88v600q0 32 -19.5 50 t-88.5 18h-438q-56 0 -71.5 12t-15.5 36z" />
<glyph unicode="I" horiz-adv-x="532" d="M31 31q0 13 8 23t56.5 18.5t64.5 43t16 77.5v1038q0 58 -22.5 79.5t-58 32t-49 20.5t-13.5 36q0 15 13.5 25t31.5 10q31 0 94 -10.5t96 -10.5q30 0 88.5 9.5t87.5 9.5q50 0 50 -41q0 -25 -13 -34t-53 -16.5t-58 -42t-18 -100.5v-1038q0 -29 13.5 -51.5t60 -34.5t56.5 -26 t10 -32q0 -36 -62 -36q-28 0 -82 10t-82 10q-26 0 -79.5 -8t-80.5 -8q-75 0 -75 47z" />
<glyph unicode="J" horiz-adv-x="821" d="M6 141q0 78 62 78q37 0 60.5 -27t23.5 -47q0 -29 41 -62.5t90 -33.5q63 0 124 55.5t60 149.5l-16 1003q-2 37 -21.5 61t-75.5 29.5t-73 15t-17 42.5q0 35 55 35q12 0 80 -11.5t131 -11.5q35 0 98.5 10.5t108.5 10.5q66 0 66 -45q0 -16 -11 -25.5t-56 -12.5 q-55 -3 -77 -17q-38 -23 -38 -85v-6l22 -981q0 -117 -105 -214t-227 -97q-151 0 -228 64.5t-77 121.5z" />
<glyph unicode="K" horiz-adv-x="1309" d="M14 35q0 17 10 28.5t65 16t72 36t17 72.5v1047q0 39 -16.5 69t-70 36t-63.5 17.5t-10 28.5t22 35.5t60 18.5t93.5 -11.5t93.5 -11.5q24 0 61.5 12.5t85.5 12.5q39 0 63.5 -14.5t24.5 -34.5q0 -15 -12 -26.5t-56 -23t-61.5 -20t-28 -32.5t-10.5 -72v-541l3 -20l14 14 l444 583q33 41 33 60q0 12 -10.5 19.5t-53.5 11.5t-56 15.5t-13 29.5q0 23 21.5 37t51.5 14q27 0 69.5 -7.5t55.5 -7.5q18 0 65.5 8.5t72.5 8.5q27 0 44 -15t17 -38q0 -13 -8.5 -22t-65.5 -26t-88 -59l-305 -407q-18 -25 -18 -36q0 -8 8 -19l514 -692q24 -26 53.5 -38 t48.5 -12q20 0 36 -11t16 -28q0 -27 -24.5 -42t-61.5 -15q-78 0 -170.5 60.5t-167.5 160.5l-357 471q-11 14 -16 14t-14 -12l-130 -166q-8 -11 -8 -27v-329q0 -27 14.5 -47t61.5 -29t56.5 -20t9.5 -27q0 -18 -25 -32.5t-74 -14.5q-23 0 -65 10t-74 10q-44 0 -97.5 -12 t-78.5 -12q-24 0 -46 14.5t-22 38.5z" />
<glyph unicode="L" horiz-adv-x="1067" d="M-4 1417q0 12 15 23.5t36 11.5q14 0 67.5 -18.5t118.5 -18.5q81 0 153 20.5t93 20.5q23 0 40.5 -16.5t17.5 -36.5q0 -17 -10.5 -28.5t-54.5 -20.5q-56 -11 -79 -30q-39 -33 -39 -112v-1001q0 -75 23.5 -104t68.5 -29h371q37 0 64.5 17.5t39 77.5t26.5 72.5t36 12.5 q15 0 31 -16t16 -43q0 -87 12 -174q0 -49 -44 -49h-8q-34 4 -105 4h-779q-92 0 -92 47q0 31 16.5 39.5t50.5 9.5q65 4 81 34.5t16 69.5v1049q0 37 -18 66.5t-78.5 48.5t-73 35.5t-12.5 37.5z" />
<glyph unicode="M" horiz-adv-x="1565" d="M-4 1401q0 15 19.5 27t39.5 12q21 0 52 -8.5t50 -8.5t48 8.5t47 8.5q24 0 38.5 -19t40.5 -76l227 -458l190 -381q12 -24 18 -24q7 0 18 22q309 580 433 824q37 72 63.5 91t56.5 19q14 0 47 -4t50 -4q16 0 40.5 5t30.5 5q54 0 54 -43q0 -35 -52 -35q-43 0 -75 -30.5 t-39 -44t-7 -64.5v-1026q0 -41 19 -72.5t76.5 -43t68.5 -23.5t11 -29q0 -18 -15.5 -30.5t-44.5 -12.5q-22 0 -85 10t-105 10q-28 0 -100 -10t-103 -10q-64 0 -64 47q0 23 14 30.5t44 10.5q73 8 91.5 27.5t18.5 91.5v858q0 55 -5 55q-7 0 -33 -53l-155 -303 q-97 -190 -176.5 -337.5t-85 -158.5t-12.5 -18t-22 -7q-25 0 -45 39l-373 740q-26 52 -32 52q-5 0 -5 -52v-848q0 -37 32 -61.5t62 -24.5q84 0 84 -47q0 -43 -73 -43q-12 0 -67.5 11t-78.5 11q-30 0 -82.5 -12t-74.5 -12q-32 0 -52 16.5t-20 34.5t23.5 31.5t54.5 13.5 q98 0 98 115v1046q0 41 -26 70.5t-74 36t-63 20.5t-15 35z" />
<glyph unicode="N" horiz-adv-x="1370" d="M4 1391q0 41 51 41q9 0 45 -5.5t60 -5.5q18 0 42.5 5.5t41.5 5.5q29 0 71.5 -47t290.5 -379l441 -590q11 -15 21 -15q22 0 22 54v798q0 41 -28.5 65.5t-72.5 24.5q-34 0 -55 12t-21 31q0 23 19.5 36.5t42.5 13.5q12 0 81.5 -12.5t92.5 -12.5q30 0 79.5 9.5t71.5 9.5 q60 0 60 -48q0 -39 -60 -39q-52 0 -76.5 -16t-30 -38.5t-5.5 -57.5v-998q0 -100 21.5 -154t21.5 -87q0 -31 -27 -31q-19 0 -29 8t-30 35l-832 1102q-13 17 -24 17q-15 0 -15 -38v-925q0 -42 35.5 -67t67.5 -25q80 0 80 -52q0 -16 -9 -26t-42 -10q-32 0 -96 9t-83 9 q-26 0 -88 -9t-78 -9q-51 0 -51 47q0 39 60 39q49 0 78.5 27.5t29.5 78.5v1067q0 49 -25 78t-63 29q-51 0 -68.5 11t-17.5 34z" />
<glyph unicode="O" horiz-adv-x="1554" d="M25 743q0 179 94 354t265.5 275.5t395.5 100.5q350 0 550 -240t200 -539q0 -221 -108.5 -404t-283 -258t-370.5 -75q-319 0 -531 222t-212 564zM233 743q0 -690 541 -690q188 0 313.5 83t179.5 204.5t54 323.5q0 349 -146 533.5t-395 184.5q-257 0 -402 -189.5 t-145 -449.5z" />
<glyph unicode="P" horiz-adv-x="997" d="M2 1395q0 43 68 43q39 0 87 -8.5t81 -8.5q28 0 97 11.5t165 11.5q236 0 362.5 -108.5t126.5 -258.5q0 -118 -58.5 -181t-162 -112t-270.5 -49q-97 0 -97 58q0 15 13.5 24.5t36.5 9.5q5 0 33 -2t51 -2q108 0 178.5 67t70.5 187q0 113 -87 199t-234 86q-53 0 -75.5 -14.5 t-28 -42t-5.5 -88.5v-1063q0 -78 101 -78q49 0 65.5 -13t16.5 -38q0 -41 -82 -41q-26 0 -97.5 19.5t-91.5 19.5q-30 0 -88.5 -19.5t-81.5 -19.5q-86 0 -86 51q0 14 9.5 23.5t65 14t74.5 37t19 76.5v1084q0 80 -108 80q-68 0 -68 45z" />
<glyph unicode="Q" horiz-adv-x="1565" d="M25 743q0 136 78 317.5t249 295.5t428 114q326 0 506 -172q254 -245 254 -589q0 -212 -103 -402.5t-266 -261.5q-29 -14 -29 -30q0 -14 46.5 -111t104.5 -145t130 -48q30 0 76 22.5t64 22.5q8 0 15 -11t7 -21q0 -50 -74 -88.5t-155 -38.5q-70 0 -148.5 46t-127 126 t-93.5 198q-5 13 -15 13h-7q-75 -15 -168 -15q-228 0 -399 94.5t-272 276.5t-101 407zM242 737q0 -167 29.5 -284.5t83.5 -190.5t117.5 -109t73.5 -36l4 6l-1 10v27q0 94 61.5 156.5t159.5 62.5q100 0 182.5 -59t137.5 -164q5 -11 12 -11q17 0 78.5 62t104 184.5t42.5 288.5 q0 326 -155 511t-392 185q-228 0 -383 -180t-155 -459zM629 165q0 -41 9.5 -58.5t49 -26t133.5 -8.5q58 0 99 7q16 2 16 13q0 27 -61.5 109t-143.5 82q-102 0 -102 -118z" />
<glyph unicode="R" horiz-adv-x="1174" d="M2 1399q0 45 82 45q39 0 86 -7t80 -7q22 0 122 14t154 14q206 0 334.5 -106t128.5 -275q0 -108 -63.5 -178.5t-218.5 -130.5q-29 -11 -29 -23q0 -8 12 -26q55 -78 207 -337.5t162 -271t53 -26t54.5 -29t11.5 -32.5q0 -23 -30 -39.5t-48 -16.5q-46 0 -112 35.5t-87 60.5 q-39 50 -255 408q-101 167 -116 188q-54 78 -106 100q-13 5 -17 10.5t-4 23.5q0 43 52 43q5 0 28 -3.5t45 -3.5q110 0 184 71t74 198q0 90 -83 179t-230 89q-55 0 -80.5 -12.5t-32 -31t-6.5 -48.5v-1120q0 -33 28.5 -53.5t74.5 -20.5q50 0 67 -13t17 -38q0 -24 -21.5 -40 t-64.5 -16q-39 0 -95.5 22.5t-89.5 22.5q-28 0 -84 -21.5t-88 -21.5q-92 0 -92 58q0 22 15 32.5t75 10.5q36 0 59 16t23 39v1139q0 76 -104 82q-72 4 -72 47z" />
<glyph unicode="S" horiz-adv-x="936" d="M43 354q0 37 44 37q49 0 55 -74q12 -122 86 -190t205 -68q132 0 218.5 74.5t86.5 194.5q0 72 -58.5 153t-306.5 257q-102 72 -160.5 122.5t-98 119.5t-39.5 157q0 143 129.5 237t298.5 94q96 0 205.5 -47.5t109.5 -111.5q0 -9 -1 -28.5t-1 -57.5q0 -10 4 -39 q0 -66 -45 -66q-16 0 -31.5 15.5t-15.5 33.5q0 98 -66.5 150.5t-162.5 52.5q-109 0 -187 -60t-78 -132q0 -50 34.5 -101.5t176.5 -152.5q273 -193 363 -311.5t90 -252.5q0 -190 -147 -295.5t-322 -105.5q-124 0 -254.5 51.5t-130.5 108.5q0 14 3 52.5t3 96.5q0 20 -3.5 48.5 t-3.5 37.5z" />
<glyph unicode="T" horiz-adv-x="928" d="M0 1212q0 109 19 170.5t55 61.5h778q34 0 55 -71t21 -132t-39 -61q-14 0 -25.5 9t-32 63.5t-61 74t-88.5 19.5q-68 0 -98.5 -31.5t-30.5 -102.5v-1062q0 -24 14.5 -42.5t60.5 -32t56 -23.5t10 -23q0 -52 -55 -52q-30 0 -88 9.5t-86 9.5q-26 0 -76 -8t-76 -8q-31 0 -53 14 t-22 39q0 12 8 21.5t53 23.5t60.5 41.5t15.5 62.5v1071q0 97 -131 97q-85 0 -121 -38q-22 -22 -32 -67.5t-20.5 -54t-25.5 -8.5q-16 0 -30.5 8.5t-14.5 21.5z" />
<glyph unicode="U" horiz-adv-x="1366" d="M4 1391q0 20 18 32.5t41 12.5q29 0 83 -9.5t81 -9.5q32 0 93.5 10.5t93.5 10.5q34 0 56 -12t22 -35q0 -19 -10.5 -31.5t-54.5 -16t-67.5 -20.5t-23.5 -74v-911q0 -135 95 -214t243 -79q93 0 183 30.5t154.5 92t72.5 163.5q6 26 6 120v804q0 93 -113 93q-57 0 -57 47 q0 45 73 45q23 0 66 -8.5t65 -8.5q30 0 86 9.5t84 9.5q21 0 39.5 -12t18.5 -29q0 -29 -16 -38t-65.5 -15.5t-66 -39t-16.5 -73.5v-815q0 -151 -33.5 -228.5t-109.5 -135.5t-176 -85.5t-218 -27.5q-212 0 -351.5 104t-139.5 285v938q0 29 -15.5 48.5t-66.5 25.5t-62.5 17.5 t-11.5 29.5z" />
<glyph unicode="V" horiz-adv-x="1366" d="M-20 1399q0 43 65 43q45 0 110 -13.5t87 -13.5q21 0 99.5 15.5t96.5 15.5q109 0 109 -55q0 -31 -19 -44.5t-63 -13.5q-94 0 -94 -57q0 -21 12 -51l334 -875l13 -23l11 21l312 889q12 35 12 54q0 45 -78 50q-42 4 -59 14t-17 42q0 19 16.5 33t49.5 14q28 0 78.5 -10.5 t103.5 -10.5q37 0 79.5 10.5t74.5 10.5q35 0 54 -15.5t19 -39.5q0 -33 -25.5 -43.5t-64.5 -10.5q-48 0 -85.5 -31.5t-67.5 -117.5l-404 -1155q-2 -6 -7.5 -28t-15.5 -30t-24 -8q-12 0 -22.5 10t-18.5 33.5t-10 28.5l-448 1194q-39 102 -119 102q-46 0 -70 18t-24 48z" />
<glyph unicode="W" horiz-adv-x="1970" d="M-20 1389q0 51 71 51q24 0 66.5 -8.5t97.5 -8.5q42 0 91 9.5t65 9.5q36 0 60 -15t24 -41q0 -48 -70 -51q-54 -2 -54 -36q0 -16 16 -60q74 -197 288 -862q8 -23 13 -23t11 21l302 1011q9 33 16 43.5t22 10.5q23 0 37 -43l340 -1030l12 -22q6 0 13 24l264 855q11 35 11 57 q0 54 -64 54q-29 0 -49.5 15t-20.5 36q0 25 22 39.5t54 14.5q15 0 55 -7.5t82 -7.5q27 0 83.5 7.5t84.5 7.5q68 0 68 -49q0 -26 -21.5 -39t-42.5 -13q-46 0 -89.5 -34.5t-61.5 -92.5q-215 -725 -373 -1218l-12 -42q-9 -32 -35 -32q-14 0 -26 12t-27 58l-320 966 q-11 33 -16 33t-15 -33l-284 -966q-14 -47 -25 -57.5t-25 -10.5q-21 0 -28.5 13.5t-22.5 58.5l-405 1225q-19 55 -43.5 82.5t-68.5 34.5t-57 16.5t-13 36.5z" />
<glyph unicode="X" horiz-adv-x="1296" d="M-20 18q0 43 51 43q44 0 89 21.5t66 54.5l351 563q4 8 4 15t-6 18l-295 492q-28 45 -53.5 71.5t-47.5 34t-69 12t-61.5 15.5t-14.5 28q0 19 14.5 33.5t42.5 14.5q26 0 94 -8.5t95 -8.5q32 0 108 9.5t94 9.5q70 0 70 -45q0 -21 -11 -34t-49 -14t-46.5 -9.5t-8.5 -22.5 t248 -406l11 -12l12 12l148 238q104 163 104 174q0 12 -9.5 19t-51 8t-54 13t-12.5 32q0 49 71 49q24 0 77 -8.5t63 -8.5q30 0 86 9.5t69 9.5q27 0 43.5 -15.5t16.5 -29.5q0 -19 -16 -31t-64.5 -18.5t-64 -12t-34 -24t-59.5 -84.5q-156 -258 -258 -420q-5 -8 -5 -17 q0 -7 3 -12l92 -152q202 -333 267 -446q29 -50 51.5 -69t51.5 -31t83 -12q51 0 51 -46q0 -21 -16.5 -30.5t-57.5 -9.5q-42 0 -102.5 7t-77.5 7q-32 0 -102.5 -10.5t-86.5 -10.5q-71 0 -71 52q0 17 11 28.5t48.5 15.5t46.5 11.5t9 19.5t-19.5 41t-49.5 81t-96 159l-139 223 l-7 8l-9 -8q-66 -99 -143 -226t-120.5 -193.5t-43.5 -84.5q0 -12 9.5 -20.5t48.5 -14t50 -16t11 -26.5q0 -30 -17.5 -40t-46.5 -10q-32 0 -87 8.5t-83 8.5q-25 0 -73 -8.5t-66 -8.5q-57 0 -57 45z" />
<glyph unicode="Y" horiz-adv-x="1331" d="M-20 1391q0 47 67 47q34 0 100.5 -9.5t100.5 -9.5q28 0 85.5 9.5t86.5 9.5q98 0 98 -47q0 -19 -12.5 -30.5t-56 -16.5t-54 -13.5t-10.5 -21.5q0 -34 161 -249q22 -30 102 -145.5t85 -115.5q9 4 19 20l25 41q257 410 257 457q0 14 -10 22t-53.5 10t-56.5 14t-13 32 q0 22 25 34.5t55 12.5q26 0 79 -9.5t81 -9.5q25 0 72.5 8.5t70.5 8.5q25 0 46.5 -12t21.5 -31q0 -49 -74 -49q-51 0 -91 -25t-85 -102l-52 -86q-280 -460 -280 -498v-428q0 -99 13.5 -121t55 -32t50 -20t8.5 -24q0 -20 -16 -33.5t-37 -13.5q-26 0 -74.5 9.5t-75.5 9.5 q-25 0 -71.5 -9.5t-69.5 -9.5q-32 0 -56 12t-24 33q0 17 9 29.5t45 19t49.5 20.5t15.5 29t2 74v480q0 21 -12 38l-363 517q-48 67 -81 95.5t-89 28.5q-69 0 -69 50z" />
<glyph unicode="Z" horiz-adv-x="1085" d="M31 20q0 19 14.5 44.5t17.5 31.5l599 1157q2 5 13 25t11 37q0 39 -76 39h-364q-34 0 -61 -15.5t-42 -63.5t-26 -57.5t-27 -9.5q-22 0 -34.5 22.5t-12.5 53.5q0 96 23.5 133t68.5 37h766q43 0 43 -41q0 -22 -31 -82l-600 -1167q-16 -32 -16 -47q0 -22 19.5 -27.5 t60.5 -5.5h487q25 0 39.5 15.5t16.5 71t14 69.5t33 14q43 0 66.5 -62t23.5 -137q0 -39 -20 -59t-75 -20q-11 0 -33.5 0.5t-33.5 0.5h-793q-45 0 -58 11.5t-13 31.5z" />
<glyph unicode="[" horiz-adv-x="614" d="M102 -276v1914h330q76 0 76 -53q0 -15 -14 -29t-31 -14q-39 0 -69.5 9.5t-49.5 9.5h-76v-1760h76q19 0 49.5 9.5t69.5 9.5q17 0 31 -14.5t14 -28.5q0 -53 -76 -53h-330z" />
<glyph unicode="\" horiz-adv-x="1167" d="M18 1578q0 13 48 13q35 0 45 -3t16 -13l1086 -1768q10 -16 10 -25q0 -13 -41 -13q-33 0 -46.5 6t-29.5 32q-598 988 -751 1230l-312 491q-25 39 -25 50z" />
<glyph unicode="]" horiz-adv-x="614" d="M106 -223q0 14 14 28.5t32 14.5q39 0 69 -9.5t49 -9.5h76v1760h-76q-19 0 -49 -9.5t-69 -9.5q-18 0 -32 14t-14 29q0 53 76 53h330v-1914h-330q-76 0 -76 53z" />
<glyph unicode="^" horiz-adv-x="961" d="M37 668l432 716h29l426 -716h-93l-350 585l-350 -585h-94z" />
<glyph unicode="_" d="M-16 -358h1058v-84h-1058v84z" />
<glyph unicode="`" d="M344 1176q0 27 29 43t78 16q66 0 147.5 -121.5t81.5 -165.5q0 -20 -23 -20q-26 0 -93 73.5t-95 92t-49 18.5q-76 0 -76 64z" />
<glyph unicode="a" horiz-adv-x="942" d="M29 248q0 104 99.5 184t256.5 80q53 0 116.5 -29.5t63.5 -60.5q0 -15 -13 -24t-32 -9q-13 0 -51 18.5t-78 18.5q-82 0 -136 -48.5t-54 -129.5q0 -94 62 -144.5t143 -50.5q73 0 134.5 48t61.5 128v271q0 61 -40.5 99t-108.5 38q-87 0 -169 -55q-28 -19 -38 -19 q-24 0 -41 12.5t-17 32.5q0 49 89.5 83t195.5 34q131 0 211 -66t80 -157v-336q0 -72 96 -100q24 -7 35.5 -16t11.5 -34q0 -13 -15.5 -22.5t-33.5 -9.5q-19 0 -51.5 9t-52.5 9q-23 0 -58 -9t-47 -9q-14 0 -27.5 10t-13.5 20q0 16 -10 16q-7 0 -18 -7q-113 -70 -244 -70 q-62 0 -138.5 32t-122.5 98.5t-46 164.5z" />
<glyph unicode="b" horiz-adv-x="999" d="M-4 23q0 13 10 22t69.5 21t81 46t21.5 81v1028q0 83 -39 116q-22 19 -70.5 26t-58.5 18.5t-10 27.5t19.5 26.5t37.5 10.5q20 0 59 -8t58 -8q18 0 51 6t49 6q30 0 44 -16.5t14 -61.5v-1169q0 -62 76.5 -110t144.5 -48q78 0 165 66t87 219q0 119 -69 203.5t-179 84.5 q-42 0 -86.5 -23.5t-58.5 -23.5q-12 0 -24.5 10.5t-12.5 20.5q0 45 77 79t136 34q164 0 273.5 -117.5t109.5 -286.5q0 -155 -114.5 -255.5t-276.5 -100.5q-82 0 -208 65l-36 17q-6 -6 -12 -20.5t-14.5 -21.5t-30.5 -7q-17 0 -53.5 9t-57.5 9t-58.5 -9t-56.5 -9 q-23 0 -40 11.5t-17 31.5z" />
<glyph unicode="c" horiz-adv-x="829" d="M29 348q0 149 123 262t294 113q92 0 209 -38t117 -69q0 -56 6 -91t6 -40q0 -45 -41 -45q-31 0 -48.5 60t-73.5 95.5t-138 35.5q-103 0 -191.5 -76t-88.5 -215q0 -128 99 -209.5t206 -81.5q39 0 81 10t93.5 41t73.5 31q28 0 28 -47q0 -30 -101 -77.5t-212 -47.5 q-182 0 -312 110.5t-130 278.5z" />
<glyph unicode="d" horiz-adv-x="1022" d="M29 317q0 167 120 275t279 108q67 0 138 -33.5t71 -74.5q0 -13 -9.5 -22t-21.5 -9q-15 0 -69.5 24.5t-100.5 24.5q-101 0 -171 -84t-70 -200q0 -99 63.5 -196t173.5 -97q59 0 135.5 32.5t97.5 88t21 168.5v860q0 83 -28 115t-81 48t-65 24t-12 26q0 13 15 22.5t42 9.5 q11 0 47 -5t58 -5q46 0 79.5 4t40.5 4q36 0 48 -20.5t12 -56.5q0 -66 1 -106t1 -71v-956q0 -49 20 -89.5t72 -58.5t60 -26t8 -18q0 -43 -46 -43q-15 0 -42 8t-70 8q-29 0 -63.5 -8t-43.5 -8q-19 0 -32 14t-14.5 29t-6.5 15l-16 -7q-152 -86 -256 -86q-148 0 -266.5 113 t-118.5 259z" />
<glyph unicode="e" horiz-adv-x="895" d="M29 356q0 149 129.5 255t290.5 106q209 0 313 -107t104 -256q0 -32 -16 -39.5t-59 -7.5h-459q-56 0 -56 41q0 39 58 39h319q23 0 31 8t8 29q0 77 -59.5 144t-179.5 67q-83 0 -171.5 -79t-88.5 -224q0 -106 93.5 -190.5t209.5 -84.5q88 0 190 55q39 21 51 21 q18 0 28.5 -10t10.5 -25q0 -36 -110.5 -88.5t-227.5 -52.5q-173 0 -291 118t-118 281z" />
<glyph unicode="f" horiz-adv-x="557" d="M20 629q0 39 70 39q25 0 48 -3t28 -3q12 0 12 12v293q0 112 23 183.5t77.5 133t125.5 106t92 44.5q14 0 14 -39q0 -5 -19 -20q-89 -67 -122 -164t-33 -214v-325q0 -12 16 -12q7 0 34 3t52 3q58 0 58 -39q0 -19 -19 -30t-45 -11q-96 0 -96 -78v-348q0 -50 9 -61.5 t23.5 -25t62 -19.5t58.5 -16t11 -26q0 -39 -58 -39q-34 0 -85.5 10.5t-102.5 10.5q-32 0 -90.5 -10.5t-73.5 -10.5q-63 0 -63 43q0 14 9 23t52 14.5t63 19t23.5 34t3.5 86.5v321q0 72 -89 72q-69 0 -69 43z" />
<glyph unicode="g" horiz-adv-x="983" d="M10 -43q0 96 63 180t165 127l6 7l-8 10q-50 31 -78.5 81.5t-28.5 110.5q0 97 84.5 160.5t214.5 79.5q16 2 23 16q21 48 70.5 105.5t89.5 69t137 11.5q57 0 57 -59q0 -35 -28 -56.5t-72 -21.5q-10 0 -25 3t-25 3q-49 0 -82 -27t-33 -36q0 -10 13 -10q120 -15 191 -83 t71 -171q0 -109 -98 -178l-7 -9l3 -4q99 -48 160 -136t61 -189q0 -154 -138 -252.5t-325 -98.5q-192 0 -326.5 101.5t-134.5 265.5zM168 -59q0 -120 94 -193.5t207 -73.5q130 0 218.5 75t88.5 196q0 122 -86.5 194t-218.5 72q-144 0 -223.5 -72.5t-79.5 -197.5zM285 459 q0 -71 59 -120.5t135 -49.5q78 0 132.5 53.5t54.5 128.5q0 41 -26 80.5t-67.5 59t-55.5 19.5q-7 0 -9 -9q-12 -46 -51 -46q-35 0 -35 39q0 11 -9 11q-14 0 -47.5 -17.5t-57 -58t-23.5 -90.5z" />
<glyph unicode="h" horiz-adv-x="1008" d="M20 16q0 17 10 27.5t62.5 16.5t69 36t16.5 70v1079q0 25 -17 45t-67 37t-59.5 26t-9.5 19q0 35 59 35q17 0 52 -4t52 -4q18 0 50.5 9t48.5 9q22 0 35.5 -13t13.5 -67v-1202q0 -28 15 -47.5t65.5 -26.5t61.5 -19t11 -30q0 -32 -57 -32q-30 0 -89 6t-89 6q-28 0 -82 -6 t-82 -6q-70 0 -70 36zM367 508q0 51 104.5 113.5t167.5 62.5q61 0 117 -36t75 -89q10 -24 10 -165q0 -60 -1.5 -144.5t-1.5 -99.5q0 -36 15.5 -62.5t65 -33t59 -17.5t9.5 -27q0 -23 -14.5 -28t-57.5 -5q-26 0 -79 4.5t-78 4.5q-28 0 -83 -5.5t-83 -5.5q-64 0 -64 43 q0 15 10 24.5t60.5 15t67 30.5t16.5 59q0 52 -2 154t-2 154q0 47 -27.5 72.5t-77.5 25.5t-114 -48q-40 -30 -60 -30q-10 0 -21 11t-11 22z" />
<glyph unicode="i" horiz-adv-x="522" d="M57 643q0 18 14.5 29.5t34.5 11.5q17 0 48.5 -7t46.5 -7q17 0 52 5t52 5q37 0 37 -62q0 -10 -1 -26.5t-1 -22.5v-417q0 -49 18 -64t48 -19.5t42.5 -12.5t12.5 -33q0 -33 -58 -33q-25 0 -75 6t-74 6t-70 -8t-69 -8t-39.5 13t-16.5 34q0 13 9 22.5t46 15.5t51.5 24t14.5 87 v338q0 43 -18 57t-53 21t-43.5 18t-8.5 27zM152 918q0 42 32.5 73t75.5 31q46 0 79.5 -33.5t33.5 -79.5q0 -41 -33 -69.5t-78 -28.5t-77.5 31.5t-32.5 75.5z" />
<glyph unicode="j" horiz-adv-x="479" d="M-84 -293q0 22 17.5 42t37.5 20q23 0 32.5 -10t18.5 -30.5t20.5 -31t39.5 -10.5q43 0 68.5 32t25.5 80v721q0 33 -15.5 56.5t-64 30.5t-58 17t-9.5 25q0 37 61 37q19 0 55.5 -6t55.5 -6q15 0 44.5 6t45.5 6q41 0 41 -35v-786q0 -109 -72.5 -184.5t-179.5 -75.5 q-57 0 -110.5 28.5t-53.5 73.5zM137 918q0 45 32 74.5t77 29.5q42 0 70 -29.5t28 -74.5q0 -47 -28 -75t-76 -28q-42 0 -72.5 30.5t-30.5 72.5z" />
<glyph unicode="k" horiz-adv-x="1014" d="M27 18q0 18 10 29.5t60.5 17t65.5 30.5t15 59v1089q0 28 -14.5 48t-64.5 32t-61 24t-11 29q0 15 17 25t34 10t51.5 -9t54.5 -9q22 0 55 7t44 7q20 0 30 -10q12 -12 18.5 -53.5t6.5 -172.5v-788q0 -25 18 -25q12 0 81 71l132 136q11 10 11 17q0 6 -24 15.5t-24 29.5 q0 21 9.5 31t40.5 10q20 0 60.5 -4.5t62.5 -4.5q27 0 82.5 6.5t82.5 6.5q29 0 50.5 -12t21.5 -33q0 -39 -74 -39q-109 0 -150 -18t-93 -70t-58 -59.5t-6 -20.5q0 -25 23 -49l235 -252q22 -25 55 -25q19 0 45 30t42 30q15 0 26.5 -14.5t11.5 -30.5q0 -51 -55 -100.5 t-106 -49.5q-46 0 -108.5 45t-184.5 189q-88 104 -107 104q-7 0 -27 -19.5t-43 -40.5t-25.5 -33t-2.5 -71q0 -27 13.5 -46t60 -25.5t57 -19t10.5 -30.5q0 -15 -9 -23.5t-40 -8.5q-30 0 -89 7t-89 7q-28 0 -82 -7t-82 -7q-63 0 -63 38z" />
<glyph unicode="l" horiz-adv-x="551" d="M25 14q0 16 9.5 27t60 19t66 33t15.5 59v1079q0 35 -16 61.5t-66 38.5t-59.5 24t-9.5 27t16.5 24t34.5 9q16 0 47.5 -6t46.5 -6q17 0 51 6t51 6q32 0 47 -17t15 -61v-1202q0 -27 14 -46t62 -27t58.5 -20t10.5 -30q0 -32 -49 -32q-30 0 -89 7t-89 7q-28 0 -82 -7t-82 -7 q-40 0 -51.5 9t-11.5 25z" />
<glyph unicode="m" horiz-adv-x="1417" d="M59 633q0 43 43 43q12 0 46.5 -7t52.5 -7q24 0 49.5 6t34.5 6q27 0 36 -13.5t13 -109.5t4 -223l-2 -174q0 -46 5.5 -57.5t24 -22.5t43.5 -14t36.5 -9.5t11.5 -27.5q0 -35 -51 -35q-37 0 -75 7t-75 7q-30 0 -73.5 -7t-65.5 -7q-56 0 -56 32q0 24 10.5 31.5t38.5 11 t45.5 16t22 32.5t4.5 82v327q0 36 -21.5 56t-41.5 20q-60 0 -60 37zM373 506q0 51 93.5 118.5t168.5 67.5q64 0 112 -45.5t48 -107.5l-2 -404q0 -31 21 -51.5t50 -20.5q51 0 51 -40q0 -35 -53 -35q-6 0 -59.5 6t-89.5 6q-60 0 -101 -7t-53 -7q-18 0 -31.5 11.5t-13.5 29.5 q0 28 35 28q32 0 60 20.5t28 61.5v385q0 22 -19.5 37.5t-42.5 15.5q-50 0 -118 -57q-40 -35 -58 -35q-26 0 -26 23zM825 508q0 45 88 113.5t179 68.5q106 0 145 -89q14 -27 14 -296l-2 -170q0 -32 17 -48t52 -23t42.5 -16.5t7.5 -22.5q0 -37 -49 -37q-7 0 -60 6t-90 6 t-80.5 -7t-72.5 -7q-18 0 -31.5 11.5t-13.5 29.5q0 31 46.5 35t61.5 24.5t15 50.5v385q0 22 -19.5 37.5t-42.5 15.5q-40 0 -98.5 -46t-77.5 -46q-12 0 -21.5 7.5t-9.5 17.5z" />
<glyph unicode="n" horiz-adv-x="961" d="M55 29q0 16 9 26t39 12q34 2 42 10q23 24 29 42t6 74v327q0 37 -14.5 55.5t-60.5 26.5t-46 41q0 14 16 27.5t42 13.5q11 0 38.5 -7t45.5 -7q11 0 50.5 6t49.5 6q20 0 28 -16.5t9 -66.5q2 -83 2 -177l-6 -285q0 -31 5 -38t23.5 -18t47.5 -17t37 -16.5t8 -24.5 q0 -33 -52 -33q-36 0 -74 6t-75 6q-30 0 -77.5 -5t-70.5 -5q-51 0 -51 37zM369 514q0 35 92 107.5t180 72.5q52 0 90 -26.5t50.5 -66.5t12.5 -113l-1 -64v-289q0 -43 14.5 -56.5t52 -22t37.5 -31.5q0 -31 -37 -31q-7 0 -60 3t-89 3q-60 0 -101 -7t-53 -7q-18 0 -33.5 12 t-15.5 29q0 13 13 24.5t30 11.5q32 0 57 18.5t25 55.5q0 241 3 298.5t3 64.5q0 78 -72 78q-31 0 -88.5 -47.5t-81.5 -47.5q-8 0 -18 10t-10 21z" />
<glyph unicode="o" horiz-adv-x="897" d="M29 338q0 152 109.5 266.5t316.5 114.5q166 0 289.5 -114t123.5 -263q0 -167 -118 -272t-316 -105q-156 0 -280.5 107t-124.5 266zM205 350q0 -137 71 -217t181 -80q115 0 183.5 83t68.5 210q0 125 -73.5 205t-186.5 80q-116 0 -180 -78.5t-64 -202.5z" />
<glyph unicode="p" horiz-adv-x="1016" d="M8 635q0 39 62 39q12 0 59 -9.5t59 -9.5q13 0 54 11.5t51 11.5q27 0 34 -12t7 -37v-353q0 -108 68 -171.5t159 -63.5q44 0 112.5 38.5t107 111.5t38.5 165q0 109 -66.5 194t-154.5 85q-53 0 -97.5 -19.5t-58.5 -19.5t-25 9t-11 22q0 29 73.5 59.5t126.5 30.5 q162 0 271.5 -103t109.5 -280q0 -137 -113 -252t-272 -115q-61 0 -115.5 16t-142.5 74q-8 0 -8 -51q0 -127 -17 -193.5t-58 -115.5t-80.5 -69.5t-76.5 -20.5q-55 0 -55 26q0 11 25 24q60 33 82 85.5t22 97.5q6 57 6 316q0 125 -6 365q-2 25 -20.5 43.5t-77.5 28.5 q-45 7 -58.5 17t-13.5 25z" />
<glyph unicode="q" horiz-adv-x="1010" d="M29 334q0 174 118.5 279.5t249.5 105.5q84 0 148.5 -30t64.5 -62q0 -27 -35 -27q-13 0 -53.5 13.5t-93.5 13.5q-103 0 -172.5 -92t-69.5 -209q0 -129 124 -244q49 -41 130 -41q69 0 125.5 34t82.5 78t26 123v353q0 49 49 49q10 0 45.5 -6t48.5 -6q12 0 60.5 9t60.5 9 q57 0 57 -36q0 -23 -8.5 -30t-66.5 -16t-79 -32q-20 -23 -20 -76v-5q8 -391 8 -528q0 -75 -12 -139.5t-52 -118.5t-80.5 -76t-111.5 -22q-16 0 -27 10t-11 23q0 12 28.5 20.5t51 26.5t40 60t19.5 79.5t2 181.5q0 52 -12 52q-6 0 -44 -26t-85.5 -46.5t-120.5 -20.5 q-165 0 -275 111.5t-110 257.5z" />
<glyph unicode="r" horiz-adv-x="643" d="M53 10q0 12 9.5 21.5t53.5 24.5t54 30t10 94v305q0 29 -13.5 52t-54 35.5t-48 21.5t-7.5 20q0 33 47 32q13 0 43.5 -4.5t42.5 -4.5q10 0 32.5 4t53.5 4q54 0 54 -115v-49l4 -28q5 0 47 95t83 135t85 40q34 0 51.5 -12t17.5 -27q0 -26 -12 -41.5t-42 -38.5 q-127 -97 -183.5 -236t-56.5 -231q0 -43 11.5 -58.5t55.5 -26t57 -22.5t13 -28q0 -29 -35 -29q-28 0 -77.5 9.5t-106.5 9.5q-38 0 -77 -9.5t-50 -9.5q-28 0 -45 10.5t-17 26.5z" />
<glyph unicode="s" horiz-adv-x="621" d="M39 193q0 49 45 49q13 0 24 -11t35 -73.5t58.5 -85.5t77.5 -23q53 0 90 35t37 90q0 36 -25 67.5t-136.5 84.5t-145 103.5t-33.5 109.5q0 78 72.5 131t168.5 53q80 0 156 -27.5t76 -58.5q0 -19 4 -47t4 -45q0 -21 -10.5 -37t-26.5 -16q-23 0 -32.5 11.5t-17.5 40.5t-26 46 t-48 31t-67 14t-70.5 -23.5t-33.5 -50.5q0 -23 21.5 -47t137.5 -85t156.5 -119.5t40.5 -123.5q0 -101 -84.5 -161t-218.5 -60q-74 0 -147.5 32.5t-73.5 65.5q0 27 -4 66.5t-4 63.5z" />
<glyph unicode="t" horiz-adv-x="610" d="M45 645q0 19 10.5 27t41 16.5t47 20t46 48t42 102.5t12.5 190q0 59 32 59q36 0 45 -16.5t9 -55.5v-334q0 -20 26 -20h142q43 0 43 -37q0 -43 -62 -43h-125q-14 0 -17 -4.5t-3 -22.5v-356q0 -84 8 -107.5t29 -23.5q33 0 81 36t64 36q13 0 23 -12t10 -29q0 -28 -78.5 -93 t-138.5 -65q-158 0 -158 232v385q0 19 -5 20.5t-56 1.5q-40 0 -54 11.5t-14 33.5z" />
<glyph unicode="u" horiz-adv-x="997" d="M27 625q0 16 13.5 25t33.5 9q6 0 58.5 -8t88.5 -8q13 0 38.5 7.5t31.5 7.5q33 0 33 -136v-356q0 -49 37.5 -81t89.5 -32q32 0 75.5 25.5t63.5 25.5t20 -24q0 -28 -74.5 -71.5t-168.5 -43.5q-73 0 -127.5 45t-63 100t-8.5 412q0 48 -98 70q-43 9 -43 33zM506 635 q0 37 57 37q15 0 60.5 -10.5t97.5 -10.5q14 0 35 4t26 4q27 0 27 -61q0 -461 8 -490.5t81 -47.5q38 -10 47 -18t9 -19q0 -13 -16.5 -24t-42.5 -11q-11 0 -54 7t-61 7q-19 0 -46 -7t-36 -7q-22 0 -30 12t-10.5 59t-2.5 181v268q0 72 -78 83q-47 7 -59 17.5t-12 26.5z" />
<glyph unicode="v" horiz-adv-x="920" d="M-20 645q0 41 51 41q48 0 95 -9t73 -9q31 0 85.5 9t80.5 9q36 0 51.5 -9.5t15.5 -31.5q0 -13 -10 -23t-45.5 -18t-44 -16t-8.5 -19q0 -10 20 -53l137 -287q11 -22 19 -22q11 0 24 29l133 280q11 21 11 47q0 30 -35.5 38.5t-47.5 16.5t-12 29q0 26 13 33.5t41 7.5 q21 0 52 -7t75 -7q42 0 79.5 8t55.5 8q51 0 51 -35q0 -26 -7.5 -31.5t-56 -16t-66.5 -19t-36.5 -34t-44.5 -79.5l-215 -455q-2 -4 -6 -15q-17 -44 -41 -44q-21 0 -42 44l-245 503q-20 41 -57.5 67.5t-69.5 26.5q-35 0 -54 12.5t-19 30.5z" />
<glyph unicode="w" horiz-adv-x="1317" d="M-20 645q0 41 51 41q48 0 89 -9t66 -9q13 0 57.5 9t55.5 9q37 0 52.5 -9.5t15.5 -31.5q0 -25 -37 -37.5t-37 -38.5q0 -12 20 -53l133 -268q11 -23 21 -23q8 0 18 23l142 331q24 58 35.5 77.5t25.5 19.5q13 0 34 -38l214 -390q8 -16 17 -16t16 16l121 268q22 49 22 59 q0 16 -9.5 25.5t-46 12.5t-46 11.5t-9.5 22.5q0 24 13.5 33.5t44.5 9.5q9 0 48.5 -7t72.5 -7q7 0 44 6t66 6q47 0 47 -35q0 -34 -65 -43q-53 -6 -92 -102l-197 -481q-23 -56 -47 -56t-35 27.5t-14 32.5l-199 358q-16 29 -27 29q-10 0 -22 -29l-156 -369l-5 -12 q-17 -43 -42 -43q-15 0 -24 11.5t-23 39.5l-239 492q-46 94 -97 94q-35 0 -54 12.5t-19 30.5z" />
<glyph unicode="x" horiz-adv-x="870" d="M-20 12q0 34 57 43.5t79 24.5t79 84l131 158q6 8 6 14t-8 16l-109 129l-9 11q-73 100 -147 100q-57 0 -57 43q0 14 15 24.5t44 10.5q20 0 57 -7.5t58 -7.5q75 0 127 8.5t59 8.5q50 0 50 -39q0 -15 -8 -25t-36 -15.5t-28 -17.5q0 -9 28 -42l45 -52q18 -20 23 -20 q7 0 19 14l61 72q17 19 17 29q0 12 -21 12q-16 0 -33.5 11.5t-17.5 31.5q0 41 57 41q22 0 51 -7.5t72 -7.5q42 0 71.5 6.5t47.5 6.5q37 0 37 -37q0 -20 -10.5 -26.5t-49.5 -12t-74.5 -24t-82.5 -74.5l-78 -93q-8 -9 -8 -15q0 -7 10 -19l166 -203q51 -61 78 -79.5t67 -26.5 t51 -15t11 -29q0 -13 -16 -23.5t-46 -10.5q-19 0 -59.5 6t-61.5 6q-74 0 -121.5 -7t-54.5 -7q-57 0 -57 34q0 15 8 25t35.5 15.5t27.5 17.5q0 13 -5 27.5t-33 47.5l-88 105q-7 8 -13 8q-9 0 -24 -18l-109 -129q-12 -14 -12 -29q0 -25 24 -25q17 0 37.5 -12t20.5 -33 q0 -19 -8 -26.5t-39 -7.5q-22 0 -59 6t-81 6q-42 0 -71.5 -7.5t-46.5 -7.5q-45 0 -45 35z" />
<glyph unicode="y" horiz-adv-x="989" d="M33 639q0 16 9 27.5t24 11.5q14 0 57 -9.5t55 -9.5q14 0 58 9.5t55 9.5q7 0 17 -7t11.5 -15t4 -139t2.5 -241q0 -84 6 -121.5t37.5 -61t83.5 -23.5q39 0 81 25.5t56 25.5q26 0 26 -25q0 -31 -80 -77t-159 -46q-54 0 -116 36.5t-77.5 91t-15.5 196.5l2 201q0 81 -72 96 q-42 8 -53.5 15.5t-11.5 29.5zM350 -338q0 8 8 17.5t19 9.5q8 0 32.5 -10.5t55.5 -10.5q56 0 109.5 37.5t69 103.5t15.5 197q0 470 -2.5 523t-74.5 64.5t-72 47.5q0 37 51 37q17 0 61.5 -6t73.5 -6q22 0 46 6t34 6q35 0 35 -49q0 -97 3 -283t3 -250q0 -224 -52 -320.5 t-111.5 -134.5t-145.5 -38q-73 0 -115.5 21t-42.5 38z" />
<glyph unicode="z" horiz-adv-x="594" d="M25 618q0 33 9 44.5t29 11.5h433q12 0 21 -9.5t9 -21.5q0 -21 -26 -70l-240 -436q-13 -23 -13 -42q0 -36 40 -36h123q41 0 41 37v27q0 55 38 55q25 0 37.5 -23t12.5 -96q0 -46 -6.5 -58.5t-32.5 -15.5t-107 -3h-299q-57 0 -57 35q0 25 28 77l228 420q16 33 16 51 q0 22 -11.5 26.5t-47.5 4.5h-60q-54 0 -64.5 -7t-22 -49t-42.5 -42q-34 0 -34 49z" />
<glyph unicode="{" horiz-adv-x="573" d="M51 641v61q66 24 107 75t41 120v270q0 132 20 175q24 84 86.5 149.5t127.5 104t83 38.5q14 0 14 -39l-14 -19q-68 -68 -93.5 -165.5t-25.5 -212.5v-307q0 -74 -51 -131.5t-135 -87.5q84 -31 135 -90.5t51 -137.5v-307q0 -114 25.5 -212t93.5 -166q14 -14 14 -19 q0 -39 -14 -39q-17 0 -81.5 38t-131 106.5t-93.5 178.5q-11 43 -11 144v270q0 73 -41 126t-107 77z" />
<glyph unicode="|" horiz-adv-x="410" d="M162 -442v1863h82v-1863h-82z" />
<glyph unicode="}" horiz-adv-x="573" d="M41 -260q0 5 15 19q68 68 93 166t25 212v307q0 78 51.5 137.5t134.5 90.5q-84 30 -135 87.5t-51 131.5v307q0 115 -25 212.5t-93 165.5l-15 19q0 39 14 39q17 0 81.5 -37.5t131 -106.5t94.5 -179q11 -43 11 -144v-270q0 -69 40.5 -120t106.5 -75v-61q-66 -24 -106.5 -77 t-40.5 -126v-270q0 -106 -17.5 -167.5t-53 -112t-88 -93.5t-99 -68.5t-60.5 -25.5t-14 39z" />
<glyph unicode="~" horiz-adv-x="1108" d="M20 401q8 126 70.5 201.5t163.5 75.5q42 0 105 -17t207 -79t199 -77.5t91 -15.5q78 0 127.5 49.5t58.5 137.5l45 -2q-4 -126 -71.5 -200.5t-175.5 -74.5q-44 0 -105 16.5t-197 77t-192 76t-96 15.5q-150 0 -187 -185z" />
<glyph unicode="&#xa1;" horiz-adv-x="264" d="M25 1364q0 38 31 65t73 27q41 0 75 -33.5t34 -72.5q0 -40 -30.5 -69.5t-70.5 -29.5q-50 0 -81 29.5t-31 83.5zM33 84q0 92 20 442t23 419.5t12 97.5t45 28q42 0 46 -55l52 -940q2 -33 -26.5 -62.5t-75.5 -29.5q-41 0 -68.5 31.5t-27.5 68.5z" />
<glyph unicode="&#xa2;" horiz-adv-x="827" d="M53 1055q0 134 110.5 241t262.5 113q2 64 2 102q0 13 4.5 17t16.5 4q15 0 33 -9.5t18 -17.5v-98q99 -12 179.5 -43.5t80.5 -54.5q0 -53 12 -125q0 -43 -39 -43q-31 0 -45 51q-34 123 -190 131l-9 -553h19q38 0 78.5 9.5t88.5 39t68 29.5q29 0 29 -45q0 -26 -86 -69 t-197 -50q0 -140 -4.5 -148t-46.5 -8q-20 0 -20 27v133q-163 20 -264 122.5t-101 244.5zM219 1047q0 -90 54.5 -159t146.5 -102l6 529q-97 -25 -152 -94.5t-55 -173.5z" />
<glyph unicode="&#xa3;" horiz-adv-x="1112" d="M33 63q0 47 39.5 79t93.5 32q49 0 123 -12q86 79 86 277q0 51 -6 108l-29 246q-37 -11 -69 -11q-50 0 -79.5 25.5t-29.5 58.5q0 23 18 23q39 0 64.5 -9.5t38.5 -9.5q18 0 47 9l-23 196q-2 19 -2 37q0 156 125 269.5t326 113.5q131 0 228 -75t97 -208q0 -20 -30 -38.5 t-54 -18.5q-44 0 -77 17t-33 51q0 115 -39.5 162t-112.5 47q-268 0 -268 -250q0 -33 4 -68l27 -207q86 18 128 18q95 0 95 -85q0 -31 -21 -31q-23 0 -51 13.5t-55 13.5q-33 0 -84 -15l25 -188q12 -93 12 -171q0 -140 -37 -228.5t-94 -114.5q162 -51 254 -51q237 0 237 116 q0 27 37.5 47.5t75.5 20.5q33 0 58.5 -26t25.5 -58q0 -199 -397 -199q-102 0 -342 72q-139 -66 -218 -66q-45 0 -79.5 25t-34.5 63z" />
<glyph unicode="&#xa4;" d="M27 254l145 145q-104 121 -104 283q0 155 102 281l-143 141l57 57l145 -143q55 48 134 76t149 28q73 0 148.5 -27t134.5 -75l143 141l57 -57l-143 -139q102 -133 102 -285q0 -150 -102 -283l143 -143l-57 -55l-145 141q-135 -102 -269 -102q-78 0 -163 27.5t-132 76.5 l-145 -143zM152 676q0 -148 105.5 -253.5t254.5 -105.5t255.5 107t106.5 256q0 148 -106.5 254t-255.5 106q-151 0 -255.5 -106t-104.5 -258z" />
<glyph unicode="&#xa5;" horiz-adv-x="1331" d="M-20 1391q0 47 67 47q45 0 112 -9.5t89 -9.5q21 0 87.5 9.5t84.5 9.5q98 0 98 -45q0 -24 -23.5 -37t-50.5 -13q-59 0 -59 -34q0 -17 7.5 -30.5t56 -79t118.5 -167.5l146 -211q14 -22 20 -22t19 20l247 414q35 58 35 82q0 33 -67 33q-66 0 -66 47q0 17 21 32t61 15 q34 0 84 -9.5t72 -9.5q43 0 88 8.5t57 8.5q32 0 50 -13.5t18 -29.5q0 -49 -72 -49q-67 0 -106 -35.5t-72 -91.5l-297 -504h268v-103h-303v-135h303v-102h-303q0 -258 10 -283q11 -26 55 -34t53 -19.5t9 -28.5t-14.5 -32t-38.5 -15q-36 0 -70 9.5t-78 9.5q-43 0 -82.5 -9.5 t-60.5 -9.5q-38 0 -59 14t-21 33q0 40 49.5 45t60.5 24t11 101v195h-303v102h303v135h-303v103h278l-350 500q-59 84 -95 104t-75 20q-69 0 -69 50z" />
<glyph unicode="&#xa6;" horiz-adv-x="410" d="M162 299h82v-741h-82v741zM162 680v741h82v-741h-82z" />
<glyph unicode="&#xa7;" horiz-adv-x="1018" d="M100 1311q0 129 129.5 214t298.5 85q143 0 244.5 -66.5t101.5 -138.5q0 -9 1.5 -34t1.5 -39q0 -99 -46 -99q-16 0 -31.5 14t-15.5 31q0 101 -79.5 172.5t-180.5 71.5q-109 0 -186.5 -54.5t-77.5 -119.5q0 -44 33.5 -89.5t173.5 -135.5q276 -177 366.5 -283t90.5 -228 q0 -96 -43 -163.5t-136 -118.5q96 -68 138.5 -135t42.5 -146q0 -129 -129.5 -214t-298.5 -85q-145 0 -264 65.5t-119 133.5q0 9 -1 34t-1 40q0 98 45 98q16 0 31.5 -13.5t15.5 -29.5q0 -99 94.5 -169.5t202.5 -70.5t186 55t78 119q0 46 -34.5 92t-176.5 137 q-268 170 -360.5 277t-92.5 230q0 95 42 163t135 121q-179 128 -179 279zM262 776q0 -81 82 -166.5t309 -218.5q111 69 111 193q0 64 -55 134.5t-267 205.5l-69 45q-111 -68 -111 -193z" />
<glyph unicode="&#xa8;" d="M229 1021q0 37 29.5 64t67.5 27q37 0 64.5 -25.5t27.5 -68.5q0 -42 -26.5 -66t-61.5 -24q-33 0 -67 28t-34 65zM604 1021q0 36 29 63.5t65 27.5q38 0 67.5 -26t29.5 -72q0 -39 -27.5 -62.5t-62.5 -23.5q-33 0 -67 28t-34 65z" />
<glyph unicode="&#xa9;" horiz-adv-x="922" d="M55 1217q0 166 119.5 285.5t286.5 119.5q166 0 285.5 -119.5t119.5 -285.5q0 -167 -119.5 -286.5t-285.5 -119.5q-167 0 -286.5 119.5t-119.5 286.5zM117 1217q0 -143 101 -244t243 -101t243 101t101 244q0 142 -101 243t-243 101t-243 -101t-101 -243zM219 1223 q0 94 72 161.5t192 67.5q80 0 132.5 -24.5t52.5 -38.5v-37q0 -5 2 -13.5t2 -13.5t-16.5 -11.5t-24.5 -6.5q-10 0 -16 26q-15 56 -50 73t-80 17q-80 0 -125 -57t-45 -145q0 -91 57 -151t124 -60q73 0 154 58q14 10 23 10q15 0 15 -7q0 -18 -61 -54t-133 -36q-130 0 -202.5 72 t-72.5 170z" />
<glyph unicode="&#xaa;" horiz-adv-x="659" d="M6 928v43h651v-43h-651zM20 1194q0 62 69.5 110t180.5 48q37 0 81 -18t44 -36q0 -20 -30 -20q-10 0 -36.5 11t-54.5 11q-58 0 -95.5 -28.5t-37.5 -77.5q0 -56 43 -86.5t101 -30.5q51 0 94 28.5t43 76.5v161q0 38 -28.5 61t-76.5 23q-61 0 -99.5 -22.5t-45.5 -22.5 q-17 0 -29 8t-12 19q0 30 62 50t139 20q92 0 147.5 -39.5t55.5 -93.5v-201q0 -44 68 -61q32 -8 32 -29q0 -9 -11.5 -15t-23.5 -6q-13 0 -35 6.5t-37 6.5q-16 0 -40.5 -6.5t-32.5 -6.5q-10 0 -19.5 6.5t-9.5 12.5q0 10 -8 10q-5 0 -12 -4q-81 -43 -170 -43q-78 0 -147 45 t-69 133z" />
<glyph unicode="&#xab;" horiz-adv-x="1372" d="M184 364q0 21 30 50l297 280q31 30 60 30q33 0 85.5 -25t52.5 -38l-14 -8q-64 -16 -122 -73l-170 -166q-32 -32 -32 -51t28 -46l174 -172q58 -57 122 -73l14 -8q0 -13 -52.5 -38t-85.5 -25q-28 0 -60 30l-297 282q-30 30 -30 51zM684 364q0 29 22 50l297 280q31 30 60 30 q33 0 85.5 -25t52.5 -38l-14 -8q-64 -16 -123 -73l-170 -166q-22 -22 -22 -52q0 -27 18 -45l174 -172q59 -57 123 -73l14 -8q0 -13 -52.5 -38t-85.5 -25q-29 0 -60 30l-295 280q-24 23 -24 53z" />
<glyph unicode="&#xac;" horiz-adv-x="1460" d="M178 723q0 12 12.5 33.5t22.5 47.5t24.5 36t59.5 10h672q84 0 99 12t34 12q22 0 22 -20v-432q0 -45 -10 -59.5t-35.5 -24.5t-47 -22.5t-34.5 -12.5q-20 0 -20 23q0 18 8 28q16 20 16 105v268h-667q-84 0 -99.5 -12.5t-33.5 -12.5q-23 0 -23 21z" />
<glyph unicode="&#xad;" horiz-adv-x="821" d="M33 223q0 16 34 58.5t48.5 82t29 50t62.5 10.5h375q31 0 60 13.5t60 54t48 40.5q10 0 19 -9t9 -21q0 -22 -23.5 -52t-42.5 -83t-31.5 -59.5t-70.5 -6.5h-366q-36 0 -71 -12t-72 -55q-27 -31 -46 -31q-22 0 -22 20z" />
<glyph unicode="&#xae;" horiz-adv-x="922" d="M55 1217q0 166 119.5 285.5t286.5 119.5q166 0 285.5 -119.5t119.5 -285.5q0 -167 -119.5 -286.5t-285.5 -119.5q-167 0 -286.5 119.5t-119.5 286.5zM117 1217q0 -143 101 -244t243 -101q170 0 276 138q-72 9 -99.5 33t-121.5 116q-47 46 -62.5 56.5t-29.5 14.5t-14 11 q0 10 22 10h37q52 0 87.5 20t35.5 54q0 25 -39 50.5t-111 25.5q-37 0 -46 -6.5t-9 -20.5v-313q0 -19 47 -19q41 0 41 -16q0 -14 -43 -14q-18 0 -44 6t-42 6q-14 0 -40.5 -6t-41.5 -6q-45 0 -45 16q0 12 45 12q39 0 39 15v317q0 25 -51 25q-33 0 -33 14q0 12 39 12 q18 0 40 -2t38 -2q10 0 57.5 4t73.5 4q98 0 159.5 -30t61.5 -76q0 -30 -30 -50t-118 -44l5 -6q24 -21 97.5 -94t78 -75t37.5 -12q47 79 47 177q0 142 -101 243t-243 101t-243 -101t-101 -243z" />
<glyph unicode="&#xaf;" d="M-16 1462v84h1058v-84h-1058z" />
<glyph unicode="&#xb0;" horiz-adv-x="545" d="M37 1362q0 84 59.5 149.5t159.5 65.5q93 0 156 -60t63 -169q0 -94 -82 -153.5t-141 -59.5q-92 0 -153.5 64.5t-61.5 162.5zM141 1362q0 -148 113 -148q49 0 82 33.5t33 98.5q0 71 -31 109t-82 38q-54 0 -84.5 -38.5t-30.5 -92.5z" />
<glyph unicode="&#xb1;" horiz-adv-x="1188" d="M127 -104q0 12 12.5 33.5t22.5 47.5t24.5 36t59.5 10h672q84 0 99 12t34 12q22 0 22 -20q0 -13 -12.5 -34.5t-22.5 -47t-24 -35.5t-60 -10h-671q-85 0 -100 -12.5t-33 -12.5q-23 0 -23 21zM127 541q0 12 12.5 33.5t22.5 47.5t24.5 36t59.5 10h293v280q0 45 10 59.5 t35.5 24.5t47 22.5t34.5 12.5q20 0 20 -23q0 -18 -8 -28q-16 -20 -16 -105v-243h256q84 0 99 12t34 12q22 0 22 -20q0 -13 -12.5 -34.5t-22.5 -47t-24 -35.5t-60 -10h-292v-305q0 -46 -10.5 -60t-36 -24.5t-47 -22.5t-33.5 -12q-21 0 -21 22q0 19 8 28q17 21 17 105v269 h-256q-85 0 -100 -12.5t-33 -12.5q-23 0 -23 21z" />
<glyph unicode="&#xb2;" horiz-adv-x="874" d="M25 1272q0 99 115.5 158t314.5 59q69 0 171.5 -19.5t167 -73t64.5 -130.5q0 -68 -67 -132t-295 -165q-130 -57 -160.5 -84t-30.5 -54h322q16 0 20 7.5t4.5 22.5t5 22.5t21.5 7.5q74 0 74 -92q0 -9 3 -12.5t3 -10.5q0 -13 -16.5 -22t-39.5 -9h-493q-36 0 -47.5 5t-11.5 18 q0 37 65 103t153 103q45 19 177.5 105t132.5 199q0 58 -67.5 111t-207.5 53q-92 0 -191 -36.5t-99 -115.5q0 -42 33.5 -68t62.5 -26q7 0 23 4t28 4q27 0 47.5 -12.5t20.5 -32.5q0 -19 -32 -32t-77 -13q-85 0 -139.5 47.5t-54.5 110.5z" />
<glyph unicode="&#xb3;" horiz-adv-x="899" d="M0 842q0 9 10 14.5t21 5.5q18 0 53.5 -24.5t83.5 -41t139 -16.5q148 0 268.5 75t120.5 202q0 45 -57 103.5t-160 58.5q-49 0 -92 -12.5t-53 -12.5q-19 0 -19 12t17 27l147 133q7 10 7 18q0 11 -15 11h-229q-22 0 -44 -17.5t-38 -17.5q-29 0 -29 39q0 17 5 31t5 20 q0 31 52 31h475q63 0 63 -17q0 -15 -46 -28q-52 -14 -73 -33l-125 -119l-5 -8l10 -2l49 2q148 0 240.5 -71t92.5 -163q0 -114 -168.5 -213.5t-392.5 -99.5q-126 0 -219.5 41t-93.5 72z" />
<glyph unicode="&#xb4;" d="M344 948q0 44 81.5 165.5t147.5 121.5q49 0 78 -16t29 -43q0 -64 -76 -64q-21 0 -49 -18.5t-95 -92t-93 -73.5q-23 0 -23 20z" />
<glyph unicode="&#xb5;" horiz-adv-x="1124" d="M27 625q0 16 13.5 25t33.5 9q6 0 58.5 -8t88.5 -8q13 0 38.5 7.5t31.5 7.5q33 0 33 -136v-356q0 -49 37.5 -81t89.5 -32q32 0 75.5 25.5t63.5 25.5t20 -24q0 -28 -74.5 -71.5t-168.5 -43.5q-64 0 -115 35q0 -92 16.5 -156t16.5 -84q0 -46 -22 -79t-54 -33q-31 0 -52.5 33 t-21.5 79q0 32 13 79q28 111 28 278q0 14 -4 119t-4 286q0 48 -98 70q-43 9 -43 33zM518 625q0 16 13.5 25t33.5 9q7 0 59 -8t89 -8q12 0 37.5 7.5t32.5 7.5q32 0 32 -136v-356q0 -49 38 -81t89 -32q32 0 76 25.5t63 25.5q21 0 21 -24q0 -28 -74.5 -71.5t-169.5 -43.5 q-73 0 -127.5 45t-63 100t-8.5 412q0 48 -98 70q-43 9 -43 33z" />
<glyph unicode="&#xb6;" horiz-adv-x="1599" d="M70 891q0 345 168 531t469 186q111 0 230.5 -12.5t188.5 -12.5q107 0 213 9.5t136 9.5q67 0 67 -43q0 -46 -67 -46q-109 0 -109 -79v-1629q0 -44 19 -76.5t74.5 -37t65 -14t9.5 -23.5q0 -51 -86 -51q-33 0 -105 18.5t-172 18.5q-97 0 -210 -18.5t-173 -18.5q-81 0 -81 41 q0 25 16 38t65 13q101 0 101 78v1503q0 132 -43.5 191t-175.5 59q-163 0 -248.5 -162.5t-85.5 -472.5q0 -259 57.5 -436t144.5 -258.5t146 -81.5q23 0 50.5 11t33.5 11q21 0 35 -17.5t14 -35.5q0 -57 -96 -57q-142 0 -301 103t-254.5 298.5t-95.5 462.5zM1065 -211 q0 -30 15 -43.5t53 -13.5q31 0 44 14t13 47v1471q0 148 -14 192.5t-58 44.5q-39 0 -46 -17t-7 -61v-1634z" />
<glyph unicode="&#xb7;" horiz-adv-x="324" d="M33 627q0 53 37.5 91t91.5 38q53 0 91 -38t38 -91q0 -54 -38 -91.5t-91 -37.5q-54 0 -91.5 37.5t-37.5 91.5z" />
<glyph unicode="&#xb8;" d="M238 -308q0 10 11 20t23 10t44 -13q100 -41 209 -41q35 0 54.5 13.5t19.5 35.5q0 24 -21.5 38.5t-123.5 23.5t-135 39t-33 78q0 36 71 127h158q-64 -94 -64 -121q0 -38 30 -54t63.5 -18t128.5 -2q59 0 91 -27t32 -77q0 -55 -81.5 -95.5t-207.5 -40.5q-110 0 -189.5 35 t-79.5 69z" />
<glyph unicode="&#xb9;" horiz-adv-x="502" d="M20 1333q0 14 81.5 47.5t153.5 66t101 32.5q25 0 25 -17q0 -11 -23.5 -34t-23.5 -60l6 -401l-4 -145q0 -16 12.5 -25.5t54 -14t51 -10.5t9.5 -16q0 -9 -13 -16t-36 -7q-14 0 -61 3t-91 3q-71 0 -106 -3t-41 -3q-54 0 -54 31q0 16 50 19.5t64.5 15.5t14.5 32l3 472 q0 16 -14 25t-25 9q-17 0 -48 -14t-47 -14q-39 0 -39 24z" />
<glyph unicode="&#xba;" horiz-adv-x="629" d="M6 928v43h621v-43h-621zM20 1251q0 92 76.5 161t220.5 69q118 0 204.5 -69.5t86.5 -158.5q0 -99 -82.5 -162t-222.5 -63q-109 0 -196 64t-87 159zM143 1260q0 -83 49.5 -131t126.5 -48q81 0 129 49.5t48 124.5q0 76 -51 124t-132 48q-80 0 -125 -47.5t-45 -119.5z" />
<glyph unicode="&#xbb;" horiz-adv-x="1372" d="M203 62l14 8q65 17 123 73l174 172q18 18 18 45q0 30 -22 52l-170 166q-58 57 -123 73l-14 7q0 14 52.5 39t85.5 25q29 0 60 -30l297 -280q22 -21 22 -50q0 -30 -24 -53l-295 -280q-31 -30 -60 -30q-33 0 -85.5 25t-52.5 38zM697 64l14 8q65 17 122 73l175 172 q27 28 27 46q0 20 -32 51l-170 166q-58 57 -122 73l-14 8q0 13 52.5 38t85.5 25q28 0 60 -30l297 -280q29 -28 29 -51q0 -22 -31 -52l-295 -280q-31 -30 -60 -30q-33 0 -85.5 25t-52.5 38z" />
<glyph unicode="&#xbc;" horiz-adv-x="1315" d="M20 1333q0 14 81.5 47.5t153.5 66t101 32.5q25 0 25 -17q0 -11 -23.5 -34t-23.5 -60l6 -401l-4 -145q0 -16 12.5 -25.5t54 -14t51 -10.5t9.5 -16q0 -9 -13 -16t-36 -7q-14 0 -61 3t-91 3q-71 0 -106 -3t-41 -3q-54 0 -54 31q0 16 50 19.5t64.5 15.5t14.5 32l3 472 q0 16 -14 25t-25 9q-17 0 -48 -14t-47 -14q-39 0 -39 24zM170 79q0 5 9 21l602 967q140 226 176 287q15 25 22.5 30t30.5 5q52 0 52 -16l-5 -11q-177 -274 -348 -552l-413 -673q-32 -53 -44 -60t-47 -7t-35 9zM449 262q0 6 20 23l549 438q24 18 45 18q29 0 29 -22 q0 -7 -5.5 -23t-5.5 -28v-351q0 -14 60 -14q51 0 86.5 7t40.5 7q16 0 16 -12q0 -20 -65.5 -40.5t-114.5 -20.5q-21 0 -21 -13v-147q0 -27 14.5 -36t65.5 -12.5t51 -25.5q0 -20 -57 -20q-14 0 -50.5 4t-94.5 4q-44 0 -90.5 -4t-55.5 -4q-35 0 -46 6t-11 18q0 17 49.5 20 t65.5 10.5t16 39.5v154q0 6 -3.5 13t-90.5 17.5t-184 10.5q-63 0 -120 -16.5t-69 -16.5q-24 0 -24 16zM629 330q-2 -4 8 -2q85 12 154 12q59 0 92.5 -4t38.5 -4q16 0 16 8v211q0 19 -6 19q-7 0 -25 -15z" />
<glyph unicode="&#xbd;" horiz-adv-x="1542" d="M20 1333q0 14 81.5 47.5t153.5 66t101 32.5q25 0 25 -17q0 -11 -23.5 -34t-23.5 -60l6 -401l-4 -145q0 -16 12.5 -25.5t54 -14t51 -10.5t9.5 -16q0 -9 -13 -16t-36 -7q-14 0 -61 3t-91 3q-71 0 -106 -3t-41 -3q-54 0 -54 31q0 16 50 19.5t64.5 15.5t14.5 32l3 472 q0 16 -14 25t-25 9q-17 0 -48 -14t-47 -14q-39 0 -39 24zM170 79q0 5 9 21l602 967q140 226 176 287q15 25 22.5 30t30.5 5q52 0 52 -16l-5 -11q-177 -274 -348 -552l-413 -673q-32 -53 -44 -60t-47 -7t-35 9zM664 526q0 99 115.5 158t314.5 59q69 0 171.5 -19t167 -72.5 t64.5 -131.5q0 -67 -67 -131.5t-295 -164.5q-130 -57 -160.5 -84.5t-30.5 -53.5h322q16 0 20 7.5t4.5 22t5 22t21.5 7.5q74 0 74 -92q0 -8 3 -11.5t3 -10.5q0 -13 -16.5 -22t-39.5 -9h-493q-36 0 -48 5t-12 18q0 37 65.5 103t153.5 103q45 18 177.5 104.5t132.5 198.5 q0 58 -67.5 111t-207.5 53q-92 0 -191 -36t-99 -115q0 -43 33.5 -68.5t62.5 -25.5q7 0 23 4t28 4q27 0 47.5 -12.5t20.5 -32.5q0 -19 -32 -32t-77 -13q-85 0 -139.5 47.5t-54.5 109.5z" />
<glyph unicode="&#xbe;" horiz-adv-x="1573" d="M0 842q0 9 10 14.5t21 5.5q18 0 53.5 -24.5t83.5 -41t139 -16.5q148 0 268.5 75t120.5 202q0 45 -57 103.5t-160 58.5q-49 0 -92 -12.5t-53 -12.5q-19 0 -19 12t17 27l147 133q7 10 7 18q0 11 -15 11h-229q-22 0 -44 -17.5t-38 -17.5q-29 0 -29 39q0 17 5 31t5 20 q0 31 52 31h475q63 0 63 -17q0 -15 -46 -28q-52 -14 -73 -33l-125 -119l-5 -8l10 -2l49 2q148 0 240.5 -71t92.5 -163q0 -114 -168.5 -213.5t-392.5 -99.5q-126 0 -219.5 41t-93.5 72zM422 79q0 5 9 21l602 967q140 226 176 287q15 25 22.5 30t30.5 5q52 0 52 -16l-5 -11 q-177 -274 -348 -552l-413 -673q-32 -53 -44 -60t-47 -7t-35 9zM698 262q0 6 21 23l549 438q24 18 45 18q28 0 28 -22q0 -7 -5 -23t-5 -28v-351q0 -14 60 -14q51 0 86.5 7t40.5 7q16 0 16 -12q0 -20 -65.5 -40.5t-114.5 -20.5q-21 0 -21 -13v-147q0 -27 14 -36t65.5 -12.5 t51.5 -25.5q0 -20 -57 -20q-14 0 -50.5 4t-94.5 4q-44 0 -90.5 -4t-55.5 -4q-35 0 -46 6t-11 18q0 17 49.5 20t65.5 10.5t16 39.5v154q0 6 -3.5 13t-91 17.5t-184.5 10.5q-62 0 -119 -16.5t-69 -16.5q-25 0 -25 16zM879 330q-2 -4 8 -2q85 12 153 12q60 0 131 -8q17 0 17 8 v211q0 19 -6 19q-7 0 -25 -15z" />
<glyph unicode="&#xbf;" horiz-adv-x="852" d="M29 348q0 88 39.5 160.5t96 126t161 136t143.5 149t39 120.5q0 88 51 88q27 0 37 -20.5t10 -91.5q0 -72 -38.5 -146.5t-155.5 -183.5q-120 -115 -152.5 -194.5t-32.5 -159.5q0 -97 59.5 -173.5t157.5 -76.5q120 0 188 63t68 160q0 55 -23.5 93t-62.5 38q-11 0 -21 -3 t-20 -3q-22 0 -45.5 17.5t-23.5 39.5q0 41 37 64.5t88 23.5q74 0 130 -65.5t56 -187.5q0 -139 -99.5 -238.5t-264.5 -99.5q-173 0 -297.5 104t-124.5 260zM428 1358q0 40 32 69t75 29t76.5 -31.5t33.5 -74.5q0 -44 -32.5 -74.5t-77.5 -30.5q-40 0 -73.5 30.5t-33.5 82.5z " />
<glyph unicode="&#xc0;" horiz-adv-x="1483" d="M-20 27q0 26 10 34t37 12q78 13 107.5 58.5t151.5 322.5l242 540q89 194 114.5 257.5t25.5 98.5q0 12 -8.5 43.5t-8.5 45.5q0 29 31 29q51 0 82 -43t83 -162l277 -626q151 -342 191 -423t65.5 -104.5t61 -34.5t48.5 -21.5t13 -35.5q0 -34 -63 -34q-21 0 -76.5 6t-110.5 6 t-114.5 -7t-81.5 -7q-34 0 -54 11.5t-20 31.5q0 17 12 28t64.5 16t68 22.5t15.5 43.5q0 28 -57 154.5t-71 134.5t-54 8h-447q-26 0 -47 16.5t-21 38.5q0 17 16.5 30t37.5 13h430q36 0 36 13q0 8 -14 39l-221 499q-20 46 -30 46q-12 0 -36 -64l-214 -489l-185 -412 q-8 -19 -8 -33q0 -15 11.5 -27t54.5 -24t54 -24t11 -27q0 -46 -60 -46q-14 0 -68.5 8.5t-90.5 8.5q-37 0 -76 -8t-57 -8q-25 0 -41 13.5t-16 31.5zM449 1802q0 27 29 43t78 16q66 0 147.5 -121.5t81.5 -165.5q0 -20 -23 -20q-26 0 -93 73.5t-95 92t-49 18.5q-76 0 -76 64z " />
<glyph unicode="&#xc1;" horiz-adv-x="1483" d="M-20 27q0 26 10 34t37 12q78 13 107.5 58.5t151.5 322.5l242 540q89 194 114.5 257.5t25.5 98.5q0 12 -8.5 43.5t-8.5 45.5q0 29 31 29q51 0 82 -43t83 -162l277 -626q151 -342 191 -423t65.5 -104.5t61 -34.5t48.5 -21.5t13 -35.5q0 -34 -63 -34q-21 0 -76.5 6t-110.5 6 t-114.5 -7t-81.5 -7q-34 0 -54 11.5t-20 31.5q0 17 12 28t64.5 16t68 22.5t15.5 43.5q0 28 -57 154.5t-71 134.5t-54 8h-447q-26 0 -47 16.5t-21 38.5q0 17 16.5 30t37.5 13h430q36 0 36 13q0 8 -14 39l-221 499q-20 46 -30 46q-12 0 -36 -64l-214 -489l-185 -412 q-8 -19 -8 -33q0 -15 11.5 -27t54.5 -24t54 -24t11 -27q0 -46 -60 -46q-14 0 -68.5 8.5t-90.5 8.5q-37 0 -76 -8t-57 -8q-25 0 -41 13.5t-16 31.5zM647 1574q0 44 81.5 165.5t147.5 121.5q49 0 78 -16t29 -43q0 -64 -76 -64q-21 0 -49 -18.5t-95 -92t-93 -73.5q-23 0 -23 20 z" />
<glyph unicode="&#xc2;" horiz-adv-x="1483" d="M-20 27q0 26 10 34t37 12q78 13 107.5 58.5t151.5 322.5l242 540q89 194 114.5 257.5t25.5 98.5q0 12 -8.5 43.5t-8.5 45.5q0 29 31 29q51 0 82 -43t83 -162l277 -626q151 -342 191 -423t65.5 -104.5t61 -34.5t48.5 -21.5t13 -35.5q0 -34 -63 -34q-21 0 -76.5 6t-110.5 6 t-114.5 -7t-81.5 -7q-34 0 -54 11.5t-20 31.5q0 17 12 28t64.5 16t68 22.5t15.5 43.5q0 28 -57 154.5t-71 134.5t-54 8h-447q-26 0 -47 16.5t-21 38.5q0 17 16.5 30t37.5 13h430q36 0 36 13q0 8 -14 39l-221 499q-20 46 -30 46q-12 0 -36 -64l-214 -489l-185 -412 q-8 -19 -8 -33q0 -15 11.5 -27t54.5 -24t54 -24t11 -27q0 -46 -60 -46q-14 0 -68.5 8.5t-90.5 8.5q-37 0 -76 -8t-57 -8q-25 0 -41 13.5t-16 31.5zM446 1574q0 19 54.5 83t77.5 96t65.5 69t64.5 37t64 -36.5t65 -69t78 -96.5t55 -83q0 -20 -22 -20q-28 0 -95 73.5t-95.5 92 t-49.5 18.5t-49 -18.5t-95 -92t-94 -73.5q-24 0 -24 20z" />
<glyph unicode="&#xc3;" horiz-adv-x="1483" d="M-20 27q0 26 10 34t37 12q78 13 107.5 58.5t151.5 322.5l242 540q89 194 114.5 257.5t25.5 98.5q0 12 -8.5 43.5t-8.5 45.5q0 29 31 29q51 0 82 -43t83 -162l277 -626q151 -342 191 -423t65.5 -104.5t61 -34.5t48.5 -21.5t13 -35.5q0 -34 -63 -34q-21 0 -76.5 6t-110.5 6 t-114.5 -7t-81.5 -7q-34 0 -54 11.5t-20 31.5q0 17 12 28t64.5 16t68 22.5t15.5 43.5q0 28 -57 154.5t-71 134.5t-54 8h-447q-26 0 -47 16.5t-21 38.5q0 17 16.5 30t37.5 13h430q36 0 36 13q0 8 -14 39l-221 499q-20 46 -30 46q-12 0 -36 -64l-214 -489l-185 -412 q-8 -19 -8 -33q0 -15 11.5 -27t54.5 -24t54 -24t11 -27q0 -46 -60 -46q-14 0 -68.5 8.5t-90.5 8.5q-37 0 -76 -8t-57 -8q-25 0 -41 13.5t-16 31.5zM437 1574q0 18 49 71t75.5 103.5t44 63t36.5 12.5q40 0 82 -16t87.5 -57t55.5 -38q21 0 46.5 12.5t83 63.5t83.5 51 q25 0 25 -20q0 -18 -49 -71.5t-75.5 -103.5t-44 -62.5t-36.5 -12.5q-40 0 -81.5 15t-86.5 55t-57 40q-21 0 -46.5 -12.5t-83 -63.5t-83.5 -51q-25 0 -25 21z" />
<glyph unicode="&#xc4;" horiz-adv-x="1483" d="M-20 27q0 26 10 34t37 12q78 13 107.5 58.5t151.5 322.5l242 540q89 194 114.5 257.5t25.5 98.5q0 12 -8.5 43.5t-8.5 45.5q0 29 31 29q51 0 82 -43t83 -162l277 -626q151 -342 191 -423t65.5 -104.5t61 -34.5t48.5 -21.5t13 -35.5q0 -34 -63 -34q-21 0 -76.5 6t-110.5 6 t-114.5 -7t-81.5 -7q-34 0 -54 11.5t-20 31.5q0 17 12 28t64.5 16t68 22.5t15.5 43.5q0 28 -57 154.5t-71 134.5t-54 8h-447q-26 0 -47 16.5t-21 38.5q0 17 16.5 30t37.5 13h430q36 0 36 13q0 8 -14 39l-221 499q-20 46 -30 46q-12 0 -36 -64l-214 -489l-185 -412 q-8 -19 -8 -33q0 -15 11.5 -27t54.5 -24t54 -24t11 -27q0 -46 -60 -46q-14 0 -68.5 8.5t-90.5 8.5q-37 0 -76 -8t-57 -8q-25 0 -41 13.5t-16 31.5zM406 1647q0 37 29.5 64t67.5 27q37 0 64.5 -25.5t27.5 -68.5q0 -42 -26.5 -66t-61.5 -24q-33 0 -67 28t-34 65zM781 1647 q0 36 29 63.5t65 27.5q38 0 67.5 -26t29.5 -72q0 -39 -27.5 -62.5t-62.5 -23.5q-33 0 -67 28t-34 65z" />
<glyph unicode="&#xc5;" horiz-adv-x="1483" d="M-20 27q0 26 10 34t37 12q78 13 107.5 58.5t151.5 322.5l246 547q117 257 125 291q-77 19 -122.5 80t-45.5 144t59.5 149t160.5 66q93 0 156 -60.5t63 -169.5q0 -106 -111 -174l286 -640q170 -386 211.5 -472t68 -107.5t66.5 -34.5q28 -9 41 -19.5t13 -35.5 q0 -34 -63 -34q-21 0 -76.5 6t-110.5 6t-114.5 -7t-81.5 -7q-34 0 -54 11.5t-20 31.5q0 17 12 28t64.5 16t68 22.5t15.5 43.5q0 28 -57 154.5t-71 134.5t-54 8h-447q-26 0 -47 16.5t-21 38.5q0 17 16.5 30t37.5 13h430q36 0 36 13q0 8 -14 39l-221 499q-20 46 -30 46 q-7 0 -13 -15l-195 -443q-133 -304 -223 -498q-12 -25 -12 -42q0 -15 11.5 -27t54.5 -24t54 -24t11 -27q0 -46 -60 -46q-14 0 -68.5 8.5t-90.5 8.5q-37 0 -76 -8t-57 -8q-25 0 -41 13.5t-16 31.5zM594 1516q0 -148 113 -148q48 0 81 33.5t33 97.5q0 72 -30.5 110t-81.5 38 q-55 0 -85 -38.5t-30 -92.5z" />
<glyph unicode="&#xc6;" horiz-adv-x="2077" d="M-14 19q0 14 8.5 28.5t19.5 19t33 7.5q64 9 105 39q31 23 203 263l626 877q16 23 16 41q0 27 -31 42.5t-83 15.5q-39 0 -61.5 16t-22.5 38q0 18 14.5 30t38.5 12h770q62 0 81 -43.5t26.5 -81.5t12.5 -55t5 -28q0 -28 -31 -28q-18 0 -34.5 11.5t-42 58t-46.5 59.5t-45 13 h-274q-63 0 -81.5 -12.5t-18.5 -46.5q0 -36 35 -221l18 -102q5 -22 15.5 -25t100.5 -3h267q51 0 51 62l-3 30q0 15 11.5 24.5t28.5 9.5q20 0 35.5 -14.5t18.5 -43.5l5 -41q11 -97 28.5 -151.5t17.5 -66.5q0 -18 -11.5 -30t-28.5 -12q-21 0 -37.5 18.5t-22 53t-28.5 51 t-69 16.5h-265q-58 0 -74 -2.5t-16 -10.5q0 -15 62.5 -355t87.5 -373q28 -39 106 -39h344q91 0 91 75q0 11 -2.5 22.5t-2.5 22.5q0 27 13 43t33 16q23 0 42.5 -20t26.5 -57q28 -141 28 -164q0 -20 -14 -26.5t-49 -6.5h-452q-92 0 -171 10.5t-141 10.5q-55 0 -115.5 -7 t-82.5 -7q-65 0 -65 34q0 13 14 30t77 23t83 31t20 55q0 49 -20 144l-19 86q-5 33 -16 40t-50 7h-428q-22 0 -38 13t-16 32q0 21 21 37t43 16h412q25 0 32.5 3.5t7.5 18.5q0 10 -3 30l-90 499q-6 31 -11 31l-12 -12l-667 -938q-20 -29 -20 -46q0 -22 44.5 -38.5t44.5 -38.5 q0 -20 -15 -39t-58 -19q-14 0 -66 8.5t-88 8.5q-37 0 -78 -8t-59 -8q-22 0 -35.5 10.5t-13.5 26.5z" />
<glyph unicode="&#xc7;" horiz-adv-x="1370" d="M25 735q0 196 90 367.5t256 267.5t385 96q140 0 258.5 -36.5t187 -88.5t68.5 -79q0 -42 -2 -76t-2 -41q0 -12 7 -36.5t7 -45.5q0 -33 -41 -33q-13 0 -26 12t-38 67q-53 117 -114 170q-107 93 -299 93q-247 0 -384.5 -179.5t-137.5 -463.5q0 -309 149 -488.5t402 -179.5 q65 0 204.5 43.5t275.5 168.5q30 27 46 27q15 0 26 -11.5t11 -20.5q0 -35 -80.5 -111.5t-210.5 -131t-275 -54.5q-32 0 -45 2q-1 -5 -15.5 -29t-14.5 -42q0 -38 29.5 -54t63 -18t128.5 -2q59 0 91 -27t32 -77q0 -55 -81.5 -95.5t-207.5 -40.5q-110 0 -189.5 35t-79.5 69 q0 10 11 20t24 10q11 0 44 -13q99 -41 208 -41q36 0 55 13.5t19 35.5q0 24 -21.5 38.5t-123.5 23.5t-135 39t-33 78q0 27 22 58t25 38q-276 63 -422.5 276.5t-146.5 466.5z" />
<glyph unicode="&#xc8;" horiz-adv-x="1047" d="M4 1400q0 19 17 33.5t43 14.5h770q46 0 60 -19t20.5 -56t6.5 -122q0 -39 -33 -39q-19 0 -33.5 11.5t-32 58t-36 59.5t-42.5 13h-274q-69 0 -87 -19.5t-18 -58.5v-211q0 -74 20 -97.5t81 -23.5h266q33 0 50 26.5t17 59.5q0 17 14 28.5t33 11.5q20 0 33 -13t13 -37 q0 -21 -6.5 -60.5t-6.5 -64.5q0 -38 8.5 -80t8.5 -51q0 -23 -15 -38t-35 -15q-21 0 -35 18.5t-14 50.5q0 38 -20 54t-66 16h-264q-36 0 -59 -14.5t-23 -42.5v-639q0 -50 25.5 -67t87.5 -17h344q51 0 77.5 27t26.5 69q0 38 17 60.5t40 22.5t38.5 -21t15.5 -56t3 -75.5 t3 -55.5q0 -41 -11.5 -53.5t-59.5 -12.5h-809q-85 0 -116.5 13t-31.5 39q0 41 57 41q73 0 95 23.5t22 74.5v915q0 148 -5 196t-25 61.5t-80 13.5q-36 0 -55.5 13.5t-19.5 34.5zM287 1802q0 27 29 43t78 16q66 0 147.5 -121.5t81.5 -165.5q0 -20 -23 -20q-26 0 -93 73.5 t-95 92t-49 18.5q-76 0 -76 64z" />
<glyph unicode="&#xc9;" horiz-adv-x="1047" d="M4 1400q0 19 17 33.5t43 14.5h770q46 0 60 -19t20.5 -56t6.5 -122q0 -39 -33 -39q-19 0 -33.5 11.5t-32 58t-36 59.5t-42.5 13h-274q-69 0 -87 -19.5t-18 -58.5v-211q0 -74 20 -97.5t81 -23.5h266q33 0 50 26.5t17 59.5q0 17 14 28.5t33 11.5q20 0 33 -13t13 -37 q0 -21 -6.5 -60.5t-6.5 -64.5q0 -38 8.5 -80t8.5 -51q0 -23 -15 -38t-35 -15q-21 0 -35 18.5t-14 50.5q0 38 -20 54t-66 16h-264q-36 0 -59 -14.5t-23 -42.5v-639q0 -50 25.5 -67t87.5 -17h344q51 0 77.5 27t26.5 69q0 38 17 60.5t40 22.5t38.5 -21t15.5 -56t3 -75.5 t3 -55.5q0 -41 -11.5 -53.5t-59.5 -12.5h-809q-85 0 -116.5 13t-31.5 39q0 41 57 41q73 0 95 23.5t22 74.5v915q0 148 -5 196t-25 61.5t-80 13.5q-36 0 -55.5 13.5t-19.5 34.5zM351 1574q0 44 81.5 165.5t147.5 121.5q49 0 78 -16t29 -43q0 -64 -76 -64q-21 0 -49 -18.5 t-95 -92t-93 -73.5q-23 0 -23 20z" />
<glyph unicode="&#xca;" horiz-adv-x="1047" d="M4 1400q0 19 17 33.5t43 14.5h770q46 0 60 -19t20.5 -56t6.5 -122q0 -39 -33 -39q-19 0 -33.5 11.5t-32 58t-36 59.5t-42.5 13h-274q-69 0 -87 -19.5t-18 -58.5v-211q0 -74 20 -97.5t81 -23.5h266q33 0 50 26.5t17 59.5q0 17 14 28.5t33 11.5q20 0 33 -13t13 -37 q0 -21 -6.5 -60.5t-6.5 -64.5q0 -38 8.5 -80t8.5 -51q0 -23 -15 -38t-35 -15q-21 0 -35 18.5t-14 50.5q0 38 -20 54t-66 16h-264q-36 0 -59 -14.5t-23 -42.5v-639q0 -50 25.5 -67t87.5 -17h344q51 0 77.5 27t26.5 69q0 38 17 60.5t40 22.5t38.5 -21t15.5 -56t3 -75.5 t3 -55.5q0 -41 -11.5 -53.5t-59.5 -12.5h-809q-85 0 -116.5 13t-31.5 39q0 41 57 41q73 0 95 23.5t22 74.5v915q0 148 -5 196t-25 61.5t-80 13.5q-36 0 -55.5 13.5t-19.5 34.5zM279 1574q0 19 54.5 83t77.5 96t65.5 69t64.5 37t64 -36.5t65 -69t78 -96.5t55 -83 q0 -20 -22 -20q-28 0 -95 73.5t-95.5 92t-49.5 18.5t-49 -18.5t-95 -92t-94 -73.5q-24 0 -24 20z" />
<glyph unicode="&#xcb;" horiz-adv-x="1047" d="M4 1400q0 19 17 33.5t43 14.5h770q46 0 60 -19t20.5 -56t6.5 -122q0 -39 -33 -39q-19 0 -33.5 11.5t-32 58t-36 59.5t-42.5 13h-274q-69 0 -87 -19.5t-18 -58.5v-211q0 -74 20 -97.5t81 -23.5h266q33 0 50 26.5t17 59.5q0 17 14 28.5t33 11.5q20 0 33 -13t13 -37 q0 -21 -6.5 -60.5t-6.5 -64.5q0 -38 8.5 -80t8.5 -51q0 -23 -15 -38t-35 -15q-21 0 -35 18.5t-14 50.5q0 38 -20 54t-66 16h-264q-36 0 -59 -14.5t-23 -42.5v-639q0 -50 25.5 -67t87.5 -17h344q51 0 77.5 27t26.5 69q0 38 17 60.5t40 22.5t38.5 -21t15.5 -56t3 -75.5 t3 -55.5q0 -41 -11.5 -53.5t-59.5 -12.5h-809q-85 0 -116.5 13t-31.5 39q0 41 57 41q73 0 95 23.5t22 74.5v915q0 148 -5 196t-25 61.5t-80 13.5q-36 0 -55.5 13.5t-19.5 34.5zM226 1647q0 37 29.5 64t67.5 27q37 0 64.5 -25.5t27.5 -68.5q0 -42 -26.5 -66t-61.5 -24 q-33 0 -67 28t-34 65zM601 1647q0 36 29 63.5t65 27.5q38 0 67.5 -26t29.5 -72q0 -39 -27.5 -62.5t-62.5 -23.5q-33 0 -67 28t-34 65z" />
<glyph unicode="&#xcc;" horiz-adv-x="532" d="M6 1802q0 27 29 43t78 16q66 0 147.5 -121.5t81.5 -165.5q0 -20 -23 -20q-26 0 -93 73.5t-95 92t-49 18.5q-76 0 -76 64zM31 31q0 13 8 23t56.5 18.5t64.5 43t16 77.5v1038q0 58 -22.5 79.5t-58 32t-49 20.5t-13.5 36q0 15 13.5 25t31.5 10q31 0 94 -10.5t96 -10.5 q30 0 88.5 9.5t87.5 9.5q50 0 50 -41q0 -25 -13 -34t-53 -16.5t-58 -42t-18 -100.5v-1038q0 -29 13.5 -51.5t60 -35t56.5 -26t10 -31.5q0 -36 -62 -36q-28 0 -82 10t-82 10q-26 0 -79.5 -8t-80.5 -8q-75 0 -75 47z" />
<glyph unicode="&#xcd;" horiz-adv-x="532" d="M31 31q0 13 8 23t56.5 18.5t64.5 43t16 77.5v1038q0 58 -22.5 79.5t-58 32t-49 20.5t-13.5 36q0 15 13.5 25t31.5 10q31 0 94 -10.5t96 -10.5q30 0 88.5 9.5t87.5 9.5q50 0 50 -41q0 -25 -13 -34t-53 -16.5t-58 -42t-18 -100.5v-1038q0 -29 13.5 -51.5t60 -35t56.5 -26 t10 -31.5q0 -36 -62 -36q-28 0 -82 10t-82 10q-26 0 -79.5 -8t-80.5 -8q-75 0 -75 47zM186 1574q0 44 81.5 165.5t147.5 121.5q49 0 78 -16t29 -43q0 -64 -76 -64q-21 0 -49 -18.5t-95 -92t-93 -73.5q-23 0 -23 20z" />
<glyph unicode="&#xce;" horiz-adv-x="532" d="M4 1574q0 19 54.5 83t77.5 96t65.5 69t64.5 37t64 -36.5t65 -69t78 -96.5t55 -83q0 -20 -22 -20q-28 0 -95 73.5t-95.5 92t-49.5 18.5t-49 -18.5t-95 -92t-94 -73.5q-24 0 -24 20zM32 31q0 13 8 23t56.5 18.5t64.5 43t16 77.5v1038q0 58 -22.5 79.5t-58 32t-49 20.5 t-13.5 36q0 15 13.5 25t31.5 10q31 0 94 -10.5t96 -10.5q30 0 88.5 9.5t87.5 9.5q50 0 50 -41q0 -25 -13 -34t-53 -16.5t-58 -42t-18 -100.5v-1038q0 -29 13.5 -51.5t60 -35t56.5 -26t10 -31.5q0 -36 -62 -36q-28 0 -82 10t-82 10q-26 0 -79.5 -8t-80.5 -8q-75 0 -75 47z " />
<glyph unicode="&#xcf;" horiz-adv-x="532" d="M-12 1647q0 37 29.5 64t67.5 27q37 0 64.5 -25.5t27.5 -68.5q0 -42 -26.5 -66t-61.5 -24q-33 0 -67 28t-34 65zM31 31q0 13 8 23t56.5 18.5t64.5 43t16 77.5v1038q0 58 -22.5 79.5t-58 32t-49 20.5t-13.5 36q0 15 13.5 25t31.5 10q31 0 94 -10.5t96 -10.5q30 0 88.5 9.5 t87.5 9.5q50 0 50 -41q0 -25 -13 -34t-53 -16.5t-58 -42t-18 -100.5v-1038q0 -29 13.5 -51.5t60 -35t56.5 -26t10 -31.5q0 -36 -62 -36q-28 0 -82 10t-82 10q-26 0 -79.5 -8t-80.5 -8q-75 0 -75 47zM363 1647q0 36 29 63.5t65 27.5q38 0 67.5 -26t29.5 -72 q0 -39 -27.5 -62.5t-62.5 -23.5q-33 0 -67 28t-34 65z" />
<glyph unicode="&#xd0;" horiz-adv-x="1362" d="M16 800q0 22 12.5 41t28.5 19h133v410q0 56 -16 73t-82 17q-62 0 -62 41t66 41h500q153 0 342 -90t302 -258.5t113 -397.5q0 -204 -86.5 -368.5t-244 -255t-359.5 -90.5l-565 4q-26 0 -41.5 12.5t-15.5 31.5q0 17 13 29.5t34 12.5q55 0 79.5 11.5t29 25t3.5 55.5 q-6 349 -6 596h-137q-41 0 -41 40zM358 1274q0 -229 6 -414h350q17 0 32 -20.5t15 -41.5q0 -38 -47 -38h-348q0 -77 4 -261t4 -311q0 -66 53 -93t179 -27q135 0 222.5 35t163 128t112 201t36.5 199q0 260 -76.5 414.5t-215 232.5t-269.5 78q-129 0 -175 -13t-46 -69z" />
<glyph unicode="&#xd1;" horiz-adv-x="1370" d="M4 1391q0 41 51 41q9 0 45 -5.5t60 -5.5q18 0 42.5 5.5t41.5 5.5q29 0 71.5 -47t290.5 -379l441 -590q11 -15 21 -15q22 0 22 54v798q0 41 -28.5 65.5t-72.5 24.5q-34 0 -55 12t-21 31q0 23 19.5 36.5t42.5 13.5q12 0 81.5 -12.5t92.5 -12.5q30 0 79.5 9.5t71.5 9.5 q60 0 60 -48q0 -39 -60 -39q-52 0 -76.5 -16t-30 -38.5t-5.5 -57.5v-998q0 -100 21.5 -154t21.5 -87q0 -31 -27 -31q-19 0 -29 8t-30 35l-832 1102q-13 17 -24 17q-15 0 -15 -38v-925q0 -42 35.5 -67t67.5 -25q80 0 80 -52q0 -16 -9 -26t-42 -10q-32 0 -96 9t-83 9 q-26 0 -88 -9t-78 -9q-51 0 -51 47q0 39 60 39q49 0 78.5 27.5t29.5 78.5v1067q0 49 -25 78t-63 29q-51 0 -68.5 11t-17.5 34zM351 1574q0 18 49 71t75.5 103.5t44 63t36.5 12.5q40 0 82 -16t87.5 -57t55.5 -38q21 0 46.5 12.5t83 63.5t83.5 51q25 0 25 -20q0 -18 -49 -71.5 t-75.5 -103.5t-44 -62.5t-36.5 -12.5q-40 0 -81.5 15t-86.5 55t-57 40q-21 0 -46.5 -12.5t-83 -63.5t-83.5 -51q-25 0 -25 21z" />
<glyph unicode="&#xd2;" horiz-adv-x="1554" d="M25 743q0 179 94 354t265.5 275.5t395.5 100.5q350 0 550 -240t200 -539q0 -221 -108.5 -404t-283 -258t-370.5 -75q-319 0 -531 222t-212 564zM233 743q0 -690 541 -690q188 0 313.5 83t179.5 204.5t54 323.5q0 349 -146 533.5t-395 184.5q-257 0 -402 -189.5 t-145 -449.5zM578 1802q0 27 29 43t78 16q66 0 147.5 -121.5t81.5 -165.5q0 -20 -23 -20q-26 0 -93 73.5t-95 92t-49 18.5q-76 0 -76 64z" />
<glyph unicode="&#xd3;" horiz-adv-x="1554" d="M25 743q0 179 94 354t265.5 275.5t395.5 100.5q350 0 550 -240t200 -539q0 -221 -108.5 -404t-283 -258t-370.5 -75q-319 0 -531 222t-212 564zM233 743q0 -690 541 -690q188 0 313.5 83t179.5 204.5t54 323.5q0 349 -146 533.5t-395 184.5q-257 0 -402 -189.5 t-145 -449.5zM686 1574q0 44 81.5 165.5t147.5 121.5q49 0 78 -16t29 -43q0 -64 -76 -64q-21 0 -49 -18.5t-95 -92t-93 -73.5q-23 0 -23 20z" />
<glyph unicode="&#xd4;" horiz-adv-x="1554" d="M25 743q0 179 94 354t265.5 275.5t395.5 100.5q350 0 550 -240t200 -539q0 -221 -108.5 -404t-283 -258t-370.5 -75q-319 0 -531 222t-212 564zM233 743q0 -690 541 -690q188 0 313.5 83t179.5 204.5t54 323.5q0 349 -146 533.5t-395 184.5q-257 0 -402 -189.5 t-145 -449.5zM507 1574q0 19 54.5 83t77.5 96t65.5 69t64.5 37t64 -36.5t65 -69t78 -96.5t55 -83q0 -20 -22 -20q-28 0 -95 73.5t-95.5 92t-49.5 18.5t-49 -18.5t-95 -92t-94 -73.5q-24 0 -24 20z" />
<glyph unicode="&#xd5;" horiz-adv-x="1554" d="M25 743q0 179 94 354t265.5 275.5t395.5 100.5q350 0 550 -240t200 -539q0 -221 -108.5 -404t-283 -258t-370.5 -75q-319 0 -531 222t-212 564zM233 743q0 -690 541 -690q188 0 313.5 83t179.5 204.5t54 323.5q0 349 -146 533.5t-395 184.5q-257 0 -402 -189.5 t-145 -449.5zM493 1574q0 18 49 71t75.5 103.5t44 63t36.5 12.5q40 0 82 -16t87.5 -57t55.5 -38q21 0 46.5 12.5t83 63.5t83.5 51q25 0 25 -20q0 -18 -49 -71.5t-75.5 -103.5t-44 -62.5t-36.5 -12.5q-40 0 -81.5 15t-86.5 55t-57 40q-21 0 -46.5 -12.5t-83 -63.5t-83.5 -51 q-25 0 -25 21z" />
<glyph unicode="&#xd6;" horiz-adv-x="1554" d="M25 743q0 179 94 354t265.5 275.5t395.5 100.5q350 0 550 -240t200 -539q0 -221 -108.5 -404t-283 -258t-370.5 -75q-319 0 -531 222t-212 564zM233 743q0 -690 541 -690q188 0 313.5 83t179.5 204.5t54 323.5q0 349 -146 533.5t-395 184.5q-257 0 -402 -189.5 t-145 -449.5zM504 1647q0 37 29.5 64t67.5 27q37 0 64.5 -25.5t27.5 -68.5q0 -42 -26.5 -66t-61.5 -24q-33 0 -67 28t-34 65zM879 1647q0 36 29 63.5t65 27.5q38 0 67.5 -26t29.5 -72q0 -39 -27.5 -62.5t-62.5 -23.5q-33 0 -67 28t-34 65z" />
<glyph unicode="&#xd7;" horiz-adv-x="1188" d="M215 321q0 9 10.5 18.5t22.5 10.5q27 4 87 64l190 190l-182 182q-59 59 -78.5 61t-30.5 13t-11 19q0 18 30 25.5t55.5 19t36.5 11.5q24 0 59 -36l207 -207l199 199q36 36 59 36q11 0 36 -11.5t55.5 -19t30.5 -25.5q0 -8 -11 -19t-24 -13q-26 -4 -85 -63l-172 -172 l180 -180q61 -60 79.5 -62.5t29.5 -13t11 -19.5q0 -18 -30 -25.5t-55 -18.5t-36 -11q-23 0 -60 37l-207 207l-215 -217q-35 -36 -58 -36q-12 0 -37.5 11.5t-55.5 19t-30 25.5z" />
<glyph unicode="&#xd8;" horiz-adv-x="1554" d="M25 -51q0 10 16 28l197 211q-200 224 -200 555q0 179 94 354t265.5 275.5t395.5 100.5q308 0 496 -185l158 168q27 32 44 32q88 -16 88 -26q0 -6 -12 -21l-217 -220q193 -230 193 -527q0 -221 -108.5 -404t-283 -258t-370.5 -75q-273 0 -475 168l-162 -172 q-27 -27 -48 -27q-11 0 -34 6q-37 5 -37 17zM246 743q0 -282 91 -450l858 895q-145 194 -402 194t-402 -189.5t-145 -449.5zM390 215q134 -162 397 -162q188 0 313.5 83t179.5 204.5t54 323.5q0 267 -90 448l-348 -360z" />
<glyph unicode="&#xd9;" horiz-adv-x="1366" d="M4 1391q0 20 18 32.5t41 12.5q29 0 83 -9.5t81 -9.5q32 0 93.5 10.5t93.5 10.5q34 0 56 -12t22 -35q0 -19 -10.5 -31.5t-54.5 -16t-67.5 -20.5t-23.5 -74v-911q0 -135 95 -214t243 -79q93 0 183 30.5t154.5 92t72.5 163.5q6 26 6 120v804q0 93 -113 93q-57 0 -57 47 q0 45 73 45q23 0 66 -8.5t65 -8.5q30 0 86 9.5t84 9.5q21 0 39.5 -12t18.5 -29q0 -29 -16 -38t-65.5 -15.5t-66 -39t-16.5 -73.5v-815q0 -151 -33.5 -228.5t-109.5 -135.5t-176 -85.5t-218 -27.5q-212 0 -351.5 104t-139.5 285v938q0 29 -15.5 48.5t-66.5 25.5t-62.5 17.5 t-11.5 29.5zM442 1802q0 27 29 43t78 16q66 0 147.5 -121.5t81.5 -165.5q0 -20 -23 -20q-26 0 -93 73.5t-95 92t-49 18.5q-76 0 -76 64z" />
<glyph unicode="&#xda;" horiz-adv-x="1366" d="M4 1391q0 20 18 32.5t41 12.5q29 0 83 -9.5t81 -9.5q32 0 93.5 10.5t93.5 10.5q34 0 56 -12t22 -35q0 -19 -10.5 -31.5t-54.5 -16t-67.5 -20.5t-23.5 -74v-911q0 -135 95 -214t243 -79q93 0 183 30.5t154.5 92t72.5 163.5q6 26 6 120v804q0 93 -113 93q-57 0 -57 47 q0 45 73 45q23 0 66 -8.5t65 -8.5q30 0 86 9.5t84 9.5q21 0 39.5 -12t18.5 -29q0 -29 -16 -38t-65.5 -15.5t-66 -39t-16.5 -73.5v-815q0 -151 -33.5 -228.5t-109.5 -135.5t-176 -85.5t-218 -27.5q-212 0 -351.5 104t-139.5 285v938q0 29 -15.5 48.5t-66.5 25.5t-62.5 17.5 t-11.5 29.5zM684 1574q0 44 81.5 165.5t147.5 121.5q49 0 78 -16t29 -43q0 -64 -76 -64q-21 0 -49 -18.5t-95 -92t-93 -73.5q-23 0 -23 20z" />
<glyph unicode="&#xdb;" horiz-adv-x="1366" d="M4 1391q0 20 18 32.5t41 12.5q29 0 83 -9.5t81 -9.5q32 0 93.5 10.5t93.5 10.5q34 0 56 -12t22 -35q0 -19 -10.5 -31.5t-54.5 -16t-67.5 -20.5t-23.5 -74v-911q0 -135 95 -214t243 -79q93 0 183 30.5t154.5 92t72.5 163.5q6 26 6 120v804q0 93 -113 93q-57 0 -57 47 q0 45 73 45q23 0 66 -8.5t65 -8.5q30 0 86 9.5t84 9.5q21 0 39.5 -12t18.5 -29q0 -29 -16 -38t-65.5 -15.5t-66 -39t-16.5 -73.5v-815q0 -151 -33.5 -228.5t-109.5 -135.5t-176 -85.5t-218 -27.5q-212 0 -351.5 104t-139.5 285v938q0 29 -15.5 48.5t-66.5 25.5t-62.5 17.5 t-11.5 29.5zM433 1574q0 19 54.5 83t77.5 96t65.5 69t64.5 37t64 -36.5t65 -69t78 -96.5t55 -83q0 -20 -22 -20q-28 0 -95 73.5t-95.5 92t-49.5 18.5t-49 -18.5t-95 -92t-94 -73.5q-24 0 -24 20z" />
<glyph unicode="&#xdc;" horiz-adv-x="1366" d="M4 1391q0 20 18 32.5t41 12.5q29 0 83 -9.5t81 -9.5q32 0 93.5 10.5t93.5 10.5q34 0 56 -12t22 -35q0 -19 -10.5 -31.5t-54.5 -16t-67.5 -20.5t-23.5 -74v-911q0 -135 95 -214t243 -79q93 0 183 30.5t154.5 92t72.5 163.5q6 26 6 120v804q0 93 -113 93q-57 0 -57 47 q0 45 73 45q23 0 66 -8.5t65 -8.5q30 0 86 9.5t84 9.5q21 0 39.5 -12t18.5 -29q0 -29 -16 -38t-65.5 -15.5t-66 -39t-16.5 -73.5v-815q0 -151 -33.5 -228.5t-109.5 -135.5t-176 -85.5t-218 -27.5q-212 0 -351.5 104t-139.5 285v938q0 29 -15.5 48.5t-66.5 25.5t-62.5 17.5 t-11.5 29.5zM424 1647q0 37 29.5 64t67.5 27q37 0 64.5 -25.5t27.5 -68.5q0 -42 -26.5 -66t-61.5 -24q-33 0 -67 28t-34 65zM799 1647q0 36 29 63.5t65 27.5q38 0 67.5 -26t29.5 -72q0 -39 -27.5 -62.5t-62.5 -23.5q-33 0 -67 28t-34 65z" />
<glyph unicode="&#xdd;" horiz-adv-x="1331" d="M-20 1391q0 47 67 47q34 0 100.5 -9.5t100.5 -9.5q28 0 85.5 9.5t86.5 9.5q98 0 98 -47q0 -19 -12.5 -30.5t-56 -16.5t-54 -13.5t-10.5 -21.5q0 -34 161 -249q22 -30 102 -145.5t85 -115.5q9 4 19 20l25 41q257 410 257 457q0 14 -10 22t-53.5 10t-56.5 14t-13 32 q0 22 25 34.5t55 12.5q26 0 79 -9.5t81 -9.5q25 0 72.5 8.5t70.5 8.5q25 0 46.5 -12t21.5 -31q0 -49 -74 -49q-51 0 -91 -25t-85 -102l-52 -86q-280 -460 -280 -498v-428q0 -99 13.5 -121t55 -32t50 -20t8.5 -24q0 -20 -16 -33.5t-37 -13.5q-26 0 -74.5 9.5t-75.5 9.5 q-25 0 -71.5 -9.5t-69.5 -9.5q-32 0 -56 12t-24 33q0 17 9 29.5t45 19t49.5 20.5t15.5 29t2 74v480q0 21 -12 38l-363 517q-48 67 -81 95.5t-89 28.5q-69 0 -69 50zM709 1574q0 44 81.5 165.5t147.5 121.5q49 0 78 -16t29 -43q0 -64 -76 -64q-21 0 -49 -18.5t-95 -92 t-93 -73.5q-23 0 -23 20z" />
<glyph unicode="&#xde;" horiz-adv-x="997" d="M31 31q0 21 12 28t56.5 14t60.5 42t16 78l2 1038q0 37 -14 66.5t-56.5 41t-58.5 22.5t-16 38q0 13 12 24t33 11q41 0 98.5 -10.5t89.5 -10.5q34 0 83.5 9.5t94.5 9.5q50 0 50 -41q0 -25 -12 -33t-44.5 -15t-49.5 -20.5t-26.5 -48t-9.5 -103.5q0 -34 2 -92q65 8 146 8 q236 0 362.5 -108.5t126.5 -257.5q0 -118 -58.5 -181t-162 -112t-270.5 -49q-97 0 -97 57q0 15 13.5 25t36.5 10q5 0 33 -2t51 -2q108 0 178.5 66.5t70.5 187.5q0 113 -87 199t-234 86q-58 0 -109 -52q4 -298 4 -510l-4 -284q0 -45 20 -61.5t59 -26.5t49 -24t10 -32 q0 -36 -62 -36q-42 0 -94 10t-70 10q-30 0 -83.5 -8t-76.5 -8q-37 0 -56 13t-19 34z" />
<glyph unicode="&#xdf;" horiz-adv-x="1094" d="M20 629q0 39 70 39q25 0 48 -3t28 -3q12 0 12 12v293q0 110 22.5 182t77 136t133 106.5t134.5 42.5q77 0 181.5 -65.5t170.5 -173t66 -230.5q0 -59 -38.5 -123t-137 -144t-114.5 -101t-16 -36q0 -23 21.5 -47t137.5 -85t157 -119.5t41 -123.5q0 -101 -85 -161t-218 -60 q-66 0 -144 41.5t-78 76.5q0 12 10.5 22t21.5 10q13 0 44 -19q78 -47 156 -47q53 0 90 35t37 90q0 36 -24.5 67.5t-136.5 84.5t-145.5 103.5t-33.5 109.5q0 14 13.5 32.5t105.5 91t130 145t38 144.5q0 69 -56 154.5t-133.5 148t-120.5 62.5q-83 0 -116 -74.5t-33 -245.5 v-837q0 -32 19 -60t74 -54.5t65 -37.5t10 -23q0 -10 -7.5 -24t-22.5 -14q-11 0 -44 12q-92 35 -176 35q-32 0 -90.5 -10.5t-73.5 -10.5q-63 0 -63 43q0 14 9 23t52 14.5t63 19t23.5 34t3.5 86.5v321q0 72 -89 72q-69 0 -69 43z" />
<glyph unicode="&#xe0;" horiz-adv-x="942" d="M29 248q0 104 99.5 184t256.5 80q53 0 116.5 -29.5t63.5 -60.5q0 -15 -13 -24t-32 -9q-13 0 -51 18.5t-78 18.5q-82 0 -136 -48.5t-54 -129.5q0 -94 62 -144.5t143 -50.5q73 0 134.5 48t61.5 128v271q0 61 -40.5 99t-108.5 38q-87 0 -169 -55q-28 -19 -38 -19 q-24 0 -41 12.5t-17 32.5q0 49 89.5 83t195.5 34q131 0 211 -66t80 -157v-336q0 -72 96 -100q24 -7 35.5 -16t11.5 -34q0 -13 -15.5 -22.5t-33.5 -9.5q-19 0 -51.5 9t-52.5 9q-23 0 -58 -9t-47 -9q-14 0 -27.5 10t-13.5 20q0 16 -10 16q-7 0 -18 -7q-113 -70 -244 -70 q-62 0 -138.5 32t-122.5 98.5t-46 164.5zM213 1176q0 27 29 43t78 16q66 0 147.5 -121.5t81.5 -165.5q0 -20 -23 -20q-26 0 -93 73.5t-95 92t-49 18.5q-76 0 -76 64z" />
<glyph unicode="&#xe1;" horiz-adv-x="942" d="M29 248q0 104 99.5 184t256.5 80q53 0 116.5 -29.5t63.5 -60.5q0 -15 -13 -24t-32 -9q-13 0 -51 18.5t-78 18.5q-82 0 -136 -48.5t-54 -129.5q0 -94 62 -144.5t143 -50.5q73 0 134.5 48t61.5 128v271q0 61 -40.5 99t-108.5 38q-87 0 -169 -55q-28 -19 -38 -19 q-24 0 -41 12.5t-17 32.5q0 49 89.5 83t195.5 34q131 0 211 -66t80 -157v-336q0 -72 96 -100q24 -7 35.5 -16t11.5 -34q0 -13 -15.5 -22.5t-33.5 -9.5q-19 0 -51.5 9t-52.5 9q-23 0 -58 -9t-47 -9q-14 0 -27.5 10t-13.5 20q0 16 -10 16q-7 0 -18 -7q-113 -70 -244 -70 q-62 0 -138.5 32t-122.5 98.5t-46 164.5zM373 948q0 44 81.5 165.5t147.5 121.5q49 0 78 -16t29 -43q0 -64 -76 -64q-21 0 -49 -18.5t-95 -92t-93 -73.5q-23 0 -23 20z" />
<glyph unicode="&#xe2;" horiz-adv-x="942" d="M29 248q0 104 99.5 184t256.5 80q53 0 116.5 -29.5t63.5 -60.5q0 -15 -13 -24t-32 -9q-13 0 -51 18.5t-78 18.5q-82 0 -136 -48.5t-54 -129.5q0 -94 62 -144.5t143 -50.5q73 0 134.5 48t61.5 128v271q0 61 -40.5 99t-108.5 38q-87 0 -169 -55q-28 -19 -38 -19 q-24 0 -41 12.5t-17 32.5q0 49 89.5 83t195.5 34q131 0 211 -66t80 -157v-336q0 -72 96 -100q24 -7 35.5 -16t11.5 -34q0 -13 -15.5 -22.5t-33.5 -9.5q-19 0 -51.5 9t-52.5 9q-23 0 -58 -9t-47 -9q-14 0 -27.5 10t-13.5 20q0 16 -10 16q-7 0 -18 -7q-113 -70 -244 -70 q-62 0 -138.5 32t-122.5 98.5t-46 164.5zM182 948q0 19 54.5 83t77.5 96t65.5 69t64.5 37t64 -36.5t65 -69t78 -96.5t55 -83q0 -20 -22 -20q-28 0 -95 73.5t-95.5 92t-49.5 18.5t-49 -18.5t-95 -92t-94 -73.5q-24 0 -24 20z" />
<glyph unicode="&#xe3;" horiz-adv-x="942" d="M29 248q0 104 99.5 184t256.5 80q53 0 116.5 -29.5t63.5 -60.5q0 -15 -13 -24t-32 -9q-13 0 -51 18.5t-78 18.5q-82 0 -136 -48.5t-54 -129.5q0 -94 62 -144.5t143 -50.5q73 0 134.5 48t61.5 128v271q0 61 -40.5 99t-108.5 38q-87 0 -169 -55q-28 -19 -38 -19 q-24 0 -41 12.5t-17 32.5q0 49 89.5 83t195.5 34q131 0 211 -66t80 -157v-336q0 -72 96 -100q24 -7 35.5 -16t11.5 -34q0 -13 -15.5 -22.5t-33.5 -9.5q-19 0 -51.5 9t-52.5 9q-23 0 -58 -9t-47 -9q-14 0 -27.5 10t-13.5 20q0 16 -10 16q-7 0 -18 -7q-113 -70 -244 -70 q-62 0 -138.5 32t-122.5 98.5t-46 164.5zM136 934q0 18 49 71t75.5 103.5t44 63t36.5 12.5q40 0 82 -16t87.5 -57t55.5 -38q21 0 46.5 12.5t83 63.5t83.5 51q25 0 25 -20q0 -18 -49 -71.5t-75.5 -103.5t-44 -62.5t-36.5 -12.5q-40 0 -81.5 15t-86.5 55t-57 40 q-21 0 -46.5 -12.5t-83 -63.5t-83.5 -51q-25 0 -25 21z" />
<glyph unicode="&#xe4;" horiz-adv-x="942" d="M29 248q0 104 99.5 184t256.5 80q53 0 116.5 -29.5t63.5 -60.5q0 -15 -13 -24t-32 -9q-13 0 -51 18.5t-78 18.5q-82 0 -136 -48.5t-54 -129.5q0 -94 62 -144.5t143 -50.5q73 0 134.5 48t61.5 128v271q0 61 -40.5 99t-108.5 38q-87 0 -169 -55q-28 -19 -38 -19 q-24 0 -41 12.5t-17 32.5q0 49 89.5 83t195.5 34q131 0 211 -66t80 -157v-336q0 -72 96 -100q24 -7 35.5 -16t11.5 -34q0 -13 -15.5 -22.5t-33.5 -9.5q-19 0 -51.5 9t-52.5 9q-23 0 -58 -9t-47 -9q-14 0 -27.5 10t-13.5 20q0 16 -10 16q-7 0 -18 -7q-113 -70 -244 -70 q-62 0 -138.5 32t-122.5 98.5t-46 164.5zM147 1021q0 37 29.5 64t67.5 27q37 0 64.5 -25.5t27.5 -68.5q0 -42 -26.5 -66t-61.5 -24q-33 0 -67 28t-34 65zM522 1021q0 36 29 63.5t65 27.5q38 0 67.5 -26t29.5 -72q0 -39 -27.5 -62.5t-62.5 -23.5q-33 0 -67 28t-34 65z" />
<glyph unicode="&#xe5;" horiz-adv-x="942" d="M29 248q0 104 99.5 184t256.5 80q53 0 116.5 -29.5t63.5 -60.5q0 -15 -13 -24t-32 -9q-13 0 -51 18.5t-78 18.5q-82 0 -136 -48.5t-54 -129.5q0 -94 62 -144.5t143 -50.5q73 0 134.5 48t61.5 128v271q0 61 -40.5 99t-108.5 38q-87 0 -169 -55q-28 -19 -38 -19 q-24 0 -41 12.5t-17 32.5q0 49 89.5 83t195.5 34q131 0 211 -66t80 -157v-336q0 -72 96 -100q24 -7 35.5 -16t11.5 -34q0 -13 -15.5 -22.5t-33.5 -9.5q-19 0 -51.5 9t-52.5 9q-23 0 -58 -9t-47 -9q-14 0 -27.5 10t-13.5 20q0 16 -10 16q-7 0 -18 -7q-113 -70 -244 -70 q-62 0 -138.5 32t-122.5 98.5t-46 164.5zM213 1147q0 83 59.5 149t159.5 66q93 0 156 -60t63 -169q0 -94 -82 -153.5t-141 -59.5q-92 0 -153.5 64.5t-61.5 162.5zM317 1147q0 -148 113 -148q49 0 82 33.5t33 97.5q0 72 -31 110t-82 38q-54 0 -84.5 -38.5t-30.5 -92.5z" />
<glyph unicode="&#xe6;" horiz-adv-x="1466" d="M29 248q0 104 99.5 184t256.5 80q53 0 116.5 -29.5t63.5 -60.5q0 -15 -13 -24t-32 -9q-13 0 -51 18.5t-78 18.5q-82 0 -136 -48.5t-54 -129.5q0 -94 62 -144.5t143 -50.5q73 0 134.5 48t61.5 128v271q0 61 -40.5 99t-108.5 38q-87 0 -169 -55q-28 -19 -38 -19 q-24 0 -41 12.5t-17 32.5q0 49 89.5 83t195.5 34q179 0 260 -113q130 105 289 105q209 0 313.5 -107t104.5 -256q0 -32 -16 -39.5t-60 -7.5h-459q-55 0 -55 41q0 39 57 39h320q22 0 30.5 8t8.5 29q0 77 -60 144t-180 67q-82 0 -171 -79t-89 -224q0 -106 94 -190.5t209 -84.5 q89 0 191 55q38 21 51 21q17 0 28 -10t11 -25q0 -36 -110.5 -88.5t-227.5 -52.5q-201 0 -328 160q-135 -164 -348 -164q-62 0 -138.5 32t-122.5 98.5t-46 164.5z" />
<glyph unicode="&#xe7;" horiz-adv-x="829" d="M29 348q0 149 123 262t294 113q92 0 209 -38t117 -69q0 -56 6 -91t6 -40q0 -45 -41 -45q-31 0 -48.5 60t-73.5 95.5t-138 35.5q-103 0 -191.5 -76t-88.5 -215q0 -128 99 -209.5t206 -81.5q39 0 81 10t93.5 41t73.5 31q28 0 28 -47q0 -30 -101 -77.5t-212 -47.5 q-36 0 -53 2q-15 -27 -15 -45q0 -30 37 -43.5t127 -13.5q44 0 71.5 -29.5t27.5 -73.5q0 -108 -232 -108q-88 0 -151.5 27.5t-63.5 53.5q0 8 9 16.5t20 8.5q9 0 35 -11q79 -32 166 -32q59 0 59 39q0 25 -20 30t-78 5q-81 0 -107.5 28.5t-26.5 80.5q0 49 27 94 q-129 45 -201.5 141t-72.5 219z" />
<glyph unicode="&#xe8;" horiz-adv-x="895" d="M29 356q0 149 129.5 255t290.5 106q209 0 313 -107t104 -256q0 -32 -16 -39.5t-59 -7.5h-459q-56 0 -56 41q0 39 58 39h319q23 0 31 8t8 29q0 77 -59.5 144t-179.5 67q-83 0 -171.5 -79t-88.5 -224q0 -106 93.5 -190.5t209.5 -84.5q88 0 190 55q39 21 51 21 q18 0 28.5 -10t10.5 -25q0 -36 -110.5 -88.5t-227.5 -52.5q-173 0 -291 118t-118 281zM225 1176q0 27 29 43t78 16q66 0 147.5 -121.5t81.5 -165.5q0 -20 -23 -20q-26 0 -93 73.5t-95 92t-49 18.5q-76 0 -76 64z" />
<glyph unicode="&#xe9;" horiz-adv-x="895" d="M29 356q0 149 129.5 255t290.5 106q209 0 313 -107t104 -256q0 -32 -16 -39.5t-59 -7.5h-459q-56 0 -56 41q0 39 58 39h319q23 0 31 8t8 29q0 77 -59.5 144t-179.5 67q-83 0 -171.5 -79t-88.5 -224q0 -106 93.5 -190.5t209.5 -84.5q88 0 190 55q39 21 51 21 q18 0 28.5 -10t10.5 -25q0 -36 -110.5 -88.5t-227.5 -52.5q-173 0 -291 118t-118 281zM324 948q0 44 81.5 165.5t147.5 121.5q49 0 78 -16t29 -43q0 -64 -76 -64q-21 0 -49 -18.5t-95 -92t-93 -73.5q-23 0 -23 20z" />
<glyph unicode="&#xea;" horiz-adv-x="895" d="M29 356q0 149 129.5 255t290.5 106q209 0 313 -107t104 -256q0 -32 -16 -39.5t-59 -7.5h-459q-56 0 -56 41q0 39 58 39h319q23 0 31 8t8 29q0 77 -59.5 144t-179.5 67q-83 0 -171.5 -79t-88.5 -224q0 -106 93.5 -190.5t209.5 -84.5q88 0 190 55q39 21 51 21 q18 0 28.5 -10t10.5 -25q0 -36 -110.5 -88.5t-227.5 -52.5q-173 0 -291 118t-118 281zM165 948q0 19 54.5 83t77.5 96t65.5 69t64.5 37t64 -36.5t65 -69t78 -96.5t55 -83q0 -20 -22 -20q-28 0 -95 73.5t-95.5 92t-49.5 18.5t-49 -18.5t-95 -92t-94 -73.5q-24 0 -24 20z" />
<glyph unicode="&#xeb;" horiz-adv-x="895" d="M29 356q0 149 129.5 255t290.5 106q209 0 313 -107t104 -256q0 -32 -16 -39.5t-59 -7.5h-459q-56 0 -56 41q0 39 58 39h319q23 0 31 8t8 29q0 77 -59.5 144t-179.5 67q-83 0 -171.5 -79t-88.5 -224q0 -106 93.5 -190.5t209.5 -84.5q88 0 190 55q39 21 51 21 q18 0 28.5 -10t10.5 -25q0 -36 -110.5 -88.5t-227.5 -52.5q-173 0 -291 118t-118 281zM147 1021q0 37 29.5 64t67.5 27q37 0 64.5 -25.5t27.5 -68.5q0 -42 -26.5 -66t-61.5 -24q-33 0 -67 28t-34 65zM522 1021q0 36 29 63.5t65 27.5q38 0 67.5 -26t29.5 -72 q0 -39 -27.5 -62.5t-62.5 -23.5q-33 0 -67 28t-34 65z" />
<glyph unicode="&#xec;" horiz-adv-x="522" d="M-8 1176q0 27 29 43t78 16q66 0 147.5 -121.5t81.5 -165.5q0 -20 -23 -20q-26 0 -93 73.5t-95 92t-49 18.5q-76 0 -76 64zM57 643q0 16 13 28.5t36 12.5q13 0 48.5 -7t48.5 -7t52.5 5t49.5 5q38 0 38 -67l-1 -50q2 -110 2 -182l-2 -221q0 -60 19 -74t47 -18t40.5 -12 t12.5 -33q0 -33 -58 -33q-42 0 -87 6t-62 6q-30 0 -73.5 -8t-65.5 -8q-26 0 -41 14t-15 33q0 13 8 22t44 14.5t52.5 23.5t16.5 100v327q0 37 -19 56.5t-44 19.5q-22 0 -41 12t-19 35z" />
<glyph unicode="&#xed;" horiz-adv-x="522" d="M57 643q0 16 13 28.5t36 12.5q13 0 48.5 -7t48.5 -7t52.5 5t49.5 5q38 0 38 -67l-1 -50q2 -110 2 -182l-2 -221q0 -60 19 -74t47 -18t40.5 -12t12.5 -33q0 -33 -58 -33q-42 0 -87 6t-62 6q-30 0 -73.5 -8t-65.5 -8q-26 0 -41 14t-15 33q0 13 8 22t44 14.5t52.5 23.5 t16.5 100v327q0 37 -19 56.5t-44 19.5q-22 0 -41 12t-19 35zM98 948q0 44 81.5 165.5t147.5 121.5q49 0 78 -16t29 -43q0 -64 -76 -64q-21 0 -49 -18.5t-95 -92t-93 -73.5q-23 0 -23 20z" />
<glyph unicode="&#xee;" horiz-adv-x="522" d="M-33 948q0 19 54.5 83t77.5 96t65.5 69t64.5 37t64 -36.5t65 -69t78 -96.5t55 -83q0 -20 -22 -20q-28 0 -95 73.5t-95.5 92t-49.5 18.5t-49 -18.5t-95 -92t-94 -73.5q-24 0 -24 20zM58 643q0 16 13 28.5t36 12.5q13 0 48.5 -7t48.5 -7t52.5 5t49.5 5q38 0 38 -67l-1 -50 q2 -110 2 -182l-2 -221q0 -60 19 -74t47 -18t40.5 -12t12.5 -33q0 -33 -58 -33q-42 0 -87 6t-62 6q-30 0 -73.5 -8t-65.5 -8q-26 0 -41 14t-15 33q0 13 8 22t44 14.5t52.5 23.5t16.5 100v327q0 37 -19 56.5t-44 19.5q-22 0 -41 12t-19 35z" />
<glyph unicode="&#xef;" horiz-adv-x="522" d="M-61 1021q0 37 29.5 64t67.5 27q37 0 64.5 -25.5t27.5 -68.5q0 -42 -26.5 -66t-61.5 -24q-33 0 -67 28t-34 65zM57 643q0 16 13 28.5t36 12.5q13 0 48.5 -7t48.5 -7t52.5 5t49.5 5q38 0 38 -67l-1 -50q2 -110 2 -182l-2 -221q0 -60 19 -74t47 -18t40.5 -12t12.5 -33 q0 -33 -58 -33q-42 0 -87 6t-62 6q-30 0 -73.5 -8t-65.5 -8q-26 0 -41 14t-15 33q0 13 8 22t44 14.5t52.5 23.5t16.5 100v327q0 37 -19 56.5t-44 19.5q-22 0 -41 12t-19 35zM314 1021q0 36 29 63.5t65 27.5q38 0 67.5 -26t29.5 -72q0 -39 -27.5 -62.5t-62.5 -23.5 q-33 0 -67 28t-34 65z" />
<glyph unicode="&#xf0;" horiz-adv-x="1014" d="M29 305q0 169 121.5 282t277.5 113q75 0 142 -33t67 -75q0 -13 -9.5 -22t-21.5 -9q-14 0 -60 24.5t-110 24.5q-100 0 -170.5 -89.5t-70.5 -207.5q0 -111 65.5 -195.5t171.5 -84.5q167 0 226 154.5t59 422.5q0 327 -178 545l-113 -117q-14 -14 -29 -14q-16 0 -28 15.5 t-12 33.5q0 15 10 25l116 116q-61 59 -125 90t-112 31q-7 0 -24 -2t-25 -2q-56 0 -56 39q0 45 86 45q179 0 340 -117l99 97q10 10 31 10q18 0 30.5 -8t12.5 -21q0 -16 -20 -35l-91 -92q248 -230 248 -610q0 -694 -463 -694q-150 0 -267.5 107.5t-117.5 252.5z" />
<glyph unicode="&#xf1;" horiz-adv-x="961" d="M55 29q0 16 9 26t39 12q34 2 42 10q23 24 29 42t6 74v327q0 37 -14.5 55.5t-60.5 26.5t-46 41q0 14 16 27.5t42 13.5q11 0 38.5 -7t45.5 -7q11 0 50.5 6t49.5 6q20 0 28 -16.5t9 -66.5q2 -83 2 -177l-6 -285q0 -31 5 -38t23.5 -18t47.5 -17t37 -16.5t8 -24.5 q0 -33 -52 -33q-36 0 -74 6t-75 6q-30 0 -77.5 -5t-70.5 -5q-51 0 -51 37zM185 934q0 18 49 71t75.5 103.5t44 63t36.5 12.5q40 0 82 -16t87.5 -57t55.5 -38q21 0 46.5 12.5t83 63.5t83.5 51q25 0 25 -20q0 -18 -49 -71.5t-75.5 -103.5t-44 -62.5t-36.5 -12.5 q-40 0 -81.5 15t-86.5 55t-57 40q-21 0 -46.5 -12.5t-83 -63.5t-83.5 -51q-25 0 -25 21zM369 514q0 35 92 107.5t180 72.5q52 0 90 -26.5t50.5 -66.5t12.5 -113l-1 -64v-289q0 -43 14.5 -56.5t52 -22t37.5 -31.5q0 -31 -37 -31q-7 0 -60 3t-89 3q-60 0 -101 -7t-53 -7 q-18 0 -33.5 12t-15.5 29q0 13 13 24.5t30 11.5q32 0 57 18.5t25 55.5q0 241 3 298.5t3 64.5q0 78 -72 78q-31 0 -88.5 -47.5t-81.5 -47.5q-8 0 -18 10t-10 21z" />
<glyph unicode="&#xf2;" horiz-adv-x="897" d="M29 338q0 152 109.5 266.5t316.5 114.5q166 0 289.5 -114t123.5 -263q0 -167 -118 -272t-316 -105q-156 0 -280.5 107t-124.5 266zM205 350q0 -137 71 -217t181 -80q115 0 183.5 83t68.5 210q0 125 -73.5 205t-186.5 80q-116 0 -180 -78.5t-64 -202.5zM219 1176 q0 27 29 43t78 16q66 0 147.5 -121.5t81.5 -165.5q0 -20 -23 -20q-26 0 -93 73.5t-95 92t-49 18.5q-76 0 -76 64z" />
<glyph unicode="&#xf3;" horiz-adv-x="897" d="M29 338q0 152 109.5 266.5t316.5 114.5q166 0 289.5 -114t123.5 -263q0 -167 -118 -272t-316 -105q-156 0 -280.5 107t-124.5 266zM205 350q0 -137 71 -217t181 -80q115 0 183.5 83t68.5 210q0 125 -73.5 205t-186.5 80q-116 0 -180 -78.5t-64 -202.5zM340 948 q0 44 81.5 165.5t147.5 121.5q49 0 78 -16t29 -43q0 -64 -76 -64q-21 0 -49 -18.5t-95 -92t-93 -73.5q-23 0 -23 20z" />
<glyph unicode="&#xf4;" horiz-adv-x="897" d="M29 338q0 152 109.5 266.5t316.5 114.5q166 0 289.5 -114t123.5 -263q0 -167 -118 -272t-316 -105q-156 0 -280.5 107t-124.5 266zM182 948q0 19 54.5 83t77.5 96t65.5 69t64.5 37t64 -36.5t65 -69t78 -96.5t55 -83q0 -20 -22 -20q-28 0 -95 73.5t-95.5 92t-49.5 18.5 t-49 -18.5t-95 -92t-94 -73.5q-24 0 -24 20zM205 350q0 -137 71 -217t181 -80q115 0 183.5 83t68.5 210q0 125 -73.5 205t-186.5 80q-116 0 -180 -78.5t-64 -202.5z" />
<glyph unicode="&#xf5;" horiz-adv-x="897" d="M29 338q0 152 109.5 266.5t316.5 114.5q166 0 289.5 -114t123.5 -263q0 -167 -118 -272t-316 -105q-156 0 -280.5 107t-124.5 266zM142 934q0 18 49 71t75.5 103.5t44 63t36.5 12.5q40 0 82 -16t87.5 -57t55.5 -38q21 0 46.5 12.5t83 63.5t83.5 51q25 0 25 -20 q0 -18 -49 -71.5t-75.5 -103.5t-44 -62.5t-36.5 -12.5q-40 0 -81.5 15t-86.5 55t-57 40q-21 0 -46.5 -12.5t-83 -63.5t-83.5 -51q-25 0 -25 21zM205 350q0 -137 71 -217t181 -80q115 0 183.5 83t68.5 210q0 125 -73.5 205t-186.5 80q-116 0 -180 -78.5t-64 -202.5z" />
<glyph unicode="&#xf6;" horiz-adv-x="897" d="M29 338q0 152 109.5 266.5t316.5 114.5q166 0 289.5 -114t123.5 -263q0 -167 -118 -272t-316 -105q-156 0 -280.5 107t-124.5 266zM166 1021q0 37 29.5 64t67.5 27q37 0 64.5 -25.5t27.5 -68.5q0 -42 -26.5 -66t-61.5 -24q-33 0 -67 28t-34 65zM205 350q0 -137 71 -217 t181 -80q115 0 183.5 83t68.5 210q0 125 -73.5 205t-186.5 80q-116 0 -180 -78.5t-64 -202.5zM541 1021q0 36 29 63.5t65 27.5q38 0 67.5 -26t29.5 -72q0 -39 -27.5 -62.5t-62.5 -23.5q-33 0 -67 28t-34 65z" />
<glyph unicode="&#xf7;" horiz-adv-x="1188" d="M127 541q0 12 12.5 33.5t22.5 47.5t24.5 36t59.5 10h672q84 0 99 12t34 12q22 0 22 -20q0 -13 -12.5 -34.5t-22.5 -47t-24 -35.5t-60 -10h-671q-85 0 -100 -12.5t-33 -12.5q-23 0 -23 21zM492 911q0 43 31 74t73 31q43 0 73.5 -29.5t30.5 -75.5t-30 -73t-70 -27 q-36 0 -72 30.5t-36 69.5zM496 297q0 42 31 73t73 31q43 0 74 -29t31 -75q0 -47 -30.5 -73.5t-70.5 -26.5q-36 0 -72 30.5t-36 69.5z" />
<glyph unicode="&#xf8;" horiz-adv-x="897" d="M27 -50q0 8 15 26l109 110q-106 107 -106 252q0 152 109.5 266.5t316.5 114.5q132 0 239 -74l51 55q27 33 45 33q89 -17 89 -28q0 -10 -22 -32l-93 -85q104 -113 104 -246q0 -167 -118 -272t-316 -105q-118 0 -229 68q-77 -84 -90.5 -95.5t-29.5 -11.5q-11 0 -36 6 q-38 5 -38 18zM221 350q0 -90 33 -162l161 162q154 153 217 219q-68 62 -167 62q-116 0 -180 -78.5t-64 -202.5zM303 121q68 -68 170 -68q115 0 183.5 83t68.5 210q0 85 -37 156q-199 -181 -385 -381z" />
<glyph unicode="&#xf9;" horiz-adv-x="997" d="M27 625q0 16 13.5 25t33.5 9q6 0 58.5 -8t88.5 -8q13 0 38.5 7.5t31.5 7.5q33 0 33 -136v-356q0 -49 37.5 -81t89.5 -32q32 0 75.5 25.5t63.5 25.5t20 -24q0 -28 -74.5 -71.5t-168.5 -43.5q-73 0 -127.5 45t-63 100t-8.5 412q0 48 -98 70q-43 9 -43 33zM195 1176 q0 27 29 43t78 16q66 0 147.5 -121.5t81.5 -165.5q0 -20 -23 -20q-26 0 -93 73.5t-95 92t-49 18.5q-76 0 -76 64zM506 635q0 37 57 37q15 0 60.5 -10.5t97.5 -10.5q14 0 35 4t26 4q27 0 27 -61q0 -461 8 -490.5t81 -47.5q38 -10 47 -18t9 -19q0 -13 -16.5 -24t-42.5 -11 q-11 0 -54 7t-61 7q-19 0 -46 -7t-36 -7q-22 0 -30 12t-10.5 59t-2.5 181v268q0 72 -78 83q-47 7 -59 17.5t-12 26.5z" />
<glyph unicode="&#xfa;" horiz-adv-x="997" d="M27 625q0 16 13.5 25t33.5 9q6 0 58.5 -8t88.5 -8q13 0 38.5 7.5t31.5 7.5q33 0 33 -136v-356q0 -49 37.5 -81t89.5 -32q32 0 75.5 25.5t63.5 25.5t20 -24q0 -28 -74.5 -71.5t-168.5 -43.5q-73 0 -127.5 45t-63 100t-8.5 412q0 48 -98 70q-43 9 -43 33zM385 948 q0 44 81.5 165.5t147.5 121.5q49 0 78 -16t29 -43q0 -64 -76 -64q-21 0 -49 -18.5t-95 -92t-93 -73.5q-23 0 -23 20zM506 635q0 37 57 37q15 0 60.5 -10.5t97.5 -10.5q14 0 35 4t26 4q27 0 27 -61q0 -461 8 -490.5t81 -47.5q38 -10 47 -18t9 -19q0 -13 -16.5 -24t-42.5 -11 q-11 0 -54 7t-61 7q-19 0 -46 -7t-36 -7q-22 0 -30 12t-10.5 59t-2.5 181v268q0 72 -78 83q-47 7 -59 17.5t-12 26.5z" />
<glyph unicode="&#xfb;" horiz-adv-x="997" d="M27 625q0 16 13.5 25t33.5 9q6 0 58.5 -8t88.5 -8q13 0 38.5 7.5t31.5 7.5q33 0 33 -136v-356q0 -49 37.5 -81t89.5 -32q32 0 75.5 25.5t63.5 25.5t20 -24q0 -28 -74.5 -71.5t-168.5 -43.5q-73 0 -127.5 45t-63 100t-8.5 412q0 48 -98 70q-43 9 -43 33zM188 948 q0 19 54.5 83t77.5 96t65.5 69t64.5 37t64 -36.5t65 -69t78 -96.5t55 -83q0 -20 -22 -20q-28 0 -95 73.5t-95.5 92t-49.5 18.5t-49 -18.5t-95 -92t-94 -73.5q-24 0 -24 20zM506 635q0 37 57 37q15 0 60.5 -10.5t97.5 -10.5q14 0 35 4t26 4q27 0 27 -61q0 -461 8 -490.5 t81 -47.5q38 -10 47 -18t9 -19q0 -13 -16.5 -24t-42.5 -11q-11 0 -54 7t-61 7q-19 0 -46 -7t-36 -7q-22 0 -30 12t-10.5 59t-2.5 181v268q0 72 -78 83q-47 7 -59 17.5t-12 26.5z" />
<glyph unicode="&#xfc;" horiz-adv-x="997" d="M27 625q0 16 13.5 25t33.5 9q6 0 58.5 -8t88.5 -8q13 0 38.5 7.5t31.5 7.5q33 0 33 -136v-356q0 -49 37.5 -81t89.5 -32q32 0 75.5 25.5t63.5 25.5t20 -24q0 -28 -74.5 -71.5t-168.5 -43.5q-73 0 -127.5 45t-63 100t-8.5 412q0 48 -98 70q-43 9 -43 33zM166 1021 q0 37 29.5 64t67.5 27q37 0 64.5 -25.5t27.5 -68.5q0 -42 -26.5 -66t-61.5 -24q-33 0 -67 28t-34 65zM506 635q0 37 57 37q15 0 60.5 -10.5t97.5 -10.5q14 0 35 4t26 4q27 0 27 -61q0 -461 8 -490.5t81 -47.5q38 -10 47 -18t9 -19q0 -13 -16.5 -24t-42.5 -11q-11 0 -54 7 t-61 7q-19 0 -46 -7t-36 -7q-22 0 -30 12t-10.5 59t-2.5 181v268q0 72 -78 83q-47 7 -59 17.5t-12 26.5zM541 1021q0 36 29 63.5t65 27.5q38 0 67.5 -26t29.5 -72q0 -39 -27.5 -62.5t-62.5 -23.5q-33 0 -67 28t-34 65z" />
<glyph unicode="&#xfd;" horiz-adv-x="989" d="M33 639q0 16 9 27.5t24 11.5q14 0 57 -9.5t55 -9.5q14 0 58 9.5t55 9.5q7 0 17 -7t11.5 -15t4 -139t2.5 -241q0 -84 6 -121.5t37.5 -61t83.5 -23.5q39 0 81 25.5t56 25.5q26 0 26 -25q0 -31 -80 -77t-159 -46q-54 0 -116 36.5t-77.5 91t-15.5 196.5l2 201q0 81 -72 96 q-42 8 -53.5 15.5t-11.5 29.5zM350 -338q0 8 8 17.5t19 9.5q8 0 32.5 -10.5t55.5 -10.5q56 0 109.5 37.5t69 103.5t15.5 197q0 470 -2.5 523t-74.5 64.5t-72 47.5q0 37 51 37q17 0 61.5 -6t73.5 -6q22 0 46 6t34 6q35 0 35 -49q0 -97 3 -283t3 -250q0 -224 -52 -320.5 t-111.5 -134.5t-145.5 -38q-73 0 -115.5 21t-42.5 38zM438 948q0 44 81.5 165.5t147.5 121.5q49 0 78 -16t29 -43q0 -64 -76 -64q-21 0 -49 -18.5t-95 -92t-93 -73.5q-23 0 -23 20z" />
<glyph unicode="&#xfe;" horiz-adv-x="1016" d="M25 1382q0 12 14.5 22.5t36.5 10.5q11 0 42.5 -6t53.5 -6q47 0 70 6t30 6q36 0 50.5 -19.5t13 -74t-1.5 -150.5v-895q0 -108 68 -171.5t159 -63.5q44 0 112.5 38.5t107 111.5t38.5 165q0 109 -66.5 194t-154.5 85q-53 0 -97.5 -19.5t-58.5 -19.5t-25 9t-11 22 q0 29 73.5 59.5t126.5 30.5q162 0 271.5 -103t109.5 -280q0 -137 -113 -252t-272 -115q-61 0 -115.5 16t-142.5 74q-8 0 -8 -51q0 -127 -17 -193.5t-58 -115.5t-80.5 -69.5t-76.5 -20.5q-55 0 -55 26q0 11 25 24q72 40 96 124q14 50 14 375l-6 1075q0 50 -23 71.5 t-63.5 30.5t-53.5 17.5t-13 31.5z" />
<glyph unicode="&#xff;" horiz-adv-x="989" d="M33 639q0 16 9 27.5t24 11.5q14 0 57 -9.5t55 -9.5q14 0 58 9.5t55 9.5q7 0 17 -7t11.5 -15t4 -139t2.5 -241q0 -84 6 -121.5t37.5 -61t83.5 -23.5q39 0 81 25.5t56 25.5q26 0 26 -25q0 -31 -80 -77t-159 -46q-54 0 -116 36.5t-77.5 91t-15.5 196.5l2 201q0 81 -72 96 q-42 8 -53.5 15.5t-11.5 29.5zM178 1021q0 37 29.5 64t67.5 27q37 0 64.5 -25.5t27.5 -68.5q0 -42 -26.5 -66t-61.5 -24q-33 0 -67 28t-34 65zM350 -338q0 8 8 17.5t19 9.5q8 0 32.5 -10.5t55.5 -10.5q56 0 109.5 37.5t69 103.5t15.5 197q0 470 -2.5 523t-74.5 64.5 t-72 47.5q0 37 51 37q17 0 61.5 -6t73.5 -6q22 0 46 6t34 6q35 0 35 -49q0 -97 3 -283t3 -250q0 -224 -52 -320.5t-111.5 -134.5t-145.5 -38q-73 0 -115.5 21t-42.5 38zM553 1021q0 36 29 63.5t65 27.5q38 0 67.5 -26t29.5 -72q0 -39 -27.5 -62.5t-62.5 -23.5q-33 0 -67 28 t-34 65z" />
<glyph unicode="&#x152;" horiz-adv-x="1978" d="M25 743q0 179 94 354t265.5 275.5t395.5 100.5q88 0 169 -12.5t98 -12.5h704q45 0 59.5 -19t20.5 -56t6 -122q0 -39 -33 -39q-18 0 -32.5 11.5t-32 58t-36.5 59.5t-42 13h-275q-68 0 -86 -19.5t-18 -58.5v-211q0 -74 19.5 -97.5t80.5 -23.5h267q33 0 50 26.5t17 59.5 q0 17 14 28.5t33 11.5q20 0 32.5 -13t12.5 -37q0 -21 -6 -60.5t-6 -64.5q0 -38 8 -80t8 -51q0 -23 -14.5 -38t-34.5 -15q-21 0 -35 18.5t-14 50.5q0 38 -20 54t-66 16h-264q-36 0 -59 -14.5t-23 -42.5v-639q0 -50 25.5 -67t87.5 -17h344q51 0 77.5 27t26.5 69q0 38 17 60.5 t40 22.5t38.5 -21t15.5 -56t3 -75.5t3 -55.5q0 -41 -11.5 -53.5t-60.5 -12.5h-809q-52 0 -141 -9t-170 -9q-319 0 -531 222t-212 564zM233 743q0 -690 541 -690q162 0 247 32t85 81v915q0 147 -84 224t-242 77q-257 0 -402 -189.5t-145 -449.5z" />
<glyph unicode="&#x153;" horiz-adv-x="1583" d="M29 338q0 152 109.5 266.5t316.5 114.5q93 0 180.5 -41t150.5 -115q64 72 156 113t184 41q210 0 314 -107t104 -256q0 -32 -16 -39.5t-60 -7.5h-458q-56 0 -56 41q0 39 58 39h319q23 0 31 8t8 29q0 77 -59.5 144t-180.5 67q-82 0 -171 -79t-89 -224q0 -106 94 -190.5 t210 -84.5q88 0 190 55q39 21 51 21q18 0 28.5 -10t10.5 -25q0 -36 -110.5 -88.5t-227.5 -52.5q-199 0 -325 156q-121 -148 -357 -148q-156 0 -280.5 107t-124.5 266zM205 350q0 -137 71 -217t181 -80q115 0 183.5 83t68.5 210q0 125 -73.5 205t-186.5 80q-116 0 -180 -78.5 t-64 -202.5z" />
<glyph unicode="&#x178;" horiz-adv-x="1331" d="M-20 1391q0 47 67 47q34 0 100.5 -9.5t100.5 -9.5q28 0 85.5 9.5t86.5 9.5q98 0 98 -47q0 -19 -12.5 -30.5t-56 -16.5t-54 -13.5t-10.5 -21.5q0 -34 161 -249q22 -30 102 -145.5t85 -115.5q9 4 19 20l25 41q257 410 257 457q0 14 -10 22t-53.5 10t-56.5 14t-13 32 q0 22 25 34.5t55 12.5q26 0 79 -9.5t81 -9.5q25 0 72.5 8.5t70.5 8.5q25 0 46.5 -12t21.5 -31q0 -49 -74 -49q-51 0 -91 -25t-85 -102l-52 -86q-280 -460 -280 -498v-428q0 -99 13.5 -121t55 -32t50 -20t8.5 -24q0 -20 -16 -33.5t-37 -13.5q-26 0 -74.5 9.5t-75.5 9.5 q-25 0 -71.5 -9.5t-69.5 -9.5q-32 0 -56 12t-24 33q0 17 9 29.5t45 19t49.5 20.5t15.5 29t2 74v480q0 21 -12 38l-363 517q-48 67 -81 95.5t-89 28.5q-69 0 -69 50zM418 1647q0 37 29.5 64t67.5 27q37 0 64.5 -25.5t27.5 -68.5q0 -42 -26.5 -66t-61.5 -24q-33 0 -67 28 t-34 65zM793 1647q0 36 29 63.5t65 27.5q38 0 67.5 -26t29.5 -72q0 -39 -27.5 -62.5t-62.5 -23.5q-33 0 -67 28t-34 65z" />
<glyph unicode="&#x2c6;" d="M250 948q0 19 54.5 83t77.5 96t65.5 69t64.5 37t64 -36.5t65 -69t78 -96.5t55 -83q0 -20 -22 -20q-28 0 -95 73.5t-95.5 92t-49.5 18.5t-49 -18.5t-95 -92t-94 -73.5q-24 0 -24 20z" />
<glyph unicode="&#x2dc;" d="M178 934q0 18 49 71t75.5 103.5t44 63t36.5 12.5q40 0 82 -16t87.5 -57t55.5 -38q21 0 46.5 12.5t83 63.5t83.5 51q25 0 25 -20q0 -18 -49 -71.5t-75.5 -103.5t-44 -62.5t-36.5 -12.5q-40 0 -81.5 15t-86.5 55t-57 40q-21 0 -46.5 -12.5t-83 -63.5t-83.5 -51 q-25 0 -25 21z" />
<glyph unicode="&#x2000;" horiz-adv-x="930" />
<glyph unicode="&#x2001;" horiz-adv-x="1861" />
<glyph unicode="&#x2002;" horiz-adv-x="930" />
<glyph unicode="&#x2003;" horiz-adv-x="1861" />
<glyph unicode="&#x2004;" horiz-adv-x="620" />
<glyph unicode="&#x2005;" horiz-adv-x="465" />
<glyph unicode="&#x2006;" horiz-adv-x="310" />
<glyph unicode="&#x2007;" horiz-adv-x="310" />
<glyph unicode="&#x2008;" horiz-adv-x="232" />
<glyph unicode="&#x2009;" horiz-adv-x="372" />
<glyph unicode="&#x200a;" horiz-adv-x="103" />
<glyph unicode="&#x2010;" horiz-adv-x="821" d="M33 223q0 16 34 58.5t48.5 82t29 50t62.5 10.5h375q31 0 60 13.5t60 54t48 40.5q10 0 19 -9t9 -21q0 -22 -23.5 -52t-42.5 -83t-31.5 -59.5t-70.5 -6.5h-366q-36 0 -71 -12t-72 -55q-27 -31 -46 -31q-22 0 -22 20z" />
<glyph unicode="&#x2011;" horiz-adv-x="821" d="M33 223q0 16 34 58.5t48.5 82t29 50t62.5 10.5h375q31 0 60 13.5t60 54t48 40.5q10 0 19 -9t9 -21q0 -22 -23.5 -52t-42.5 -83t-31.5 -59.5t-70.5 -6.5h-366q-36 0 -71 -12t-72 -55q-27 -31 -46 -31q-22 0 -22 20z" />
<glyph unicode="&#x2012;" horiz-adv-x="821" d="M33 223q0 16 34 58.5t48.5 82t29 50t62.5 10.5h375q31 0 60 13.5t60 54t48 40.5q10 0 19 -9t9 -21q0 -22 -23.5 -52t-42.5 -83t-31.5 -59.5t-70.5 -6.5h-366q-36 0 -71 -12t-72 -55q-27 -31 -46 -31q-22 0 -22 20z" />
<glyph unicode="&#x2013;" d="M39 297q0 12 12.5 33.5t22.5 47.5t24 36t60 10h671q85 0 100 12.5t34 12.5q22 0 22 -21q0 -12 -12.5 -33.5t-22.5 -47.5t-24 -36t-60 -10h-671q-85 0 -100 -12.5t-34 -12.5q-22 0 -22 21z" />
<glyph unicode="&#x2014;" horiz-adv-x="2048" d="M45 297q0 12 12.5 33.5t22.5 47.5t24.5 36t59.5 10h1685q85 0 100 12.5t33 12.5q23 0 23 -21q0 -12 -12.5 -33.5t-22.5 -47.5t-24.5 -36t-59.5 -10h-1685q-85 0 -100 -12.5t-33 -12.5q-23 0 -23 21z" />
<glyph unicode="&#x2018;" horiz-adv-x="276" d="M33 1257q0 69 69 189.5t107 120.5q16 0 16 -23q0 -6 -43 -85t-43 -122q0 -15 28.5 -23.5t52.5 -38.5t24 -67q0 -40 -28 -63t-73 -23q-110 0 -110 135z" />
<glyph unicode="&#x2019;" horiz-adv-x="307" d="M49 1438q0 44 31.5 72t81.5 28q45 0 78.5 -46t33.5 -116q0 -90 -48.5 -170t-69.5 -80q-8 0 -14.5 7.5t-6.5 15.5q0 12 24.5 62t24.5 94q0 20 -30 28q-105 26 -105 105z" />
<glyph unicode="&#x201a;" horiz-adv-x="307" d="M49 111q0 44 31.5 72t81.5 28q45 0 78.5 -46t33.5 -116q0 -91 -48.5 -170.5t-69.5 -79.5q-8 0 -14.5 7.5t-6.5 15.5q0 12 24.5 62t24.5 93q0 21 -30 28q-105 26 -105 106z" />
<glyph unicode="&#x201c;" horiz-adv-x="659" d="M33 1257q0 69 69 189.5t107 120.5q16 0 16 -23q0 -6 -43 -85t-43 -122q0 -15 28.5 -23.5t52.5 -38.5t24 -67q0 -40 -28 -63t-73 -23q-110 0 -110 135zM408 1284q0 69 60.5 191t90.5 122q7 0 14 -8t7 -16q-43 -84 -63.5 -141t-20.5 -80q0 -22 40 -33q91 -24 91 -100 q0 -47 -26 -73t-73 -26q-46 0 -83 47.5t-37 116.5z" />
<glyph unicode="&#x201d;" horiz-adv-x="698" d="M57 1438q0 44 31.5 72t81.5 28q45 0 78.5 -46t33.5 -116q0 -91 -48.5 -170.5t-69.5 -79.5q-8 0 -14.5 7.5t-6.5 15.5q0 12 24.5 62t24.5 93q0 21 -30 28q-105 26 -105 106zM364 1438q0 44 32 72t81 28q45 0 79 -46t34 -116q0 -91 -49 -170.5t-70 -79.5q-8 0 -14.5 7.5 t-6.5 15.5q0 12 25 62t25 93q0 21 -31 28q-105 26 -105 106z" />
<glyph unicode="&#x201e;" horiz-adv-x="633" d="M49 111q0 44 31.5 72t81.5 28q45 0 78.5 -46t33.5 -116q0 -91 -48.5 -170.5t-69.5 -79.5q-8 0 -14.5 7.5t-6.5 15.5q0 12 24.5 62t24.5 93q0 21 -30 28q-105 26 -105 106zM356 111q0 44 32 72t81 28q45 0 79 -46t34 -116q0 -91 -49 -170.5t-70 -79.5q-8 0 -14.5 7.5 t-6.5 15.5q0 12 25 62t25 93q0 21 -31 28q-105 26 -105 106z" />
<glyph unicode="&#x2022;" horiz-adv-x="440" d="M55 627q0 70 49 119t119 49q71 0 119.5 -49t48.5 -119q0 -71 -48.5 -119.5t-119.5 -48.5q-70 0 -119 48.5t-49 119.5z" />
<glyph unicode="&#x2026;" horiz-adv-x="829" d="M33 80q0 42 31 73t73 31q43 0 74 -29t31 -75q0 -47 -30 -73.5t-71 -26.5q-36 0 -72 30.5t-36 69.5zM309 80q0 42 31.5 73t73.5 31q43 0 73.5 -29t30.5 -75q0 -47 -30 -73.5t-70 -26.5q-36 0 -72.5 30.5t-36.5 69.5zM586 80q0 42 31 73t73 31q43 0 74 -29t31 -75 q0 -47 -30.5 -73.5t-70.5 -26.5q-36 0 -72 30.5t-36 69.5z" />
<glyph unicode="&#x202f;" horiz-adv-x="372" />
<glyph unicode="&#x2039;" horiz-adv-x="819" d="M156 364q0 21 31 50l297 280q31 30 60 30q33 0 85.5 -25t52.5 -38l-14 -8q-64 -16 -123 -73l-170 -166q-31 -32 -31 -51t27 -46l174 -172q58 -57 123 -73l14 -8q0 -13 -52.5 -38t-85.5 -25q-29 0 -60 30l-297 282q-31 30 -31 51z" />
<glyph unicode="&#x203a;" horiz-adv-x="819" d="M143 64l14 8q65 17 122 73l175 172q27 28 27 46q0 20 -32 51l-170 166q-58 57 -122 73l-14 8q0 13 52.5 38t85.5 25q28 0 60 -30l297 -280q29 -28 29 -51q0 -22 -31 -52l-295 -280q-31 -30 -60 -30q-33 0 -85.5 25t-52.5 38z" />
<glyph unicode="&#x205f;" horiz-adv-x="465" />
<glyph unicode="&#x20ac;" horiz-adv-x="1370" d="M0 497l30 102h64q-9 65 -9 136q0 29 2 62h-87l30 102h69q45 260 225 413.5t452 153.5q271 0 436 -125q68 -52 68 -79q0 -20 -2 -59t-2 -58q0 -11 7 -38t7 -44q0 -33 -41 -33q-28 0 -64 79q-65 144 -153 202q-91 61 -250 61q-405 0 -471 -473h622l-30 -102h-601 q-2 -40 -2 -68q0 -69 6 -130h537l-30 -102h-492q87 -436 490 -436q228 0 460 212q29 27 46 27q37 0 37 -32q0 -35 -80 -111q-196 -186 -466 -186q-268 0 -453 145q-179 140 -241 381h-114z" />
<glyph unicode="&#x2122;" horiz-adv-x="1106" d="M39 1399q0 84 29 84l188 1q61 -1 123 -1q14 0 22.5 -25.5t8.5 -48.5t-15 -23q-12 0 -21 21.5t-21.5 31t-41.5 9.5q-51 0 -51 -49v-383q0 -19 28.5 -27.5t28.5 -15.5q0 -19 -22 -19q-11 0 -37.5 3.5t-34.5 3.5q-12 0 -31 -3.5t-28 -3.5q-15 0 -23 6t-8 13q0 12 21 17 t27.5 12t6.5 26v385q0 35 -51 35q-61 0 -61 -35q0 -24 -19 -24q-18 0 -18 10zM440 973q0 16 33 16q39 0 39 43v377q0 16 -11.5 26.5t-23.5 10.5q-37 0 -37 20q0 6 8 10.5t17 4.5q8 0 20.5 -3t22.5 -3q7 0 17.5 3t17.5 3q9 0 15 -7t17 -29l166 -300l8 -9l48 78l133 229 q22 38 47 38q6 0 18.5 -2t20.5 -2q6 0 28 4q21 0 21 -15q0 -14 -21 -14q-13 0 -30 -10t-17 -39v-373q0 -15 7.5 -25.5t35 -14t27.5 -17.5q0 -17 -25 -17q-9 0 -33.5 4.5t-41.5 4.5q-11 0 -40.5 -4.5t-41.5 -4.5q-25 0 -25 17q0 9 28.5 15t34 13t5.5 31v307l-3 22l-14 -20 l-95 -167q-56 -97 -66.5 -113.5t-18.5 -16.5q-10 0 -18 15l-150 266l-12 19l-2 -19v-305q0 -14 13 -23.5t26 -9.5q33 0 33 -16q0 -15 -29 -15q-6 0 -28.5 4.5t-31.5 4.5q-11 0 -32 -5.5t-31 -5.5q-12 0 -20.5 6.5t-8.5 12.5z" />
<glyph unicode="&#xe000;" horiz-adv-x="670" d="M0 0v670h670v-670h-670z" />
</font>
</defs>
</svg>
