<?xml version="1.0" standalone="no"?>
<!DOCTYPE svg PUBLIC "-//W3C//DTD SVG 1.1//EN" "http://www.w3.org/Graphics/SVG/1.1/DTD/svg11.dtd" >
<svg xmlns="http://www.w3.org/2000/svg">
<metadata></metadata>
<defs>
<font id="theano_didotregular" horiz-adv-x="1152" >
<font-face units-per-em="2048" ascent="1580" descent="-468" />
<missing-glyph horiz-adv-x="528" />
<glyph unicode="&#xfb01;" horiz-adv-x="1184" d="M84 836v48h146v70q0 79 19 158t59 151t96 127.5t135 88.5t170 33q122 0 197.5 -58t75.5 -146q0 -131 -122 -131q-33 0 -53.5 21t-20.5 58q0 20 13 75q9 35 9 55q0 37 -29.5 57.5t-79.5 20.5q-151 0 -228 -127.5t-77 -346.5v-106h216v-48h-216v-788h142v-48h-448v48h142 v788h-146zM668 0v48h142v788h-142v48h306v-836h142v-48h-448z" />
<glyph unicode="&#xfb02;" horiz-adv-x="1168" d="M84 836v48h146v70q0 119 21.5 215t57.5 159t86.5 105t106 60.5t118.5 18.5q122 0 193 -85l109 85h36v-1464h142v-48h-448v48h142v1124q0 64 -8.5 113.5t-28 91.5t-57.5 64.5t-93 22.5q-100 0 -156.5 -98.5t-56.5 -301.5v-180h216v-48h-216v-788h142v-48h-448v48h142v788 h-146z" />
<glyph unicode="&#xfb03;" horiz-adv-x="1764" d="M84 836v48h146v94q0 112 24.5 203.5t66 152t96.5 101.5t114.5 59t123.5 18q204 0 274 -188h6q68 89 152 138.5t202 49.5q122 0 197.5 -58t75.5 -146q0 -131 -122 -131q-33 0 -53.5 21t-20.5 58q0 20 13 75q9 35 9 55q0 36 -27 57t-76 21q-152 0 -231.5 -128t-79.5 -346 v-106h216v-48h-216v-788h142v-48h-448v48h142v788h-146v48h146v62q0 102 32 206l-6 3q-15 -9 -30 -9q-39 0 -62 19.5t-23 56.5q0 32 23 78q20 40 20 78q0 35 -29.5 60.5t-83.5 25.5q-49 0 -92.5 -20.5t-81.5 -63.5t-60.5 -121t-22.5 -181v-194h216v-48h-216v-788h142v-48 h-448v48h142v788h-146zM1248 0v48h142v788h-142v48h306v-836h142v-48h-448z" />
<glyph unicode="&#xfb04;" horiz-adv-x="1748" d="M84 836v48h146v94q0 112 24.5 203.5t66 152t96.5 101.5t114.5 59t123.5 18q179 0 257 -148h4q96 148 284 148q122 0 193 -85l109 85h36v-1464h142v-48h-448v48h142v1124q0 64 -8.5 113.5t-28 91.5t-57.5 64.5t-93 22.5q-100 0 -156.5 -98.5t-56.5 -301.5v-180h216v-48 h-216v-788h142v-48h-448v48h142v788h-146v48h146v70q0 107 17 195q-11 -3 -21 -3q-39 0 -62 19.5t-23 56.5q0 32 23 78q20 40 20 78q0 35 -29.5 60.5t-83.5 25.5q-49 0 -92.5 -20.5t-81.5 -63.5t-60.5 -121t-22.5 -181v-194h216v-48h-216v-788h142v-48h-448v48h142v788h-146 z" />
<glyph horiz-adv-x="2048" />
<glyph horiz-adv-x="2048" />
<glyph unicode="&#xd;" horiz-adv-x="682" />
<glyph unicode=" "  horiz-adv-x="528" />
<glyph unicode="&#x09;" horiz-adv-x="528" />
<glyph unicode="&#xa0;" horiz-adv-x="528" />
<glyph unicode="!" horiz-adv-x="528" d="M126 1343q0 72 35 120.5t103 48.5t103 -48.5t35 -120.5q0 -105 -24 -247q-29 -166 -43 -301l-43 -405h-56l-43 405q-14 135 -43 301q-24 142 -24 247zM136 104q0 54 37 91t91 37t91 -37t37 -91t-37 -91t-91 -37t-91 37t-37 91z" />
<glyph unicode="&#x22;" horiz-adv-x="880" d="M170 1412q0 46 25 76t69 30t69 -30t25 -76q0 -31 -10 -113l-56 -445h-56l-56 445q-10 83 -10 113zM544 1412q0 46 25 76t69 30t69 -30t25 -76q0 -31 -10 -113l-56 -445h-56l-56 445q-10 83 -10 113z" />
<glyph unicode="#" d="M62 430v96h215l83 408h-298v96h317l87 430h88l-87 -430h334l87 430h88l-87 -430h201v-96h-220l-83 -408h303v-96h-323l-87 -430h-88l87 430h-334l-87 -430h-88l87 430h-195zM365 526h334l83 408h-334z" />
<glyph unicode="$" d="M74 280q0 79 42 128.5t113 49.5q39 0 66.5 -21.5t27.5 -58.5q0 -71 -83 -105q-31 -13 -42.5 -28.5t-11.5 -44.5q0 -49 64.5 -91t161.5 -64v646q-73 25 -125.5 53.5t-95 69.5t-64 97t-21.5 129q0 135 83 239t223 148v117h60v-101q60 11 121 11q49 0 86 -4v94h60v-102 q140 -25 221.5 -94t81.5 -166q0 -68 -34.5 -118t-95.5 -50q-42 0 -68 23t-26 54q0 58 62 99q17 11 24.5 18t14.5 21.5t7 33.5q0 43 -53 75.5t-134 49.5v-580q185 -58 261 -141.5t76 -232.5q0 -168 -92 -278t-245 -152v-140h-60v126q-56 -10 -122 -10q-37 0 -85 5v-121h-60 v130q-67 13 -125 35.5t-107 57t-77.5 84.5t-28.5 109zM220 1132q0 -81 45 -133.5t147 -93.5v468q-88 -34 -140 -97t-52 -144zM472 34q44 -6 86 -6q63 0 121 13v571l-207 59v-637zM472 883l207 -57v573q-46 6 -89 6q-60 0 -118 -14v-508zM739 58q108 37 175.5 112.5 t67.5 180.5q0 90 -57 144t-186 98v-535z" />
<glyph unicode="%" horiz-adv-x="1540" d="M80 1150q0 91 35 173t101 133.5t146 51.5t146 -51.5t101 -133.5t35 -173t-35 -173t-101 -133.5t-146 -51.5t-146 51.5t-101 133.5t-35 173zM214 1150q0 -55 6.5 -105.5t21.5 -102.5t46 -83t74 -31t74 31t46 83t21.5 102.5t6.5 105.5t-6.5 105.5t-21.5 102.5t-46 83 t-74 31t-74 -31t-46 -83t-21.5 -102.5t-6.5 -105.5zM279 -16l884 1512h98l-886 -1512h-96zM896 330q0 91 35 173t101 133.5t146 51.5t146 -51.5t101 -133.5t35 -173t-35 -173t-101 -133.5t-146 -51.5t-146 51.5t-101 133.5t-35 173zM1030 330q0 -55 6.5 -105.5t21.5 -102.5 t46 -83t74 -31t74 31t46 83t21.5 102.5t6.5 105.5t-6.5 105.5t-21.5 102.5t-46 83t-74 31t-74 -31t-46 -83t-21.5 -102.5t-6.5 -105.5z" />
<glyph unicode="&#x26;" horiz-adv-x="1614" d="M122 367q0 71 21 137t57 120t91.5 106.5t116 96t138.5 89.5q-82 154 -82 274q0 138 87.5 233t202.5 95t166.5 -63.5t51.5 -163.5q0 -89 -61.5 -174.5t-171.5 -156.5l359 -625q127 211 168 450h-248v52h564v-52h-261q-59 -292 -194 -501q71 -120 141.5 -178t149.5 -58 q68 0 130 23l20 -57q-116 -38 -218 -38q-238 0 -352 157q-183 -157 -409 -157q-232 0 -352 120q-53 53 -84 125.5t-31 145.5zM320 470q0 -143 70 -233q120 -155 337 -155q125 0 238 101l-390 682q-129 -80 -192 -172t-63 -223zM616 1288q0 -69 16.5 -120t52.5 -114l24 -41 q92 64 141.5 138t49.5 147q0 172 -138 172q-57 0 -101.5 -49.5t-44.5 -132.5z" />
<glyph unicode="'" horiz-adv-x="528" d="M170 1412q0 46 25 76t69 30t69 -30t25 -76q0 -31 -10 -113l-56 -445h-56l-56 445q-10 83 -10 113z" />
<glyph unicode="(" horiz-adv-x="660" d="M144 488q0 245 91 513t259 511l40 -28q-129 -242 -183.5 -463.5t-54.5 -532.5t54.5 -532.5t183.5 -463.5l-40 -28q-168 243 -259 511t-91 513z" />
<glyph unicode=")" horiz-adv-x="660" d="M126 -508q129 242 183.5 463.5t54.5 532.5t-54.5 532.5t-183.5 463.5l40 28q168 -243 259 -511t91 -513t-91 -513t-259 -511z" />
<glyph unicode="*" horiz-adv-x="1104" d="M148 882q0 84 148 104q82 11 164 57q22 11 22 24q0 6 -5.5 12t-10.5 9l-6 3q-82 46 -164 57q-148 20 -148 104q0 31 22.5 56t59.5 25q34 0 62 -21t61 -65q46 -58 124 -107q20 -14 31 -14q10 0 14 6.5t4 26.5q0 90 -31 170q-27 62 -27 94q0 41 22.5 68t61.5 27t61.5 -27 t22.5 -68q0 -32 -27 -94q-31 -80 -31 -170q0 -20 4 -26.5t14 -6.5q11 0 31 14q78 49 124 107q33 44 61 65t62 21q37 0 59.5 -25t22.5 -56q0 -84 -148 -104q-82 -11 -164 -57q-22 -11 -22 -24q0 -6 5.5 -12t10.5 -9l6 -3q82 -46 164 -57q148 -20 148 -104q0 -31 -22.5 -56 t-59.5 -25q-34 0 -62 21t-61 65q-46 58 -124 107q-20 14 -31 14q-10 0 -14 -6.5t-4 -26.5q0 -90 31 -170q27 -62 27 -94q0 -41 -22.5 -68t-61.5 -27t-61.5 27t-22.5 68q0 32 27 94q31 80 31 170q0 20 -4 26.5t-14 6.5q-11 0 -31 -14q-78 -49 -124 -107q-33 -44 -61 -65 t-62 -21q-37 0 -59.5 25t-22.5 56z" />
<glyph unicode="+" d="M62 466v96h460v466h108v-466h460v-96h-460v-466h-108v466h-460z" />
<glyph unicode="," horiz-adv-x="528" d="M102 -390q69 61 123.5 132.5t82.5 133.5q20 45 20 97q0 53 -84 53q-45 0 -78 23.5t-33 76.5t34 86.5t81 33.5q83 0 121.5 -52t38.5 -127q0 -110 -72.5 -241.5t-202.5 -249.5z" />
<glyph unicode="-" horiz-adv-x="900" d="M136 346v132h628v-132h-628z" />
<glyph unicode="." horiz-adv-x="528" d="M136 104q0 54 37 91t91 37t91 -37t37 -91t-37 -91t-91 -37t-91 37t-37 91z" />
<glyph unicode="/" horiz-adv-x="722" d="M80 -520l460 1954h102l-460 -1954h-102z" />
<glyph unicode="0" d="M96 700q0 96 21 199.5t62.5 201.5t98 176t134.5 125.5t164 47.5t164 -47.5t134.5 -125.5t98 -176t62.5 -201.5t21 -199.5q0 -121 -33.5 -246t-93.5 -230.5t-153 -172.5t-200 -67t-200 67t-152.5 172.5t-93.5 230.5t-34 246zM304 700q0 -249 27.5 -394t86 -209.5 t158.5 -64.5t158.5 64.5t86 209.5t27.5 394q0 374 -62.5 538t-209.5 164q-146 0 -209 -164.5t-63 -537.5z" />
<glyph unicode="1" d="M212 1106q101 36 175.5 77.5t144.5 107.5t122 155h52v-1398h264v-48h-712v48h264v1137l-8 3q-114 -79 -281 -137z" />
<glyph unicode="2" d="M114 1026q0 180 111.5 302t298.5 122q112 0 201.5 -34t144.5 -92.5t84 -133t29 -158.5q0 -88 -39 -183.5t-96.5 -176t-147.5 -172.5t-166 -158t-178 -148l8 -18h398q102 0 149 62q44 57 61 150l48 -8l-74 -380h-830v48q214 175 382 366q277 315 277 636q0 151 -78 243.5 t-229 92.5q-89 0 -158 -52t-104.5 -133t-35.5 -174q0 -55 25 -78.5t54 -23.5q41 0 71 35q37 44 75 44q42 0 67 -25t25 -68q0 -61 -43 -104.5t-104 -43.5q-96 0 -161 68.5t-65 194.5z" />
<glyph unicode="3" d="M112 297q0 75 50 127t112 52q49 0 79.5 -29t30.5 -78q0 -44 -18.5 -70.5t-61.5 -50.5q-20 -11 -31 -19t-22 -24t-11 -35q0 -49 78 -93.5t190 -44.5q99 0 168.5 55.5t99.5 138.5t30 184q0 154 -68 242t-181 88q-43 0 -191 -35l-12 49q125 25 199 48q101 32 155 119t54 208 q0 130 -67.5 201.5t-169.5 71.5q-83 0 -143 -37.5t-60 -88.5q0 -20 10.5 -32t34.5 -24q55 -28 55 -90q0 -43 -28 -71.5t-72 -28.5q-56 0 -92 37.5t-36 99.5q0 47 26.5 96.5t71.5 91.5t113 68.5t143 26.5q95 0 172.5 -27t126 -73t74 -104t25.5 -122q0 -69 -22.5 -125 t-64 -95.5t-87 -66t-104.5 -49.5l4 -16q153 -25 245.5 -120t92.5 -240q0 -135 -67.5 -234t-176.5 -146.5t-244 -47.5q-115 0 -206 34t-147.5 106t-56.5 173z" />
<glyph unicode="4" d="M94 459v56q107 87 169.5 153.5t134.5 175.5q145 218 198 481q7 36 12.5 57.5t16 48.5t23 41.5t32.5 24.5t46 10q78 0 78 -87q0 -81 -67 -225t-163 -267q-161 -207 -406 -412v-9h460v314l168 164h16v-478h230v-48h-230v-411h192v-48h-568v48h192v411h-534z" />
<glyph unicode="5" d="M122 272q0 72 40.5 115.5t97.5 43.5q60 0 86.5 -33.5t26.5 -73.5q0 -34 -11 -56.5t-38 -49.5q-36 -38 -36 -67q0 -60 46 -89.5t144 -29.5q158 0 242 107.5t84 284.5q0 73 -7 138t-26 132t-50 115t-82.5 78.5t-118.5 30.5q-92 0 -162 -65t-125 -191l-35 5l72 771l30 12 q138 -142 262 -142q36 0 70.5 16.5t59 39t53 62.5t45 68t41.5 74l36 -16q-35 -75 -77.5 -141t-94 -122t-110.5 -88.5t-117 -32.5q-56 0 -90.5 7t-80.5 26l-37 -380l8 -2q104 147 282 147q212 0 336 -121t124 -316q0 -239 -150.5 -392t-390.5 -153q-143 0 -245 85.5 t-102 202.5z" />
<glyph unicode="6" d="M122 672q0 213 73.5 393t197 282.5t266.5 102.5q134 0 221.5 -68.5t87.5 -165.5q0 -63 -33 -101t-84 -38q-38 0 -66 23t-28 59q0 42 30 92q25 38 25 74q0 31 -40.5 54t-113.5 23q-88 0 -153.5 -56.5t-102.5 -153t-54.5 -208.5t-17.5 -238l6 -3q126 156 321 156 q85 0 154.5 -24.5t115.5 -65.5t77 -95.5t44.5 -112.5t13.5 -119q0 -133 -55 -246t-160 -182.5t-238 -69.5q-102 0 -189.5 44t-154.5 128t-105 217t-38 299zM330 558q0 -124 14 -216t46 -164t88 -109t137 -37q118 0 178.5 118t60.5 333q0 80 -13 145t-41 116t-76 79t-112 28 q-78 0 -157 -55t-111 -149q-14 -39 -14 -89z" />
<glyph unicode="7" d="M164 997l41 457h39l-11 -125l10 -2q85 113 198 113q59 0 107.5 -18.5t75 -39.5t63.5 -59q39 -39 90 -68.5t90 -29.5q67 0 95 73q11 29 14 83q4 69 47 69q20 0 30.5 -11t10.5 -26q0 -49 -65 -168q-35 -62 -133 -281q-43 -93 -72.5 -161.5t-75.5 -184.5t-81 -234t-56 -228 q-8 -44 -13 -64.5t-14.5 -46.5t-21.5 -36t-31.5 -17.5t-48.5 -7.5q-45 0 -70.5 19.5t-25.5 55.5q0 79 75.5 228.5t198.5 351.5q169 278 268 535l-7 5q-80 -28 -171 -28q-46 0 -116.5 15t-116.5 31q-90 31 -137 31q-72 0 -111 -82q-26 -53 -36 -149h-39z" />
<glyph unicode="8" d="M116 329q0 119 79.5 207t217.5 160v6q-128 63 -197.5 146.5t-69.5 215.5q0 114 60 203.5t157 136t212 46.5q172 0 291.5 -86t119.5 -214q0 -120 -68 -208t-187 -161v-4q57 -27 99 -50.5t86.5 -57t73 -68t46.5 -81t18 -98.5q0 -122 -68 -223.5t-179 -158t-238 -56.5 q-119 0 -221 40.5t-167 120.5t-65 184zM248 334q0 -129 85.5 -215.5t235.5 -86.5q147 0 246 78.5t99 200.5q0 47 -16.5 86.5t-41.5 68.5t-71.5 59t-90.5 51.5t-115 52.5l-115 51q-107 -66 -161.5 -150t-54.5 -196zM254 1138q0 -38 7.5 -68.5t26.5 -55.5t37.5 -42.5t54 -37 t61 -31.5t73.5 -32l169 -73q91 57 139 130.5t48 175.5q0 119 -90 208.5t-231 89.5q-116 0 -205.5 -78t-89.5 -186z" />
<glyph unicode="9" d="M90 952q0 133 55 246t160 182.5t238 69.5q102 0 189.5 -44t154.5 -128t105 -217t38 -299q0 -213 -73.5 -393t-197 -282.5t-266.5 -102.5q-134 0 -221.5 68.5t-87.5 165.5q0 63 33 101t84 38q38 0 66 -23t28 -59q0 -42 -30 -92q-25 -38 -25 -74q0 -31 40.5 -54t113.5 -23 q88 0 153.5 56.5t102.5 153t54.5 208.5t17.5 238l-6 3q-126 -156 -321 -156q-85 0 -154.5 24.5t-115.5 65.5t-77 95.5t-44.5 112.5t-13.5 119zM298 951q0 -80 13 -145t41 -116t76 -79t112 -28q78 0 157 55t111 149q14 39 14 89q0 124 -14 216t-46 164t-88 109t-137 37 q-118 0 -178.5 -118t-60.5 -333z" />
<glyph unicode=":" horiz-adv-x="528" d="M136 104q0 54 37 91t91 37t91 -37t37 -91t-37 -91t-91 -37t-91 37t-37 91zM136 772q0 54 37 91t91 37t91 -37t37 -91t-37 -91t-91 -37t-91 37t-37 91z" />
<glyph unicode=";" horiz-adv-x="528" d="M102 -390q69 61 123.5 132.5t82.5 133.5q20 45 20 97q0 53 -84 53q-45 0 -78 23.5t-33 76.5t34 86.5t81 33.5q83 0 121.5 -52t38.5 -127q0 -110 -72.5 -241.5t-202.5 -249.5zM136 772q0 54 37 91t91 37t91 -37t37 -91t-37 -91t-91 -37t-91 37t-37 91z" />
<glyph unicode="&#x3c;" d="M84 466v96l940 490l44 -88l-869 -450l869 -450l-44 -88z" />
<glyph unicode="=" d="M62 310v96h1028v-96h-1028zM62 622v96h1028v-96h-1028z" />
<glyph unicode="&#x3e;" d="M84 64l869 450l-869 450l44 88l940 -490v-96l-940 -490z" />
<glyph unicode="?" horiz-adv-x="852" d="M144 1309q0 90 74.5 146.5t178.5 56.5q113 0 199.5 -68.5t129 -171t42.5 -217.5q0 -96 -28 -170t-74 -115.5t-96.5 -61.5t-103.5 -20q-74 0 -122 30l-4 -4v-375h-72v497h34q18 -38 46 -62q45 -38 122 -38q150 0 150 352q0 56 -6.5 106t-22 99t-40 84t-63.5 57t-89 22 q-67 0 -89 -54q-12 -29 -12 -100q0 -74 -70 -74q-40 0 -62 21.5t-22 59.5zM174 104q0 54 37 91t91 37t91 -37t37 -91t-37 -91t-91 -37t-91 37t-37 91z" />
<glyph unicode="@" horiz-adv-x="1716" d="M60 371q0 176 54.5 325.5t145.5 253t210.5 176.5t249.5 107.5t263 34.5q138 0 264 -52.5t216 -141t143.5 -208.5t53.5 -250q0 -273 -128.5 -450.5t-319.5 -177.5q-102 0 -151.5 60.5t-52.5 146.5l-10 3q-35 -80 -112 -145t-167 -65q-116 0 -189.5 80.5t-73.5 219.5 q0 143 54.5 267t161.5 203.5t245 79.5q67 0 115 -56t58 -130l19 4l47 170h140l-143 -502q-29 -98 -29 -162q0 -53 20 -81.5t75 -28.5q146 0 245.5 147.5t99.5 370.5q0 134 -48.5 253t-130.5 202t-193 131t-234 48q-143 0 -277.5 -55.5t-241 -157t-171 -259t-64.5 -345.5 q0 -138 38.5 -255.5t105 -201t156 -142.5t192 -87.5t212.5 -28.5q91 0 179.5 23t159 62t124.5 79.5t96 85.5l48 -63q-44 -45 -100.5 -86.5t-133 -82.5t-175 -65.5t-202.5 -24.5q-119 0 -239.5 33.5t-229 100.5t-192.5 158t-133.5 215.5t-49.5 263.5zM602 247q0 -40 6 -75.5 t19 -66.5t37.5 -49.5t58.5 -18.5q65 0 125.5 54t100.5 133t64 165.5t24 155.5q0 214 -138 214q-76 0 -142 -65t-104 -163q-29 -76 -40 -137t-11 -147z" />
<glyph unicode="A" horiz-adv-x="1534" d="M56 0v52h218l462 1410h60l524 -1410h182v-52h-672v52h250l-170 460h-418l-150 -460h210v-52h-496zM508 564h382l-202 545z" />
<glyph unicode="B" horiz-adv-x="1340" d="M122 0v52h192v1330h-192v52h628q230 0 341.5 -91.5t111.5 -254.5q0 -119 -85 -201t-217 -107v-12q169 -21 267 -121t98 -253q0 -185 -136.5 -289.5t-371.5 -104.5h-636zM522 52h216q294 0 294 352q0 161 -61 252.5t-189 91.5h-260v-696zM522 800h260q106 0 159.5 76.5 t53.5 199.5q0 61 -12 111.5t-39.5 96.5t-81 72t-128.5 26h-212v-582z" />
<glyph unicode="C" horiz-adv-x="1486" d="M146 712q0 136 38 256.5t104 209.5t153 154t188 97.5t205 32.5q151 0 280 -47q59 -22 94 -22q30 0 47 16.5t35 52.5h44v-471h-44q-36 148 -113 254q-23 32 -48 57t-65.5 51.5t-99 41.5t-130.5 15q-217 0 -335.5 -178.5t-118.5 -519.5q0 -340 118 -514t336 -174 q72 0 130.5 15t99 41.5t65.5 51.5t48 57q77 106 113 254h44v-471h-44q-12 24 -20.5 36t-24.5 22.5t-37 10.5q-35 0 -94 -22q-129 -47 -280 -47q-132 0 -254.5 51t-219.5 143.5t-155.5 234.5t-58.5 311z" />
<glyph unicode="D" horiz-adv-x="1568" d="M122 0v52h192v1330h-192v52h719q90 0 179 -28.5t171 -88t144.5 -143.5t99.5 -203.5t37 -258.5t-37 -257.5t-99.5 -201t-144.5 -140.5t-171 -85.5t-179 -27.5h-719zM522 52h273q100 0 178 36t127 96t81 146t44.5 179t12.5 203t-12.5 204t-44.5 181.5t-81 149t-127 98.5 t-178 37h-273v-1330z" />
<glyph unicode="E" horiz-adv-x="1426" d="M122 0v52h192v1330h-192v52h1120l10 -376h-52q-8 40 -15 65t-26.5 70t-48.5 85q-74 104 -228 104h-360v-606h186q99 0 170 108q22 34 38 95t16 89h48v-634h-48q0 28 -16 89t-38 95q-70 106 -170 106h-186v-672h337q223 0 321 135q48 65 67 119t35 141h52l-6 -447h-1206z " />
<glyph unicode="F" horiz-adv-x="1320" d="M122 0v52h192v1330h-192v52h1120l22 -456h-52q-34 192 -109 289q-89 115 -243 115h-338v-606h172q106 0 170 106q22 37 38 108t16 101h48v-682h-48q0 30 -16 101t-38 108q-64 106 -170 106h-172v-672h192v-52h-592z" />
<glyph unicode="G" horiz-adv-x="1560" d="M146 712q0 136 38 256.5t104 209.5t153 154t188 97.5t205 32.5q151 0 280 -47q59 -22 94 -22q30 0 47 16.5t35 52.5h44v-471h-44q-36 148 -113 254q-23 32 -48 57t-65.5 51.5t-99 41.5t-130.5 15q-217 0 -335.5 -178.5t-118.5 -519.5q0 -340 118 -514t336 -174 q151 0 235.5 98.5t84.5 243.5v146h-282v52h716v-52h-214l-1 -512h-44q-14 34 -32.5 51.5t-49.5 17.5q-41 0 -117 -31q-159 -66 -296 -66q-132 0 -254.5 51t-219.5 143.5t-155.5 234.5t-58.5 311z" />
<glyph unicode="H" horiz-adv-x="1580" d="M122 0v52h192v1330h-192v52h592v-52h-192v-604h576v604h-192v52h592v-52h-192v-1330h192v-52h-592v52h192v674h-576v-674h192v-52h-592z" />
<glyph unicode="I" horiz-adv-x="786" d="M122 0v52h192v1330h-192v52h592v-52h-192v-1330h192v-52h-592z" />
<glyph unicode="J" horiz-adv-x="930" d="M96 192q0 54 37.5 96t92.5 42q48 0 75 -27t27 -70q0 -38 -32 -86q-24 -35 -24 -64q0 -21 16.5 -35t45.5 -14q32 0 55 12t36 30t21 45.5t10 51.5t2 55v1154h-192v52h592v-52h-192v-996q0 -61 -10.5 -116.5t-35.5 -109t-63.5 -92.5t-98.5 -62.5t-136 -23.5 q-97 0 -161.5 55.5t-64.5 154.5z" />
<glyph unicode="K" horiz-adv-x="1598" d="M122 0v52h192v1330h-192v52h592v-52h-192v-625l102 47l471 578h-232v52h505v-52h-203l-383 -470l617 -860h175v-52h-681v52h240l-498 694l-113 -52v-642h192v-52h-592z" />
<glyph unicode="L" horiz-adv-x="1376" d="M122 0v52h192v1330h-192v52h592v-52h-192v-1330h298q102 0 176 31t128 107q57 81 82.5 162t37.5 188h60l-22 -540h-1160z" />
<glyph unicode="M" horiz-adv-x="1814" d="M102 0v52h204v1330h-204v52h483l348 -1100l365 1100h434v-52h-192v-1330h192v-52h-592v52h192v1280h-4l-453 -1360h-60l-425 1343q-12 36 -12 67h-8v-1330h204v-52h-472z" />
<glyph unicode="N" horiz-adv-x="1526" d="M102 0v52h204v1330h-204v52h498l610 -1003v951h-204v52h472v-52h-204v-1410h-60l-821 1350q-17 28 -17 60h-6v-1330h204v-52h-472z" />
<glyph unicode="O" horiz-adv-x="1618" d="M146 712q0 136 38 256.5t104 209.5t153 154t188 97.5t205 32.5t205 -32.5t188 -97.5t153 -154t104 -209.5t38 -256.5q0 -169 -58.5 -311t-155.5 -234.5t-219.5 -143.5t-254.5 -51t-254.5 51t-219.5 143.5t-155.5 234.5t-58.5 311zM380 712q0 -340 118 -514t336 -174 t336 174t118 514q0 341 -118.5 519.5t-335.5 178.5t-335.5 -178.5t-118.5 -519.5z" />
<glyph unicode="P" horiz-adv-x="1362" d="M122 0v52h192v1330h-192v52h626q93 0 187 -28t157 -76q190 -146 190 -364q0 -172 -120 -275t-304 -103h-336v-536h192v-52h-592zM522 640h316q52 0 90.5 17t63 46t39.5 73t21 93.5t6 112.5q0 53 -8 102.5t-27 102t-56.5 96.5t-90.5 71q-55 28 -166 28h-188v-742z" />
<glyph unicode="Q" horiz-adv-x="1618" d="M146 712q0 136 38 256.5t104 209.5t153 154t188 97.5t205 32.5t205 -32.5t188 -97.5t153 -154t104 -209.5t38 -256.5q0 -169 -58.5 -311t-155.5 -234.5t-219.5 -143.5t-254.5 -51q-25 0 -45 4l-2 -5q30 -18 61 -49q45 -45 134 -56q81 -10 138.5 -43.5t103.5 -101.5 q37 -54 56.5 -75.5t54.5 -43.5q49 -30 123 -30q65 0 126 26l18 -48q-81 -32 -190 -32q-120 0 -239.5 25t-180.5 67q-108 73 -163 203q-14 34 -27 57.5t-33.5 51t-49 46t-63.5 28.5q-102 28 -192 87.5t-162 147.5t-114 212.5t-42 268.5zM380 712q0 -340 118 -514t336 -174 t336 174t118 514q0 341 -118.5 519.5t-335.5 178.5t-335.5 -178.5t-118.5 -519.5z" />
<glyph unicode="R" horiz-adv-x="1490" d="M122 0v52h192v1330h-192v52h604q114 0 202 -30t138 -81.5t75 -112t25 -127.5q0 -130 -76 -208.5t-208 -108.5v-12q153 -24 233.5 -107t80.5 -193v-218q0 -105 34.5 -148.5t116.5 -43.5q57 0 119 23l12 -50q-100 -33 -209 -33q-49 0 -94 11.5t-89.5 37.5t-71 78t-26.5 124 v234q0 113 -60.5 190t-181.5 77h-224v-684h192v-52h-592zM522 788h256q54 0 90.5 21t55.5 60.5t26.5 86t7.5 109.5q0 59 -13.5 113t-41 101t-77.5 75t-116 28h-188v-594z" />
<glyph unicode="S" horiz-adv-x="1272" d="M188 476h44q29 -153 113 -268q63 -87 151.5 -135.5t193.5 -48.5q153 0 239.5 77t86.5 211q0 125 -88 207.5t-276 130.5q-72 18 -128 38.5t-113 53.5t-94.5 74t-61 100.5t-23.5 132.5q0 185 115 299t317 114q90 0 164 -31q73 -30 101 -30q42 0 55 61h44l4 -371h-44 q-34 98 -95 188q-37 56 -105.5 93.5t-136.5 37.5q-127 0 -205 -73t-78 -176q0 -51 22 -92.5t53 -68.5t84 -51.5t93 -37t102 -29.5q110 -30 187.5 -66.5t137 -90.5t88.5 -130.5t29 -178.5q0 -199 -138 -321.5t-339 -122.5q-121 0 -251 63q-57 27 -79 27q-45 0 -68 -20 t-47 -70h-44z" />
<glyph unicode="T" horiz-adv-x="1564" d="M134 846l24 588h1308l24 -588h-52q-22 244 -110 374q-109 162 -284 162h-128v-1330h192v-52h-592v52h192v1330h-128q-175 0 -284 -162q-88 -130 -110 -374h-52z" />
<glyph unicode="U" horiz-adv-x="1540" d="M88 1382v52h592v-52h-192v-1058q0 -86 24.5 -146.5t70 -93t99.5 -46.5t124 -14q191 0 304.5 100t113.5 290v968h-204v52h472v-52h-204v-976q0 -211 -129.5 -322.5t-352.5 -111.5q-526 0 -526 464v946h-192z" />
<glyph unicode="V" horiz-adv-x="1534" d="M68 1382v52h672v-52h-250l392 -1057l346 1057h-210v52h496v-52h-218l-462 -1410h-60l-524 1410h-182z" />
<glyph unicode="W" horiz-adv-x="2160" d="M68 1382v52h596v-52h-204l363 -1068l299 868l-67 200h-169v52h596v-52h-196l348 -1042l303 1042h-219v52h422v-52h-144l-410 -1410h-60l-374 1119l-386 -1119h-60l-480 1410h-158z" />
<glyph unicode="X" horiz-adv-x="1566" d="M72 0v52h216l419 660l-424 670h-211v52h716v-52h-252l298 -470l299 470h-205v52h488v-52h-217l-332 -523l512 -807h155v-52h-720v52h312l-385 608l-387 -608h268v-52h-550z" />
<glyph unicode="Y" horiz-adv-x="1462" d="M68 1382v52h672v-52h-240l362 -665l332 665h-212v52h460v-52h-182l-364 -734v-596h192v-52h-592v52h192v540l-429 790h-191z" />
<glyph unicode="Z" horiz-adv-x="1400" d="M160 921l42 513h1022v-44l-793 -1338h391q92 0 176 43t130 113q55 82 76.5 138t45.5 167h52l-22 -513h-1106v48l793 1334h-353q-93 0 -161 -33t-118 -107q-46 -68 -72.5 -138t-50.5 -183h-52z" />
<glyph unicode="[" horiz-adv-x="780" d="M232 -520v2016h452v-52h-306v-1912h306v-52h-452z" />
<glyph unicode="\" horiz-adv-x="722" d="M80 1434h102l460 -1954h-102z" />
<glyph unicode="]" horiz-adv-x="780" d="M96 -468h306v1912h-306v52h452v-2016h-452v52z" />
<glyph unicode="^" d="M42 736l486 726h96l486 -726h-171l-418 625l-419 -625h-60z" />
<glyph unicode="_" horiz-adv-x="1024" d="M0 -256h1024v-96h-1024v96z" />
<glyph unicode="`" horiz-adv-x="880" d="M260 1396q0 28 18.5 47t50.5 19q66 0 103 -101l106 -289l-32 -18l-195 234q-51 62 -51 108z" />
<glyph unicode="a" horiz-adv-x="990" d="M112 193q0 120 65.5 179t185.5 74q78 10 132 30.5t111 57.5v106q0 37 -8 71t-26.5 67.5t-55.5 53.5t-89 20q-60 0 -106 -26t-46 -67q0 -21 14 -53q15 -32 15 -62q0 -29 -21.5 -50.5t-63.5 -21.5q-48 0 -71.5 25.5t-23.5 68.5q0 91 91.5 162.5t220.5 71.5q174 0 254 -92.5 t80 -245.5v-403q0 -61 28.5 -89t71.5 -28q30 0 64 7l8 -51q-48 -14 -85 -14q-96 0 -155 32.5t-86 124.5h-8q-49 -74 -109 -115.5t-153 -41.5q-105 0 -169.5 56t-64.5 153zM286 209q0 -153 142 -153q52 0 98 40t80 102v289q-48 -31 -90.5 -46.5t-124.5 -36.5 q-105 -27 -105 -195z" />
<glyph unicode="b" horiz-adv-x="1150" d="M78 0v48h142v1400h-142v48h306v-774l14 -2q106 180 287 180q100 0 181 -50q89 -55 138.5 -160t49.5 -248t-49.5 -248t-138.5 -160q-81 -50 -181 -50q-181 0 -287 180l-14 -2v-162h-306zM384 442q0 -175 75 -286.5t171 -111.5q84 0 139.5 55.5t78 141.5t22.5 201 t-22.5 201t-78 141.5t-139.5 55.5q-96 0 -171 -111.5t-75 -286.5z" />
<glyph unicode="c" horiz-adv-x="944" d="M96 432q0 93 33.5 179t91.5 149.5t139.5 101.5t173.5 38q72 0 131.5 -24t94 -61t52.5 -76.5t18 -75.5q0 -49 -27 -85t-79 -36q-37 0 -59.5 20t-22.5 52t13 68q13 35 13 71q0 37 -35 68t-106 31q-118 0 -182.5 -108t-64.5 -284q0 -192 70 -305t206 -113q53 0 95.5 19 t68.5 48.5t43.5 68.5t24.5 76.5t8 75.5h52q-1 -48 -8.5 -92t-30 -91.5t-56.5 -82.5t-92.5 -57.5t-134.5 -22.5q-193 0 -311.5 124t-118.5 324z" />
<glyph unicode="d" horiz-adv-x="1140" d="M96 442q0 143 49.5 248t138.5 160q81 50 181 50q181 0 287 -180l14 2v726h-206v48h370v-1448h142v-48h-306v162l-14 2q-106 -180 -287 -180q-100 0 -181 50q-89 55 -138.5 160t-49.5 248zM280 442q0 -115 22.5 -201t78 -141.5t139.5 -55.5q96 0 171 111.5t75 286.5 t-75 286.5t-171 111.5q-84 0 -139.5 -55.5t-78 -141.5t-22.5 -201z" />
<glyph unicode="e" horiz-adv-x="962" d="M96 430q0 131 52 237.5t151.5 169.5t229.5 63q80 0 147 -32t108 -82t63.5 -109t22.5 -117q0 -43 -15 -61.5t-59 -18.5h-516q0 -432 276 -432q108 0 175 70t81 180h52q-4 -57 -25 -110.5t-60.5 -100t-105 -75t-147.5 -28.5q-186 0 -308 124t-122 322zM281 528h350 q42 0 54.5 23t12.5 74q0 93 -46.5 160t-143.5 67q-48 0 -86.5 -19.5t-63.5 -51t-42 -75t-25 -87t-10 -91.5z" />
<glyph unicode="f" horiz-adv-x="698" d="M84 836v48h146v70q0 220 89 362q54 87 135.5 141.5t165.5 54.5q92 0 153 -48t61 -132q0 -61 -28.5 -95t-70.5 -34q-76 0 -76 71q0 22 9 60q8 31 8 53q0 35 -16.5 56t-63.5 21q-85 0 -143.5 -104.5t-58.5 -303.5v-172h216v-48h-216v-788h142v-48h-448v48h142v788h-146z " />
<glyph unicode="g" horiz-adv-x="1160" d="M128 -376q0 74 53 132t161 113v7q-18 0 -38 2.5t-50.5 13t-53 28t-39.5 52.5t-17 82q0 96 47 172t128 114v4q-125 94 -125 240q0 136 105 226t253 90q83 0 155.5 -30t122.5 -84q43 61 75 87.5t81 26.5q60 0 93 -36.5t33 -89.5q0 -32 -18.5 -56t-47.5 -24q-31 0 -45 19 t-19 55q-4 32 -12 46.5t-27 14.5q-49 0 -92 -68q59 -72 59 -177q0 -136 -105 -226t-253 -90q-107 0 -196 50q-132 -55 -132 -178q0 -48 37 -74t109 -26q45 0 161 15q113 15 161 15q139 0 205.5 -76t66.5 -207q0 -174 -129 -295.5t-329 -121.5q-70 0 -135.5 15t-121 44.5 t-88.5 80t-33 114.5zM254 -381q0 -68 40 -112t96 -60.5t126 -16.5q83 0 147 26t100.5 69.5t54.5 94.5t18 106q0 34 -9.5 64t-31 57t-61 43t-93.5 16q-71 0 -230 -28q-75 -49 -116 -111t-41 -148zM358 584q0 -129 54 -200.5t140 -71.5t140 71.5t54 200.5t-54 202.5t-140 73.5 t-140 -73.5t-54 -202.5z" />
<glyph unicode="h" horiz-adv-x="1166" d="M78 0v48h142v1400h-142v48h306v-822l12 -3q48 112 128.5 170.5t183.5 58.5q124 0 193 -85q63 -78 63 -207v-560h142v-48h-448v48h142v596q0 184 -164 184q-64 0 -114 -43t-82 -108q-33 -66 -44.5 -124t-11.5 -141v-364h142v-48h-448z" />
<glyph unicode="i" horiz-adv-x="600" d="M84 0v48h142v788h-142v48h306v-836h142v-48h-448zM186 1358q0 52 36 88t88 36t88 -36t36 -88t-36 -88t-88 -36t-88 36t-36 88z" />
<glyph unicode="j" horiz-adv-x="580" d="M-114 -404q0 61 28.5 93t70.5 32q34 0 55 -18.5t21 -55.5q0 -26 -9 -64q-10 -44 -10 -71q0 -43 21 -68.5t65 -25.5q63 0 86.5 65t23.5 188v1165h-142v48h306v-1043q0 -220 -78.5 -344.5t-212.5 -124.5q-92 0 -158.5 62.5t-66.5 161.5zM184 1358q0 52 36 88t88 36t88 -36 t36 -88t-36 -88t-88 -36t-88 36t-36 88z" />
<glyph unicode="k" horiz-adv-x="1156" d="M78 0v48h142v1400h-142v48h306v-1000h84l276 340h-146v48h354v-48h-144l-207 -257l377 -531h126v-48h-496v48h165l-279 400h-110v-400h142v-48h-448z" />
<glyph unicode="l" horiz-adv-x="594" d="M78 0v48h142v1400h-142v48h306v-1448h142v-48h-448z" />
<glyph unicode="m" horiz-adv-x="1704" d="M84 0v48h142v788h-142v48h306v-201l10 -3q99 220 288 220q58 0 103.5 -21.5t72.5 -57.5t42.5 -71.5t23.5 -74.5h13q93 225 288 225q69 0 123 -26t85 -68.5t47 -90.5t16 -96v-571h142v-48h-448v48h142v594q0 83 -43 134.5t-123 51.5q-58 0 -106 -39t-77 -100 q-20 -41 -30 -90.5t-11.5 -85.5t-1.5 -101v-364h142v-48h-448v48h142v578q0 202 -148 202q-121 0 -188 -134q-33 -65 -44.5 -130.5t-11.5 -151.5v-364h142v-48h-448z" />
<glyph unicode="n" horiz-adv-x="1172" d="M84 0v48h142v788h-142v48h306v-210l12 -3q48 112 128.5 170.5t183.5 58.5q124 0 193 -85q63 -78 63 -207v-560h142v-48h-448v48h142v596q0 184 -164 184q-64 0 -114 -43t-82 -108q-33 -66 -44.5 -124t-11.5 -141v-364h142v-48h-448z" />
<glyph unicode="o" horiz-adv-x="1040" d="M96 442q0 198 122.5 328t301.5 130t301.5 -130t122.5 -328t-122.5 -328t-301.5 -130t-301.5 130t-122.5 328zM280 442q0 -212 60.5 -311t179.5 -99t179.5 99t60.5 311t-60.5 311t-179.5 99t-179.5 -99t-60.5 -311z" />
<glyph unicode="p" horiz-adv-x="1140" d="M68 -564h142v1400h-142v48h306v-162l14 -2q106 180 287 180q100 0 181 -50q89 -55 138.5 -160t49.5 -248t-49.5 -248t-138.5 -160q-81 -50 -181 -50q-181 0 -287 180l-14 -2v-726h206v-48h-512v48zM374 442q0 -175 75 -286.5t171 -111.5q84 0 139.5 55.5t78 141.5 t22.5 201t-22.5 201t-78 141.5t-139.5 55.5q-96 0 -171 -111.5t-75 -286.5z" />
<glyph unicode="q" horiz-adv-x="1140" d="M96 442q0 143 49.5 248t138.5 160q81 50 181 50q162 0 266 -148h9l80 132h252v-48h-142v-1400h142v-48h-512v48h206v726l-14 2q-106 -180 -287 -180q-100 0 -181 50q-89 55 -138.5 160t-49.5 248zM280 442q0 -115 22.5 -201t78 -141.5t139.5 -55.5q96 0 171 111.5 t75 286.5t-75 286.5t-171 111.5q-84 0 -139.5 -55.5t-78 -141.5t-22.5 -201z" />
<glyph unicode="r" horiz-adv-x="884" d="M84 0v48h142v788h-142v48h306v-210l10 -3q51 123 110.5 176t151.5 53q72 0 115 -45.5t43 -114.5q0 -53 -27 -92.5t-75 -39.5q-25 0 -43.5 15t-18.5 41q0 27 9 67q7 33 7 57q0 56 -61 56q-53 0 -90.5 -37t-70.5 -104q-60 -119 -60 -291v-364h142v-48h-448z" />
<glyph unicode="s" horiz-adv-x="840" d="M126 -16v348h36q22 -68 43 -115t52 -93t73 -69t94 -23q103 0 157.5 38.5t54.5 111.5q0 72 -53 114.5t-191 86.5q-65 20 -108 41t-81 53t-56.5 78t-18.5 109q0 107 70 171.5t166 64.5q73 0 155 -31q41 -15 56 -15q49 0 75 46h35v-281h-40q-31 83 -72 139 q-36 49 -85.5 71.5t-129.5 22.5q-58 0 -92 -36.5t-34 -85.5q0 -32 10.5 -56.5t26.5 -42t48.5 -34.5t62 -29t82.5 -30q161 -55 227.5 -117t66.5 -169q0 -120 -80.5 -194t-247.5 -74q-67 0 -142 23q-49 14 -83 14q-31 0 -44 -37h-33z" />
<glyph unicode="t" horiz-adv-x="770" d="M56 836v48h174v196q61 0 85 8.5t32 32.5q10 28 21 35.5t47 7.5q-23 -145 -23 -280h228v-48h-228v-646q0 -69 28 -95.5t86 -26.5q62 0 96.5 62t39.5 142h48q-4 -56 -20 -105.5t-44 -91.5t-74 -66.5t-105 -24.5q-43 0 -80.5 11t-69 35t-49.5 66.5t-18 99.5v640h-174z" />
<glyph unicode="u" horiz-adv-x="1156" d="M60 836v48h306v-644q0 -184 164 -184q64 0 114 43t82 108q33 66 44.5 124t11.5 141v364h-142v48h306v-836h142v-48h-306v210l-12 3q-48 -112 -128.5 -170.5t-183.5 -58.5q-124 0 -193 85q-63 78 -63 207v560h-142z" />
<glyph unicode="v" horiz-adv-x="980" d="M40 836v48h436v-48h-142l237 -610l220 610h-129v48h282v-48h-102l-309 -854h-44l-332 854h-117z" />
<glyph unicode="w" horiz-adv-x="1498" d="M40 836v48h436v-48h-142l219 -610l197 501l-39 109h-117v48h436v-48h-142l216 -596l205 596h-129v48h282v-48h-102l-295 -854h-44l-247 680l-267 -680h-44l-306 854h-117z" />
<glyph unicode="x" horiz-adv-x="1100" d="M60 0v56h165l253 359l-268 413h-117v56h455v-56h-144l174 -271l191 271h-125v56h318v-56h-135l-221 -315l294 -457h164v-56h-527v56h174l-205 315l-221 -315h156v-56h-381z" />
<glyph unicode="y" horiz-adv-x="1024" d="M-6 -465q0 49 28.5 80t77.5 31q35 0 55.5 -20.5t20.5 -47.5q0 -19 -8 -51q-8 -30 -8 -52q0 -49 68 -49q51 0 85 46t60 123l133 386l-348 855h-118v48h458v-48h-162l252 -620l214 620h-123v48h309v-48h-129l-432 -1244q-13 -38 -23.5 -62.5t-30.5 -58t-43 -53t-59.5 -34 t-80.5 -14.5q-84 0 -140 42.5t-56 122.5z" />
<glyph unicode="z" horiz-adv-x="934" d="M84 580l22 304h660v-54l-460 -782h225q138 0 209 124q49 84 70 206h44l-14 -378h-720v56l459 780h-211q-57 0 -96.5 -16t-72.5 -58q-44 -56 -71 -182h-44z" />
<glyph unicode="{" horiz-adv-x="780" d="M182 466v44q233 0 233 223q0 75 -38 225q-41 164 -41 251q0 133 93.5 208.5t252.5 94.5l10 -54q-110 -19 -167 -56t-57 -115q0 -91 38 -236q41 -156 41 -235q0 -143 -63 -223t-164 -103v-4q101 -23 164 -103.5t63 -223.5q0 -79 -41 -235q-38 -145 -38 -236 q0 -78 56.5 -114.5t167.5 -55.5l-10 -54q-159 19 -252.5 94.5t-93.5 208.5q0 87 41 251q38 150 38 225q0 223 -233 223z" />
<glyph unicode="|" horiz-adv-x="512" d="M202 -520v1954h108v-1954h-108z" />
<glyph unicode="}" horiz-adv-x="780" d="M88 -482q110 19 167 56t57 115q0 91 -38 236q-41 156 -41 235q0 143 63 223t164 103v4q-101 23 -164 103.5t-63 223.5q0 79 41 235q38 145 38 236q0 78 -56.5 114.5t-167.5 55.5l10 54q159 -19 252.5 -94.5t93.5 -208.5q0 -87 -41 -251q-38 -150 -38 -225 q0 -223 233 -223v-44q-233 0 -233 -223q0 -75 38 -225q41 -164 41 -251q0 -133 -93.5 -208.5t-252.5 -94.5z" />
<glyph unicode="~" d="M112 422q130 208 308 208q40 0 80.5 -11t64.5 -22.5t63 -32.5q36 -19 57 -29t54 -19.5t63 -9.5q69 0 112 31.5t90 96.5l36 -28q-130 -208 -308 -208q-56 0 -103 17t-105 49q-106 58 -174 58q-69 0 -112 -31.5t-90 -96.5z" />
<glyph unicode="&#xa1;" horiz-adv-x="528" d="M126 -459q0 105 24 247q29 166 43 301l43 405h56l43 -405q14 -135 43 -301q24 -142 24 -247q0 -72 -35 -120.5t-103 -48.5t-103 48.5t-35 120.5zM136 780q0 54 37 91t91 37t91 -37t37 -91t-37 -91t-91 -37t-91 37t-37 91z" />
<glyph unicode="&#xa2;" d="M196 -550l207 592q-96 55 -149.5 156.5t-53.5 233.5q0 93 33.5 179t91.5 149.5t139.5 101.5t173.5 38q31 0 63 -5l189 539h62l-194 -554q84 -30 130 -93.5t46 -123.5q0 -49 -27 -85t-79 -36q-37 0 -59.5 20t-22.5 52t13 68q13 35 13 71q0 40 -35 68l-248 -711 q68 -68 171 -68q53 0 95.5 19t68.5 48.5t43.5 68.5t24.5 76.5t8 75.5h52q-1 -48 -8.5 -92t-30 -91.5t-56.5 -82.5t-92.5 -57.5t-134.5 -22.5q-95 0 -174 32l-198 -566h-62zM384 460q0 -186 63 -293l237 679q-22 6 -53 6q-118 0 -182.5 -108t-64.5 -284z" />
<glyph unicode="&#xa3;" horiz-adv-x="1420" d="M68 138q0 76 57 122t139 46q72 0 134.5 -14.5t155.5 -46.5q20 48 20 103q0 166 -53 318h-309v64h294q-20 94 -20 184q0 153 73.5 276t201.5 191.5t285 68.5q121 0 201.5 -69t80.5 -174q0 -93 -55.5 -151t-125.5 -58q-56 0 -100 30.5t-44 85.5q0 45 28.5 70.5t63.5 25.5 q41 0 70 -31q22 -25 46 -25q18 0 33.5 22t15.5 66q0 60 -56 110t-162 50q-137 0 -205 -102.5t-91 -293.5q-11 -93 -17 -276h313v-64h-316q-9 -166 -27 -257.5t-64 -190.5q180 -54 338 -54q70 0 114.5 38t44.5 93q0 69 -43 111l40 31q30 -30 50.5 -75t20.5 -94 q0 -126 -66.5 -205t-198.5 -79q-60 0 -110.5 9.5t-99 32.5t-78.5 40.5t-83 52.5q-127 -135 -306 -135q-79 0 -134.5 40t-55.5 114zM132 139q0 -56 37 -81.5t87 -25.5q79 0 143 34t107 91q-80 53 -135 77t-115 24q-54 0 -89 -34t-35 -85z" />
<glyph unicode="&#xa4;" d="M134 139l121 120q-83 109 -83 253q0 145 84 253l-122 122l68 69l122 -123q106 83 252 83q144 0 253 -83l121 123l68 -70l-121 -121q83 -106 83 -253q0 -146 -83 -252l121 -121l-68 -69l-121 122q-108 -84 -253 -84q-147 0 -253 83l-120 -121zM260 512q0 -138 89 -227 t227 -89t227 89t89 227t-89 227t-227 89t-227 -89t-89 -227z" />
<glyph unicode="&#xa5;" d="M24 1386v48h436v-48h-142l301 -581l303 581h-136v48h318v-48h-127l-308 -594h321v-64h-332v-188h332v-64h-332v-428h142v-48h-448v48h142v428h-334v64h334v154l-18 34h-316v64h283l-307 594h-112z" />
<glyph unicode="&#xa6;" horiz-adv-x="512" d="M202 248h108v-768h-108v768zM202 666v768h108v-768h-108z" />
<glyph unicode="&#xa7;" horiz-adv-x="1042" d="M158 -256q0 74 49 124.5t108 50.5q47 0 76 -25.5t29 -70.5q0 -36 -18 -59t-48 -42q-19 -13 -29.5 -21.5t-19.5 -25t-9 -38.5q0 -58 54.5 -91.5t137.5 -33.5q57 0 103 17.5t74.5 44.5t47.5 62.5t27 70t8 68.5q0 46 -14 89t-34 77t-56.5 72.5t-67.5 65.5t-81 67 q-70 56 -114 97.5t-93 103.5t-73.5 134t-24.5 155q0 149 104 265q-81 112 -81 229q0 93 49 167.5t125.5 113.5t162.5 39q155 0 242.5 -77t87.5 -194q0 -64 -44 -109t-103 -45q-44 0 -74 25.5t-30 66.5q0 58 68 98q43 24 43 67q0 50 -49.5 85t-138.5 35q-35 0 -71 -10.5 t-71 -32.5t-57 -62.5t-22 -94.5q0 -41 14 -80t32.5 -69t54 -66t62.5 -59t73 -60q55 -44 88 -73t76 -77t67 -91.5t41 -105t17 -129.5q0 -79 -22.5 -141t-72.5 -128q91 -117 91 -257q0 -52 -11.5 -105t-39 -107t-67.5 -96t-103.5 -68t-140.5 -26q-144 0 -238 79.5t-94 200.5z M246 694q0 -67 80.5 -161t199.5 -189q145 -116 206 -186q68 84 68 173q0 68 -73 156.5t-188 180.5q-155 125 -218 199q-75 -79 -75 -173z" />
<glyph unicode="&#xa8;" horiz-adv-x="880" d="M142 1208q0 42 27 69t69 27t69 -27t27 -69t-27 -69t-69 -27t-69 27t-27 69zM546 1208q0 42 27 69t69 27t69 -27t27 -69t-27 -69t-69 -27t-69 27t-27 69z" />
<glyph unicode="&#xa9;" horiz-adv-x="1672" d="M64 744q0 157 61 300t164.5 246.5t246.5 164.5t300 61t300 -61t246.5 -164.5t164.5 -246.5t61 -300t-61 -300t-164.5 -246.5t-246.5 -164.5t-300 -61t-300 61t-246.5 164.5t-164.5 246.5t-61 300zM128 744q0 -144 56 -275t151 -226t226 -151t275 -56t275 56t226 151 t151 226t56 275t-56 275t-151 226t-226 151t-275 56t-275 -56t-226 -151t-151 -226t-56 -275zM392 744q0 106 38.5 196t102 149t144 92t165.5 33q80 0 168 -33q52 -20 72 -20q37 0 48 53h28v-324h-36q-25 103 -73 171q-74 105 -207 105q-130 0 -198 -107t-68 -315t68 -315 t198 -107q133 0 207 105q48 68 73 171h36v-324h-28q-11 53 -48 53q-20 0 -72 -20q-88 -33 -168 -33q-85 0 -165.5 33t-144 92t-102 149t-38.5 196z" />
<glyph unicode="&#xaa;" horiz-adv-x="780" d="M164 1035q0 72 42 107t119 44q82 10 147 51v58q0 115 -109 115q-36 0 -63.5 -14.5t-27.5 -37.5q0 -14 9 -30q9 -19 9 -35t-14 -28t-42 -12q-62 0 -62 55q0 54 56 96t137 42q110 0 162.5 -53.5t52.5 -140.5v-231q0 -35 17 -51t43 -16q22 0 39 5l7 -39q-30 -10 -56 -10 q-61 0 -98.5 21t-54.5 81h-5q-30 -48 -68.5 -75t-96.5 -27q-65 0 -104 33.5t-39 91.5zM280 1048q0 -84 84 -84q62 0 108 80v165q-45 -29 -130 -51q-62 -15 -62 -110z" />
<glyph unicode="&#xab;" horiz-adv-x="942" d="M190 442q0 98 55 163t154 113l25 -39q-118 -74 -118 -237t118 -237l-25 -39q-99 48 -154 113t-55 163zM486 442q0 98 55 163t154 113l25 -39q-118 -74 -118 -237t118 -237l-25 -39q-99 48 -154 113t-55 163z" />
<glyph unicode="&#xac;" d="M62 650v96h1028v-472h-112v376h-916z" />
<glyph unicode="&#xad;" horiz-adv-x="900" d="M136 346v132h628v-132h-628z" />
<glyph unicode="&#xae;" horiz-adv-x="1672" d="M64 744q0 157 61 300t164.5 246.5t246.5 164.5t300 61t300 -61t246.5 -164.5t164.5 -246.5t61 -300t-61 -300t-164.5 -246.5t-246.5 -164.5t-300 -61t-300 61t-246.5 164.5t-164.5 246.5t-61 300zM128 744q0 -144 56 -275t151 -226t226 -151t275 -56t275 56t226 151 t151 226t56 275t-56 275t-151 226t-226 151t-275 56t-275 -56t-226 -151t-151 -226t-56 -275zM414 302v48h142v788h-142v48h456q148 0 221 -63.5t73 -152.5t-59.5 -135.5t-172.5 -60.5v-11q113 -14 172.5 -63.5t59.5 -114.5v-129q0 -62 20.5 -87.5t70.5 -25.5q35 0 69 16 l14 -42q-67 -30 -147 -30q-33 0 -63.5 7t-61 22.5t-48.5 47.5t-18 76v143q0 69 -36.5 116t-108.5 47h-135v-396h142v-48h-448zM720 794h149q62 0 96.5 45.5t34.5 115.5q0 75 -35.5 129t-109.5 54h-135v-344z" />
<glyph unicode="&#xaf;" horiz-adv-x="880" d="M152 1134v88h576v-88h-576z" />
<glyph unicode="&#xb0;" d="M200 1118q0 162 107 268t269 106t269 -106t107 -268t-107 -268t-269 -106t-269 106t-107 268zM280 1118q0 -126 85 -210t211 -84t211 84t85 210t-85 210t-211 84t-211 -84t-85 -210z" />
<glyph unicode="&#xb1;" d="M62 -1h1028v-96h-1028v96zM62 562v96h460v466h108v-466h460v-96h-460v-466h-108v466h-460z" />
<glyph unicode="&#xb2;" horiz-adv-x="660" d="M60 1222q0 98 65.5 169t179.5 71q125 0 194 -68t69 -165q0 -76 -41 -145.5t-123 -145.5q-90 -83 -190 -159l2 -7h235q62 0 91 62q16 36 26 80h30l-20 -254h-492v46q50 39 79 63.5t71.5 66t83.5 90.5q108 127 108 276q0 196 -180 196q-67 0 -108.5 -47.5t-41.5 -113.5 q0 -48 27 -75.5t76 -27.5q39 0 58 21.5t19 50.5q0 24 -9 41l19 12q24 -34 24 -86q0 -47 -28 -85t-84 -38q-67 0 -103.5 45t-36.5 127z" />
<glyph unicode="&#xb3;" horiz-adv-x="660" d="M84 809q0 42 24 70.5t64 28.5q23 0 37.5 -14t14.5 -35q0 -33 -38 -61q-23 -16 -23 -41q0 -36 41 -57.5t96 -21.5q81 0 120.5 61.5t39.5 152.5q0 85 -33.5 138.5t-106.5 53.5q-55 0 -97 -39l-21 21l263 267l-3 5h-205q-40 0 -66 -10t-42 -41q-28 -54 -35 -117h-24l7 272 h433q38 0 73 29l19 -23l-325 -328l2 -3q14 3 39 3q105 0 183.5 -59.5t78.5 -168.5q0 -116 -88.5 -183t-209.5 -67q-89 0 -153.5 44t-64.5 123z" />
<glyph unicode="&#xb4;" horiz-adv-x="880" d="M342 1072l106 289q37 101 103 101q32 0 50.5 -19t18.5 -47q0 -46 -51 -108l-195 -234z" />
<glyph unicode="&#xb5;" horiz-adv-x="1220" d="M126 -352q0 172 46 658q-18 140 -18 335q0 255 130 255q39 0 58.5 -31t19.5 -84q0 -76 -22.5 -171.5t-53.5 -172.5q-34 -86 -54 -193q43 -71 101.5 -102t140.5 -31q61 0 108 39t73.5 98.5t43 143t22 158.5t5.5 159q0 75 29.5 131t86.5 56q53 0 77.5 -42.5t24.5 -101.5 q0 -56 -42 -222q-38 -149 -51 -233q45 -128 177 -128q42 0 72.5 23.5t44.5 62.5q43 -42 43 -104q0 -64 -34 -113.5t-90 -49.5q-149 0 -226 248l-9 2q-39 -112 -107 -181t-158 -69q-109 0 -188 46t-151 156l-7 -2q-20 -108 -20 -184q0 -220 87 -391q47 -92 47 -141 q0 -101 -80 -101q-66 0 -96 67.5t-30 209.5z" />
<glyph unicode="&#xb6;" horiz-adv-x="1188" d="M142 1054q0 96 48.5 183t135 142t188.5 55h586v-64h-228v-1890h-88v1890h-238v-1890h-88v1194q-139 18 -227.5 126t-88.5 254z" />
<glyph unicode="&#xb7;" horiz-adv-x="352" d="M48 596q0 54 37 91t91 37t91 -37t37 -91t-37 -91t-91 -37t-91 37t-37 91z" />
<glyph unicode="&#xb8;" horiz-adv-x="1006" d="M228 -337q0 43 24.5 70t59.5 27q26 0 40 -14t14 -34q0 -32 -26 -54q-24 -21 -24 -48q0 -44 80 -44q53 0 84 53q30 51 30 109q0 57 -76 79q-54 16 -54 47q0 17 25 66l49 -14q-14 -25 -14 -38q0 -11 8 -16t32 -12q52 -15 89 -54t37 -96q0 -71 -40 -116q-49 -56 -148 -56 q-81 0 -135.5 38t-54.5 107z" />
<glyph unicode="&#xb9;" horiz-adv-x="660" d="M120 1088q144 144 214 354h86v-746h126v-36h-380v36h126v541l-9 2q-63 -100 -137 -175z" />
<glyph unicode="&#xba;" horiz-adv-x="780" d="M124 1178q0 116 77 192t189 76t189 -76t77 -192t-77 -192t-189 -76t-189 76t-77 192zM244 1178q0 -235 146 -235t146 235t-146 235t-146 -235z" />
<glyph unicode="&#xbb;" horiz-adv-x="942" d="M222 205q118 74 118 237t-118 237l25 39q99 -48 154 -113t55 -163t-55 -163t-154 -113zM518 205q118 74 118 237t-118 237l25 39q99 -48 154 -113t55 -163t-55 -163t-154 -113z" />
<glyph unicode="&#xbc;" horiz-adv-x="1540" d="M120 1088q144 144 214 354h86v-746h126v-36h-380v36h126v541l-9 2q-63 -100 -137 -175zM282 -16l892 1478h84l-894 -1478h-82zM944 210v19q45 61 73.5 113t48.5 120q36 121 36 296q0 22 2 36.5t9 32t24.5 26.5t44.5 9q31 0 46.5 -21.5t15.5 -55.5q0 -103 -127 -335 q-64 -118 -125 -204l2 -6h218v173l99 121h29v-294h40q21 0 33 15t24 42q17 40 23 79h16l-28 -166h-108v-206h-128v206h-268z" />
<glyph unicode="&#xbd;" horiz-adv-x="1540" d="M120 1088q144 144 214 354h86v-746h126v-36h-380v36h126v541l-9 2q-63 -100 -137 -175zM282 -16l892 1478h84l-894 -1478h-82zM940 566q0 98 65.5 169t179.5 71q125 0 194 -68t69 -165q0 -76 -41 -145.5t-123 -145.5q-90 -83 -190 -159l2 -7h235q62 0 91 62q16 36 26 80 h30l-20 -254h-492v46q50 39 79 63.5t71.5 66t83.5 90.5q108 127 108 276q0 196 -180 196q-67 0 -108.5 -47.5t-41.5 -113.5q0 -48 27 -75.5t76 -27.5q39 0 58 21.5t19 50.5q0 24 -9 41l19 12q24 -34 24 -86q0 -47 -28 -85t-84 -38q-67 0 -103.5 45t-36.5 127z" />
<glyph unicode="&#xbe;" horiz-adv-x="1540" d="M84 809q0 42 24 70.5t64 28.5q23 0 37.5 -14t14.5 -35q0 -33 -38 -61q-23 -16 -23 -41q0 -36 41 -57.5t96 -21.5q81 0 120.5 61.5t39.5 152.5q0 85 -33.5 138.5t-106.5 53.5q-55 0 -97 -39l-21 21l263 267l-3 5h-205q-40 0 -66 -10t-42 -41q-28 -54 -35 -117h-24l7 272 h433q38 0 73 29l19 -23l-325 -328l2 -3q14 3 39 3q105 0 183.5 -59.5t78.5 -168.5q0 -116 -88.5 -183t-209.5 -67q-89 0 -153.5 44t-64.5 123zM282 -16l892 1478h84l-894 -1478h-82zM944 210v19q45 61 73.5 113t48.5 120q36 121 36 296q0 22 2 36.5t9 32t24.5 26.5t44.5 9 q31 0 46.5 -21.5t15.5 -55.5q0 -103 -127 -335q-64 -118 -125 -204l2 -6h218v173l99 121h29v-294h40q21 0 33 15t24 42q17 40 23 79h16l-28 -166h-108v-206h-128v206h-268z" />
<glyph unicode="&#xbf;" horiz-adv-x="852" d="M84 -171q0 96 28 170t74 115.5t96.5 61.5t103.5 20q74 0 122 -30l4 4v375h72v-497h-34q-18 38 -46 62q-45 38 -122 38q-150 0 -150 -352q0 -56 6.5 -106t22 -99t40 -84t63.5 -57t89 -22q67 0 89 54q12 29 12 100q0 74 70 74q40 0 62 -21.5t22 -59.5q0 -90 -74.5 -146.5 t-178.5 -56.5q-113 0 -199.5 68.5t-129 171t-42.5 217.5zM422 780q0 54 37 91t91 37t91 -37t37 -91t-37 -91t-91 -37t-91 37t-37 91z" />
<glyph unicode="&#xc0;" horiz-adv-x="1534" d="M56 0v52h218l462 1410h60l524 -1410h182v-52h-672v52h250l-170 460h-418l-150 -460h210v-52h-496zM466 1818q0 26 17.5 48t44.5 22q61 0 130 -64l256 -239l-22 -29l-314 148q-112 53 -112 114zM508 564h382l-202 545z" />
<glyph unicode="&#xc1;" horiz-adv-x="1534" d="M56 0v52h218l462 1410h60l524 -1410h182v-52h-672v52h250l-170 460h-418l-150 -460h210v-52h-496zM508 564h382l-202 545zM614 1585l256 239q69 64 130 64q27 0 44.5 -22t17.5 -48q0 -61 -112 -114l-314 -148z" />
<glyph unicode="&#xc2;" horiz-adv-x="1534" d="M56 0v52h218l462 1410h60l524 -1410h182v-52h-672v52h250l-170 460h-418l-150 -460h210v-52h-496zM446 1564l297 324h100l301 -324h-181l-233 251l-230 -251h-54zM508 564h382l-202 545z" />
<glyph unicode="&#xc3;" horiz-adv-x="1534" d="M56 0v52h218l462 1410h60l524 -1410h182v-52h-672v52h250l-170 460h-418l-150 -460h210v-52h-496zM392 1635q74 183 224 183q38 0 74.5 -8t56 -16t53.5 -24q33 -16 53.5 -24t56.5 -16t73 -8q22 0 39.5 8t30.5 24.5t20 29.5t17 35l46 -18q-74 -183 -224 -183 q-38 0 -74.5 8t-56 16t-53.5 24q-33 16 -53.5 24t-56.5 16t-73 8q-22 0 -39.5 -8t-30.5 -24.5t-20 -29.5t-17 -35zM508 564h382l-202 545z" />
<glyph unicode="&#xc4;" horiz-adv-x="1534" d="M56 0v52h218l462 1410h60l524 -1410h182v-52h-672v52h250l-170 460h-418l-150 -460h210v-52h-496zM428 1722q0 36 25.5 60t61.5 24t61.5 -24t25.5 -60t-25.5 -63t-61.5 -27t-61.5 27t-25.5 63zM508 564h382l-202 545zM926 1722q0 36 25.5 60t61.5 24t61.5 -24t25.5 -60 t-25.5 -63t-61.5 -27t-61.5 27t-25.5 63z" />
<glyph unicode="&#xc5;" horiz-adv-x="1534" d="M56 0v52h218l462 1410h60l524 -1410h182v-52h-672v52h250l-170 460h-418l-150 -460h210v-52h-496zM498 1738q0 90 75 146t191 56t191 -56t75 -146t-75 -146t-191 -56t-191 56t-75 146zM508 564h382l-202 545zM562 1738q0 -61 54 -99.5t148 -38.5t148 38.5t54 99.5 t-54 99.5t-148 38.5t-148 -38.5t-54 -99.5z" />
<glyph unicode="&#xc6;" horiz-adv-x="2236" d="M48 0v52h221l792 1330h-207v52h1224l10 -376h-52q-8 40 -15 65t-26.5 70t-48.5 85q-74 104 -228 104h-360v-606h186q99 0 170 108q22 34 38 95t16 89h48v-634h-48q0 28 -16 89t-38 95q-70 106 -170 106h-186v-672h337q223 0 321 135q48 65 67 119t35 141h52l-6 -447 h-1206v52h192v672h-402l-401 -672h251v-52h-550zM778 776h372v606h-11z" />
<glyph unicode="&#xc7;" horiz-adv-x="1486" d="M146 712q0 136 38 256.5t104 209.5t153 154t188 97.5t205 32.5q151 0 280 -47q59 -22 94 -22q30 0 47 16.5t35 52.5h44v-471h-44q-36 148 -113 254q-23 32 -48 57t-65.5 51.5t-99 41.5t-130.5 15q-217 0 -335.5 -178.5t-118.5 -519.5q0 -340 118 -514t336 -174 q72 0 130.5 15t99 41.5t65.5 51.5t48 57q77 106 113 254h44v-471h-44q-12 24 -20.5 36t-24.5 22.5t-37 10.5q-35 0 -94 -22q-129 -47 -280 -47q-132 0 -254.5 51t-219.5 143.5t-155.5 234.5t-58.5 311zM576 -420q0 53 30.5 86.5t73.5 33.5q31 0 49 -18t18 -43q0 -41 -34 -69 q-31 -28 -31 -62q0 -56 97 -56q32 0 62 19t48 50q33 56 33 141q0 40 -22.5 64.5t-70.5 38.5q-65 19 -65 56q0 25 32 87l60 -19q-20 -42 -20 -55t10.5 -19.5t41.5 -16.5q63 -19 108.5 -66.5t45.5 -118.5q0 -87 -50 -144q-59 -69 -186 -69q-98 0 -164 47t-66 133z" />
<glyph unicode="&#xc8;" horiz-adv-x="1426" d="M122 0v52h192v1330h-192v52h1120l10 -376h-52q-8 40 -15 65t-26.5 70t-48.5 85q-74 104 -228 104h-360v-606h186q99 0 170 108q22 34 38 95t16 89h48v-634h-48q0 28 -16 89t-38 95q-70 106 -170 106h-186v-672h337q223 0 321 135q48 65 67 119t35 141h52l-6 -447h-1206z M436 1818q0 26 17.5 48t44.5 22q61 0 130 -64l256 -239l-22 -29l-314 148q-112 53 -112 114z" />
<glyph unicode="&#xc9;" horiz-adv-x="1426" d="M122 0v52h192v1330h-192v52h1120l10 -376h-52q-8 40 -15 65t-26.5 70t-48.5 85q-74 104 -228 104h-360v-606h186q99 0 170 108q22 34 38 95t16 89h48v-634h-48q0 28 -16 89t-38 95q-70 106 -170 106h-186v-672h337q223 0 321 135q48 65 67 119t35 141h52l-6 -447h-1206z M584 1585l256 239q69 64 130 64q27 0 44.5 -22t17.5 -48q0 -61 -112 -114l-314 -148z" />
<glyph unicode="&#xca;" horiz-adv-x="1426" d="M122 0v52h192v1330h-192v52h1120l10 -376h-52q-8 40 -15 65t-26.5 70t-48.5 85q-74 104 -228 104h-360v-606h186q99 0 170 108q22 34 38 95t16 89h48v-634h-48q0 28 -16 89t-38 95q-70 106 -170 106h-186v-672h337q223 0 321 135q48 65 67 119t35 141h52l-6 -447h-1206z M416 1564l297 324h100l301 -324h-181l-233 251l-230 -251h-54z" />
<glyph unicode="&#xcb;" horiz-adv-x="1426" d="M122 0v52h192v1330h-192v52h1120l10 -376h-52q-8 40 -15 65t-26.5 70t-48.5 85q-74 104 -228 104h-360v-606h186q99 0 170 108q22 34 38 95t16 89h48v-634h-48q0 28 -16 89t-38 95q-70 106 -170 106h-186v-672h337q223 0 321 135q48 65 67 119t35 141h52l-6 -447h-1206z M398 1722q0 36 25.5 60t61.5 24t61.5 -24t25.5 -60t-25.5 -63t-61.5 -27t-61.5 27t-25.5 63zM896 1722q0 36 25.5 60t61.5 24t61.5 -24t25.5 -60t-25.5 -63t-61.5 -27t-61.5 27t-25.5 63z" />
<glyph unicode="&#xcc;" horiz-adv-x="786" d="M120 1818q0 26 17.5 48t44.5 22q61 0 130 -64l256 -239l-22 -29l-314 148q-112 53 -112 114zM122 0v52h192v1330h-192v52h592v-52h-192v-1330h192v-52h-592z" />
<glyph unicode="&#xcd;" horiz-adv-x="786" d="M122 0v52h192v1330h-192v52h592v-52h-192v-1330h192v-52h-592zM268 1585l256 239q69 64 130 64q27 0 44.5 -22t17.5 -48q0 -61 -112 -114l-314 -148z" />
<glyph unicode="&#xce;" horiz-adv-x="786" d="M100 1564l297 324h100l301 -324h-181l-233 251l-230 -251h-54zM122 0v52h192v1330h-192v52h592v-52h-192v-1330h192v-52h-592z" />
<glyph unicode="&#xcf;" horiz-adv-x="786" d="M82 1722q0 36 25.5 60t61.5 24t61.5 -24t25.5 -60t-25.5 -63t-61.5 -27t-61.5 27t-25.5 63zM122 0v52h192v1330h-192v52h592v-52h-192v-1330h192v-52h-592zM580 1722q0 36 25.5 60t61.5 24t61.5 -24t25.5 -60t-25.5 -63t-61.5 -27t-61.5 27t-25.5 63z" />
<glyph unicode="&#xd0;" horiz-adv-x="1568" d="M104 714v64h210v604h-192v52h719q90 0 179 -28.5t171 -88t144.5 -143.5t99.5 -203.5t37 -258.5t-37 -257.5t-99.5 -201t-144.5 -140.5t-171 -85.5t-179 -27.5h-719v52h192v662h-210zM522 52h273q100 0 178 36t127 96t81 146t44.5 179t12.5 203t-12.5 204t-44.5 181.5 t-81 149t-127 98.5t-178 37h-273v-604h287v-64h-287v-662z" />
<glyph unicode="&#xd1;" horiz-adv-x="1526" d="M102 0v52h204v1330h-204v52h498l610 -1003v951h-204v52h472v-52h-204v-1410h-60l-821 1350q-17 28 -17 60h-6v-1330h204v-52h-472zM448 1635q74 183 224 183q38 0 74.5 -8t56 -16t53.5 -24q33 -16 53.5 -24t56.5 -16t73 -8q22 0 39.5 8t30.5 24.5t20 29.5t17 35l46 -18 q-74 -183 -224 -183q-38 0 -74.5 8t-56 16t-53.5 24q-33 16 -53.5 24t-56.5 16t-73 8q-22 0 -39.5 -8t-30.5 -24.5t-20 -29.5t-17 -35z" />
<glyph unicode="&#xd2;" horiz-adv-x="1618" d="M146 712q0 136 38 256.5t104 209.5t153 154t188 97.5t205 32.5t205 -32.5t188 -97.5t153 -154t104 -209.5t38 -256.5q0 -169 -58.5 -311t-155.5 -234.5t-219.5 -143.5t-254.5 -51t-254.5 51t-219.5 143.5t-155.5 234.5t-58.5 311zM380 712q0 -340 118 -514t336 -174 t336 174t118 514q0 341 -118.5 519.5t-335.5 178.5t-335.5 -178.5t-118.5 -519.5zM536 1818q0 26 17.5 48t44.5 22q61 0 130 -64l256 -239l-22 -29l-314 148q-112 53 -112 114z" />
<glyph unicode="&#xd3;" horiz-adv-x="1618" d="M146 712q0 136 38 256.5t104 209.5t153 154t188 97.5t205 32.5t205 -32.5t188 -97.5t153 -154t104 -209.5t38 -256.5q0 -169 -58.5 -311t-155.5 -234.5t-219.5 -143.5t-254.5 -51t-254.5 51t-219.5 143.5t-155.5 234.5t-58.5 311zM380 712q0 -340 118 -514t336 -174 t336 174t118 514q0 341 -118.5 519.5t-335.5 178.5t-335.5 -178.5t-118.5 -519.5zM684 1585l256 239q69 64 130 64q27 0 44.5 -22t17.5 -48q0 -61 -112 -114l-314 -148z" />
<glyph unicode="&#xd4;" horiz-adv-x="1618" d="M146 712q0 136 38 256.5t104 209.5t153 154t188 97.5t205 32.5t205 -32.5t188 -97.5t153 -154t104 -209.5t38 -256.5q0 -169 -58.5 -311t-155.5 -234.5t-219.5 -143.5t-254.5 -51t-254.5 51t-219.5 143.5t-155.5 234.5t-58.5 311zM380 712q0 -340 118 -514t336 -174 t336 174t118 514q0 341 -118.5 519.5t-335.5 178.5t-335.5 -178.5t-118.5 -519.5zM516 1564l297 324h100l301 -324h-181l-233 251l-230 -251h-54z" />
<glyph unicode="&#xd5;" horiz-adv-x="1618" d="M146 712q0 136 38 256.5t104 209.5t153 154t188 97.5t205 32.5t205 -32.5t188 -97.5t153 -154t104 -209.5t38 -256.5q0 -169 -58.5 -311t-155.5 -234.5t-219.5 -143.5t-254.5 -51t-254.5 51t-219.5 143.5t-155.5 234.5t-58.5 311zM380 712q0 -340 118 -514t336 -174 t336 174t118 514q0 341 -118.5 519.5t-335.5 178.5t-335.5 -178.5t-118.5 -519.5zM462 1635q74 183 224 183q38 0 74.5 -8t56 -16t53.5 -24q33 -16 53.5 -24t56.5 -16t73 -8q22 0 39.5 8t30.5 24.5t20 29.5t17 35l46 -18q-74 -183 -224 -183q-38 0 -74.5 8t-56 16t-53.5 24 q-33 16 -53.5 24t-56.5 16t-73 8q-22 0 -39.5 -8t-30.5 -24.5t-20 -29.5t-17 -35z" />
<glyph unicode="&#xd6;" horiz-adv-x="1618" d="M146 712q0 136 38 256.5t104 209.5t153 154t188 97.5t205 32.5t205 -32.5t188 -97.5t153 -154t104 -209.5t38 -256.5q0 -169 -58.5 -311t-155.5 -234.5t-219.5 -143.5t-254.5 -51t-254.5 51t-219.5 143.5t-155.5 234.5t-58.5 311zM380 712q0 -340 118 -514t336 -174 t336 174t118 514q0 341 -118.5 519.5t-335.5 178.5t-335.5 -178.5t-118.5 -519.5zM498 1722q0 36 25.5 60t61.5 24t61.5 -24t25.5 -60t-25.5 -63t-61.5 -27t-61.5 27t-25.5 63zM996 1722q0 36 25.5 60t61.5 24t61.5 -24t25.5 -60t-25.5 -63t-61.5 -27t-61.5 27t-25.5 63z " />
<glyph unicode="&#xd7;" d="M179 183l329 330l-329 330l67 67l330 -329l330 329l67 -67l-329 -330l329 -330l-67 -67l-330 329l-330 -329z" />
<glyph unicode="&#xd8;" horiz-adv-x="1618" d="M146 22l173 189q-173 202 -173 501q0 136 38 256.5t104 209.5t153 154t188 97.5t205 32.5q126 0 245.5 -48t214.5 -138l170 186l58 -50l-175 -192q175 -208 175 -508q0 -169 -58.5 -311t-155.5 -234.5t-219.5 -143.5t-254.5 -51q-127 0 -247 47t-215 136l-168 -183z M380 712q0 -223 52 -377l770 840q-116 235 -368 235q-217 0 -335.5 -178.5t-118.5 -519.5zM464 257q115 -233 370 -233q218 0 336 174t118 514q0 226 -54 385z" />
<glyph unicode="&#xd9;" horiz-adv-x="1540" d="M88 1382v52h592v-52h-192v-1058q0 -86 24.5 -146.5t70 -93t99.5 -46.5t124 -14q191 0 304.5 100t113.5 290v968h-204v52h472v-52h-204v-976q0 -211 -129.5 -322.5t-352.5 -111.5q-526 0 -526 464v946h-192zM534 1818q0 26 17.5 48t44.5 22q61 0 130 -64l256 -239l-22 -29 l-314 148q-112 53 -112 114z" />
<glyph unicode="&#xda;" horiz-adv-x="1540" d="M88 1382v52h592v-52h-192v-1058q0 -86 24.5 -146.5t70 -93t99.5 -46.5t124 -14q191 0 304.5 100t113.5 290v968h-204v52h472v-52h-204v-976q0 -211 -129.5 -322.5t-352.5 -111.5q-526 0 -526 464v946h-192zM682 1585l256 239q69 64 130 64q27 0 44.5 -22t17.5 -48 q0 -61 -112 -114l-314 -148z" />
<glyph unicode="&#xdb;" horiz-adv-x="1540" d="M88 1382v52h592v-52h-192v-1058q0 -86 24.5 -146.5t70 -93t99.5 -46.5t124 -14q191 0 304.5 100t113.5 290v968h-204v52h472v-52h-204v-976q0 -211 -129.5 -322.5t-352.5 -111.5q-526 0 -526 464v946h-192zM514 1564l297 324h100l301 -324h-181l-233 251l-230 -251h-54z " />
<glyph unicode="&#xdc;" horiz-adv-x="1540" d="M88 1382v52h592v-52h-192v-1058q0 -86 24.5 -146.5t70 -93t99.5 -46.5t124 -14q191 0 304.5 100t113.5 290v968h-204v52h472v-52h-204v-976q0 -211 -129.5 -322.5t-352.5 -111.5q-526 0 -526 464v946h-192zM496 1722q0 36 25.5 60t61.5 24t61.5 -24t25.5 -60t-25.5 -63 t-61.5 -27t-61.5 27t-25.5 63zM994 1722q0 36 25.5 60t61.5 24t61.5 -24t25.5 -60t-25.5 -63t-61.5 -27t-61.5 27t-25.5 63z" />
<glyph unicode="&#xdd;" horiz-adv-x="1462" d="M68 1382v52h672v-52h-240l362 -665l332 665h-212v52h460v-52h-182l-364 -734v-596h192v-52h-592v52h192v540l-429 790h-191zM706 1585l256 239q69 64 130 64q27 0 44.5 -22t17.5 -48q0 -61 -112 -114l-314 -148z" />
<glyph unicode="&#xde;" horiz-adv-x="1362" d="M122 -468h192v1444h-192v52h192v354h-192v52h592v-52h-192v-354h226q93 0 187 -28t157 -76q190 -146 190 -364q0 -172 -120 -275t-304 -103h-336v-650h192v-52h-592v52zM522 234h316q52 0 90.5 17t63 46t39.5 73t21 93.5t6 112.5q0 53 -8 102.5t-27 102t-56.5 96.5 t-90.5 71q-55 28 -166 28h-188v-742z" />
<glyph unicode="&#xdf;" horiz-adv-x="1126" d="M78 0v48h142v906q0 220 89 362q56 89 140 142.5t185 53.5q148 0 233.5 -82.5t85.5 -197.5q0 -137 -96.5 -231t-244.5 -123v-8q188 -40 303 -176.5t115 -303.5q0 -182 -103.5 -295t-268.5 -113q-89 0 -151.5 51.5t-62.5 136.5q0 66 37.5 107t98.5 41q38 0 61 -20.5 t23 -56.5q0 -46 -56 -89q-25 -18 -34.5 -32.5t-9.5 -37.5q0 -25 28 -38.5t66 -13.5q94 0 141 83t47 274q0 64 -11 126t-36.5 123t-63 106.5t-96.5 74t-131 28.5h-50v48h50q55 0 102.5 17.5t89 55.5t65.5 107.5t24 162.5q0 107 -45.5 167.5t-129.5 60.5q-107 0 -168.5 -102 t-61.5 -306v-1056h-306z" />
<glyph unicode="&#xe0;" horiz-adv-x="990" d="M112 193q0 120 65.5 179t185.5 74q78 10 132 30.5t111 57.5v106q0 37 -8 71t-26.5 67.5t-55.5 53.5t-89 20q-60 0 -106 -26t-46 -67q0 -21 14 -53q15 -32 15 -62q0 -29 -21.5 -50.5t-63.5 -21.5q-48 0 -71.5 25.5t-23.5 68.5q0 91 91.5 162.5t220.5 71.5q174 0 254 -92.5 t80 -245.5v-403q0 -61 28.5 -89t71.5 -28q30 0 64 7l8 -51q-48 -14 -85 -14q-96 0 -155 32.5t-86 124.5h-8q-49 -74 -109 -115.5t-153 -41.5q-105 0 -169.5 56t-64.5 153zM264 1396q0 28 18.5 47t50.5 19q66 0 103 -101l106 -289l-32 -18l-195 234q-51 62 -51 108zM286 209 q0 -153 142 -153q52 0 98 40t80 102v289q-48 -31 -90.5 -46.5t-124.5 -36.5q-105 -27 -105 -195z" />
<glyph unicode="&#xe1;" horiz-adv-x="990" d="M112 193q0 120 65.5 179t185.5 74q78 10 132 30.5t111 57.5v106q0 37 -8 71t-26.5 67.5t-55.5 53.5t-89 20q-60 0 -106 -26t-46 -67q0 -21 14 -53q15 -32 15 -62q0 -29 -21.5 -50.5t-63.5 -21.5q-48 0 -71.5 25.5t-23.5 68.5q0 91 91.5 162.5t220.5 71.5q174 0 254 -92.5 t80 -245.5v-403q0 -61 28.5 -89t71.5 -28q30 0 64 7l8 -51q-48 -14 -85 -14q-96 0 -155 32.5t-86 124.5h-8q-49 -74 -109 -115.5t-153 -41.5q-105 0 -169.5 56t-64.5 153zM286 209q0 -153 142 -153q52 0 98 40t80 102v289q-48 -31 -90.5 -46.5t-124.5 -36.5 q-105 -27 -105 -195zM346 1072l106 289q37 101 103 101q32 0 50.5 -19t18.5 -47q0 -46 -51 -108l-195 -234z" />
<glyph unicode="&#xe2;" horiz-adv-x="990" d="M112 193q0 120 65.5 179t185.5 74q78 10 132 30.5t111 57.5v106q0 37 -8 71t-26.5 67.5t-55.5 53.5t-89 20q-60 0 -106 -26t-46 -67q0 -21 14 -53q15 -32 15 -62q0 -29 -21.5 -50.5t-63.5 -21.5q-48 0 -71.5 25.5t-23.5 68.5q0 91 91.5 162.5t220.5 71.5q174 0 254 -92.5 t80 -245.5v-403q0 -61 28.5 -89t71.5 -28q30 0 64 7l8 -51q-48 -14 -85 -14q-96 0 -155 32.5t-86 124.5h-8q-49 -74 -109 -115.5t-153 -41.5q-105 0 -169.5 56t-64.5 153zM182 1060l233 374h100l237 -374h-160l-184 291l-182 -291h-44zM286 209q0 -153 142 -153q52 0 98 40 t80 102v289q-48 -31 -90.5 -46.5t-124.5 -36.5q-105 -27 -105 -195z" />
<glyph unicode="&#xe3;" horiz-adv-x="990" d="M112 193q0 120 65.5 179t185.5 74q78 10 132 30.5t111 57.5v106q0 37 -8 71t-26.5 67.5t-55.5 53.5t-89 20q-60 0 -106 -26t-46 -67q0 -21 14 -53q15 -32 15 -62q0 -29 -21.5 -50.5t-63.5 -21.5q-48 0 -71.5 25.5t-23.5 68.5q0 91 91.5 162.5t220.5 71.5q174 0 254 -92.5 t80 -245.5v-403q0 -61 28.5 -89t71.5 -28q30 0 64 7l8 -51q-48 -14 -85 -14q-96 0 -155 32.5t-86 124.5h-8q-49 -74 -109 -115.5t-153 -41.5q-105 0 -169.5 56t-64.5 153zM132 1076q30 208 176 208q61 0 170 -49q100 -45 156 -45q20 0 33.5 8t22 25t13 31.5t9.5 39.5l44 -8 q-30 -208 -176 -208q-61 0 -170 49q-100 45 -156 45q-20 0 -33.5 -8t-22 -25t-13 -31.5t-9.5 -39.5zM286 209q0 -153 142 -153q52 0 98 40t80 102v289q-48 -31 -90.5 -46.5t-124.5 -36.5q-105 -27 -105 -195z" />
<glyph unicode="&#xe4;" horiz-adv-x="990" d="M112 193q0 120 65.5 179t185.5 74q78 10 132 30.5t111 57.5v106q0 37 -8 71t-26.5 67.5t-55.5 53.5t-89 20q-60 0 -106 -26t-46 -67q0 -21 14 -53q15 -32 15 -62q0 -29 -21.5 -50.5t-63.5 -21.5q-48 0 -71.5 25.5t-23.5 68.5q0 91 91.5 162.5t220.5 71.5q174 0 254 -92.5 t80 -245.5v-403q0 -61 28.5 -89t71.5 -28q30 0 64 7l8 -51q-48 -14 -85 -14q-96 0 -155 32.5t-86 124.5h-8q-49 -74 -109 -115.5t-153 -41.5q-105 0 -169.5 56t-64.5 153zM146 1208q0 42 27 69t69 27t69 -27t27 -69t-27 -69t-69 -27t-69 27t-27 69zM286 209q0 -153 142 -153 q52 0 98 40t80 102v289q-48 -31 -90.5 -46.5t-124.5 -36.5q-105 -27 -105 -195zM550 1208q0 42 27 69t69 27t69 -27t27 -69t-27 -69t-69 -27t-69 27t-27 69z" />
<glyph unicode="&#xe5;" horiz-adv-x="990" d="M112 193q0 120 65.5 179t185.5 74q78 10 132 30.5t111 57.5v106q0 37 -8 71t-26.5 67.5t-55.5 53.5t-89 20q-60 0 -106 -26t-46 -67q0 -21 14 -53q15 -32 15 -62q0 -29 -21.5 -50.5t-63.5 -21.5q-48 0 -71.5 25.5t-23.5 68.5q0 91 91.5 162.5t220.5 71.5q174 0 254 -92.5 t80 -245.5v-403q0 -61 28.5 -89t71.5 -28q30 0 64 7l8 -51q-48 -14 -85 -14q-96 0 -155 32.5t-86 124.5h-8q-49 -74 -109 -115.5t-153 -41.5q-105 0 -169.5 56t-64.5 153zM214 1258q0 99 65.5 164.5t164.5 65.5t164.5 -65.5t65.5 -164.5t-65.5 -164.5t-164.5 -65.5 t-164.5 65.5t-65.5 164.5zM270 1258q0 -74 50 -124t124 -50t124 50t50 124t-50 124t-124 50q-72 0 -123 -50.5t-51 -123.5zM286 209q0 -153 142 -153q52 0 98 40t80 102v289q-48 -31 -90.5 -46.5t-124.5 -36.5q-105 -27 -105 -195z" />
<glyph unicode="&#xe6;" horiz-adv-x="1452" d="M112 199q0 120 69.5 174t195.5 70q177 23 259 77v138q0 36 -8.5 68t-28 61.5t-57 47t-89.5 17.5q-62 0 -105 -27.5t-43 -69.5q0 -21 14 -53q15 -32 15 -58q0 -29 -21.5 -50.5t-63.5 -21.5q-48 0 -71.5 25.5t-23.5 68.5q0 91 91.5 162.5t220.5 71.5q176 0 264 -122h8 q105 122 287 122q80 0 145.5 -31.5t104.5 -82.5t60 -109.5t21 -116.5q0 -43 -15 -61.5t-59 -18.5h-482q0 -80 6 -141t23 -117.5t44.5 -93.5t72.5 -58.5t106 -21.5q108 0 175 70t81 180h52q-4 -57 -25 -110.5t-60.5 -100t-105 -75t-147.5 -28.5q-119 0 -202.5 39t-141.5 125 h-14q-39 -61 -122.5 -112.5t-199.5 -51.5q-105 0 -167.5 57t-62.5 158zM286 221q0 -96 36 -130.5t106 -34.5q55 0 116 42.5t92 99.5v277q-49 -29 -98.5 -44t-127.5 -27q-124 -19 -124 -183zM801 528h316q41 0 54 22.5t13 64.5q0 43 -9.5 83t-29.5 75.5t-56.5 57t-84.5 21.5 t-84 -20t-57 -50t-35 -75.5t-19.5 -86.5t-7.5 -92z" />
<glyph unicode="&#xe7;" horiz-adv-x="944" d="M96 432q0 93 33.5 179t91.5 149.5t139.5 101.5t173.5 38q72 0 131.5 -24t94 -61t52.5 -76.5t18 -75.5q0 -49 -27 -85t-79 -36q-37 0 -59.5 20t-22.5 52t13 68q13 35 13 71q0 37 -35 68t-106 31q-118 0 -182.5 -108t-64.5 -284q0 -192 70 -305t206 -113q53 0 95.5 19 t68.5 48.5t43.5 68.5t24.5 76.5t8 75.5h52q-1 -48 -8.5 -92t-30 -91.5t-56.5 -82.5t-92.5 -57.5t-134.5 -22.5q-193 0 -311.5 124t-118.5 324zM314 -337q0 43 24.5 70t59.5 27q26 0 40 -14t14 -34q0 -32 -26 -54q-24 -21 -24 -48q0 -44 80 -44q53 0 84 53q30 51 30 109 q0 57 -76 79q-54 16 -54 47q0 17 25 66l49 -14q-14 -25 -14 -38q0 -11 8 -16t32 -12q52 -15 89 -54t37 -96q0 -71 -40 -116q-49 -56 -148 -56q-81 0 -135.5 38t-54.5 107z" />
<glyph unicode="&#xe8;" horiz-adv-x="962" d="M96 430q0 131 52 237.5t151.5 169.5t229.5 63q80 0 147 -32t108 -82t63.5 -109t22.5 -117q0 -43 -15 -61.5t-59 -18.5h-516q0 -432 276 -432q108 0 175 70t81 180h52q-4 -57 -25 -110.5t-60.5 -100t-105 -75t-147.5 -28.5q-186 0 -308 124t-122 322zM281 528h350 q42 0 54.5 23t12.5 74q0 93 -46.5 160t-143.5 67q-48 0 -86.5 -19.5t-63.5 -51t-42 -75t-25 -87t-10 -91.5zM322 1396q0 28 18.5 47t50.5 19q66 0 103 -101l106 -289l-32 -18l-195 234q-51 62 -51 108z" />
<glyph unicode="&#xe9;" horiz-adv-x="962" d="M96 430q0 131 52 237.5t151.5 169.5t229.5 63q80 0 147 -32t108 -82t63.5 -109t22.5 -117q0 -43 -15 -61.5t-59 -18.5h-516q0 -432 276 -432q108 0 175 70t81 180h52q-4 -57 -25 -110.5t-60.5 -100t-105 -75t-147.5 -28.5q-186 0 -308 124t-122 322zM281 528h350 q42 0 54.5 23t12.5 74q0 93 -46.5 160t-143.5 67q-48 0 -86.5 -19.5t-63.5 -51t-42 -75t-25 -87t-10 -91.5zM404 1072l106 289q37 101 103 101q32 0 50.5 -19t18.5 -47q0 -46 -51 -108l-195 -234z" />
<glyph unicode="&#xea;" horiz-adv-x="962" d="M96 430q0 131 52 237.5t151.5 169.5t229.5 63q80 0 147 -32t108 -82t63.5 -109t22.5 -117q0 -43 -15 -61.5t-59 -18.5h-516q0 -432 276 -432q108 0 175 70t81 180h52q-4 -57 -25 -110.5t-60.5 -100t-105 -75t-147.5 -28.5q-186 0 -308 124t-122 322zM240 1060l233 374 h100l237 -374h-160l-184 291l-182 -291h-44zM281 528h350q42 0 54.5 23t12.5 74q0 93 -46.5 160t-143.5 67q-48 0 -86.5 -19.5t-63.5 -51t-42 -75t-25 -87t-10 -91.5z" />
<glyph unicode="&#xeb;" horiz-adv-x="962" d="M96 430q0 131 52 237.5t151.5 169.5t229.5 63q80 0 147 -32t108 -82t63.5 -109t22.5 -117q0 -43 -15 -61.5t-59 -18.5h-516q0 -432 276 -432q108 0 175 70t81 180h52q-4 -57 -25 -110.5t-60.5 -100t-105 -75t-147.5 -28.5q-186 0 -308 124t-122 322zM204 1208q0 42 27 69 t69 27t69 -27t27 -69t-27 -69t-69 -27t-69 27t-27 69zM281 528h350q42 0 54.5 23t12.5 74q0 93 -46.5 160t-143.5 67q-48 0 -86.5 -19.5t-63.5 -51t-42 -75t-25 -87t-10 -91.5zM608 1208q0 42 27 69t69 27t69 -27t27 -69t-27 -69t-69 -27t-69 27t-27 69z" />
<glyph unicode="&#xec;" horiz-adv-x="600" d="M84 0v48h142v788h-142v48h306v-836h142v-48h-448zM106 1396q0 28 18.5 47t50.5 19q66 0 103 -101l106 -289l-32 -18l-195 234q-51 62 -51 108z" />
<glyph unicode="&#xed;" horiz-adv-x="600" d="M84 0v48h142v788h-142v48h306v-836h142v-48h-448zM188 1072l106 289q37 101 103 101q32 0 50.5 -19t18.5 -47q0 -46 -51 -108l-195 -234z" />
<glyph unicode="&#xee;" horiz-adv-x="600" d="M32 1060l213 374h100l217 -374h-156l-166 288l-164 -288h-44zM84 0v48h142v788h-142v48h306v-836h142v-48h-448z" />
<glyph unicode="&#xef;" horiz-adv-x="600" d="M2 1208q0 42 27 69t69 27t69 -27t27 -69t-27 -69t-69 -27t-69 27t-27 69zM84 0v48h142v788h-142v48h306v-836h142v-48h-448zM378 1208q0 42 27 69t69 27t69 -27t27 -69t-27 -69t-69 -27t-69 27t-27 69z" />
<glyph unicode="&#xf0;" horiz-adv-x="1030" d="M96 442q0 198 122.5 328t301.5 130q92 0 153 -34l9 8q-71 151 -202 311l-215 -134l-31 47l210 131q-64 78 -161 171q-28 27 -28 41q0 9 4.5 13t18.5 4h165q57 -54 135 -143l213 131l31 -47l-204 -128q47 -52 104 -135q110 -160 161 -300t51 -299q0 -256 -116 -404.5 t-298 -148.5q-179 0 -301.5 130t-122.5 328zM280 442q0 -212 60.5 -311t179.5 -99t179.5 99t60.5 311t-60.5 311t-179.5 99t-179.5 -99t-60.5 -311z" />
<glyph unicode="&#xf1;" horiz-adv-x="1172" d="M84 0v48h142v788h-142v48h306v-210l12 -3q48 112 128.5 170.5t183.5 58.5q124 0 193 -85q63 -78 63 -207v-560h142v-48h-448v48h142v596q0 184 -164 184q-64 0 -114 -43t-82 -108q-33 -66 -44.5 -124t-11.5 -141v-364h142v-48h-448zM264 1076q30 208 176 208 q61 0 170 -49q100 -45 156 -45q20 0 33.5 8t22 25t13 31.5t9.5 39.5l44 -8q-30 -208 -176 -208q-61 0 -170 49q-100 45 -156 45q-20 0 -33.5 -8t-22 -25t-13 -31.5t-9.5 -39.5z" />
<glyph unicode="&#xf2;" horiz-adv-x="1040" d="M96 442q0 198 122.5 328t301.5 130t301.5 -130t122.5 -328t-122.5 -328t-301.5 -130t-301.5 130t-122.5 328zM280 442q0 -212 60.5 -311t179.5 -99t179.5 99t60.5 311t-60.5 311t-179.5 99t-179.5 -99t-60.5 -311zM340 1396q0 28 18.5 47t50.5 19q66 0 103 -101l106 -289 l-32 -18l-195 234q-51 62 -51 108z" />
<glyph unicode="&#xf3;" horiz-adv-x="1040" d="M96 442q0 198 122.5 328t301.5 130t301.5 -130t122.5 -328t-122.5 -328t-301.5 -130t-301.5 130t-122.5 328zM280 442q0 -212 60.5 -311t179.5 -99t179.5 99t60.5 311t-60.5 311t-179.5 99t-179.5 -99t-60.5 -311zM422 1072l106 289q37 101 103 101q32 0 50.5 -19 t18.5 -47q0 -46 -51 -108l-195 -234z" />
<glyph unicode="&#xf4;" horiz-adv-x="1040" d="M96 442q0 198 122.5 328t301.5 130t301.5 -130t122.5 -328t-122.5 -328t-301.5 -130t-301.5 130t-122.5 328zM258 1060l233 374h100l237 -374h-160l-184 291l-182 -291h-44zM280 442q0 -212 60.5 -311t179.5 -99t179.5 99t60.5 311t-60.5 311t-179.5 99t-179.5 -99 t-60.5 -311z" />
<glyph unicode="&#xf5;" horiz-adv-x="1040" d="M96 442q0 198 122.5 328t301.5 130t301.5 -130t122.5 -328t-122.5 -328t-301.5 -130t-301.5 130t-122.5 328zM208 1076q30 208 176 208q61 0 170 -49q100 -45 156 -45q20 0 33.5 8t22 25t13 31.5t9.5 39.5l44 -8q-30 -208 -176 -208q-61 0 -170 49q-100 45 -156 45 q-20 0 -33.5 -8t-22 -25t-13 -31.5t-9.5 -39.5zM280 442q0 -212 60.5 -311t179.5 -99t179.5 99t60.5 311t-60.5 311t-179.5 99t-179.5 -99t-60.5 -311z" />
<glyph unicode="&#xf6;" horiz-adv-x="1040" d="M96 442q0 198 122.5 328t301.5 130t301.5 -130t122.5 -328t-122.5 -328t-301.5 -130t-301.5 130t-122.5 328zM222 1208q0 42 27 69t69 27t69 -27t27 -69t-27 -69t-69 -27t-69 27t-27 69zM280 442q0 -212 60.5 -311t179.5 -99t179.5 99t60.5 311t-60.5 311t-179.5 99 t-179.5 -99t-60.5 -311zM626 1208q0 42 27 69t69 27t69 -27t27 -69t-27 -69t-69 -27t-69 27t-27 69z" />
<glyph unicode="&#xf7;" d="M62 466v96h1028v-96h-1028zM448 200q0 54 37 91t91 37t91 -37t37 -91t-37 -91t-91 -37t-91 37t-37 91zM448 828q0 54 37 91t91 37t91 -37t37 -91t-37 -91t-91 -37t-91 37t-37 91z" />
<glyph unicode="&#xf8;" horiz-adv-x="1040" d="M88 14l112 121q-104 128 -104 307q0 198 122.5 328t301.5 130q165 0 282 -111l110 119l40 -38l-112 -121q104 -128 104 -307q0 -198 -122.5 -328t-301.5 -130q-165 0 -282 111l-110 -119zM280 442q0 -118 18 -200l426 462q-58 148 -204 148q-119 0 -179.5 -99t-60.5 -311 zM316 180q58 -148 204 -148q119 0 179.5 99t60.5 311q0 118 -18 200z" />
<glyph unicode="&#xf9;" horiz-adv-x="1156" d="M60 836v48h306v-644q0 -184 164 -184q64 0 114 43t82 108q33 66 44.5 124t11.5 141v364h-142v48h306v-836h142v-48h-306v210l-12 3q-48 -112 -128.5 -170.5t-183.5 -58.5q-124 0 -193 85q-63 78 -63 207v560h-142zM358 1396q0 28 18.5 47t50.5 19q66 0 103 -101l106 -289 l-32 -18l-195 234q-51 62 -51 108z" />
<glyph unicode="&#xfa;" horiz-adv-x="1156" d="M60 836v48h306v-644q0 -184 164 -184q64 0 114 43t82 108q33 66 44.5 124t11.5 141v364h-142v48h306v-836h142v-48h-306v210l-12 3q-48 -112 -128.5 -170.5t-183.5 -58.5q-124 0 -193 85q-63 78 -63 207v560h-142zM440 1072l106 289q37 101 103 101q32 0 50.5 -19 t18.5 -47q0 -46 -51 -108l-195 -234z" />
<glyph unicode="&#xfb;" horiz-adv-x="1156" d="M60 836v48h306v-644q0 -184 164 -184q64 0 114 43t82 108q33 66 44.5 124t11.5 141v364h-142v48h306v-836h142v-48h-306v210l-12 3q-48 -112 -128.5 -170.5t-183.5 -58.5q-124 0 -193 85q-63 78 -63 207v560h-142zM276 1060l233 374h100l237 -374h-160l-184 291 l-182 -291h-44z" />
<glyph unicode="&#xfc;" horiz-adv-x="1156" d="M60 836v48h306v-644q0 -184 164 -184q64 0 114 43t82 108q33 66 44.5 124t11.5 141v364h-142v48h306v-836h142v-48h-306v210l-12 3q-48 -112 -128.5 -170.5t-183.5 -58.5q-124 0 -193 85q-63 78 -63 207v560h-142zM240 1208q0 42 27 69t69 27t69 -27t27 -69t-27 -69 t-69 -27t-69 27t-27 69zM644 1208q0 42 27 69t69 27t69 -27t27 -69t-27 -69t-69 -27t-69 27t-27 69z" />
<glyph unicode="&#xfd;" horiz-adv-x="1024" d="M-6 -465q0 49 28.5 80t77.5 31q35 0 55.5 -20.5t20.5 -47.5q0 -19 -8 -51q-8 -30 -8 -52q0 -49 68 -49q51 0 85 46t60 123l133 386l-348 855h-118v48h458v-48h-162l252 -620l214 620h-123v48h309v-48h-129l-432 -1244q-13 -38 -23.5 -62.5t-30.5 -58t-43 -53t-59.5 -34 t-80.5 -14.5q-84 0 -140 42.5t-56 122.5zM458 1072l106 289q37 101 103 101q32 0 50.5 -19t18.5 -47q0 -46 -51 -108l-195 -234z" />
<glyph unicode="&#xfe;" horiz-adv-x="1150" d="M78 -564h142v2012h-142v48h512v-48h-206v-652l10 -6q116 110 267 110q179 0 286 -120t107 -338t-107 -338t-286 -120q-151 0 -267 110l-10 -6v-652h206v-48h-512v48zM384 442q0 -111 11 -187.5t49 -126.5q32 -42 81 -65t102 -23t102 23t81 65q38 50 49 126.5t11 187.5 t-11 187.5t-49 126.5q-32 42 -81 65t-102 23t-102 -23t-81 -65q-38 -50 -49 -126.5t-11 -187.5z" />
<glyph unicode="&#xff;" horiz-adv-x="1024" d="M-6 -465q0 49 28.5 80t77.5 31q35 0 55.5 -20.5t20.5 -47.5q0 -19 -8 -51q-8 -30 -8 -52q0 -49 68 -49q51 0 85 46t60 123l133 386l-348 855h-118v48h458v-48h-162l252 -620l214 620h-123v48h309v-48h-129l-432 -1244q-13 -38 -23.5 -62.5t-30.5 -58t-43 -53t-59.5 -34 t-80.5 -14.5q-84 0 -140 42.5t-56 122.5zM258 1208q0 42 27 69t69 27t69 -27t27 -69t-27 -69t-69 -27t-69 27t-27 69zM662 1208q0 42 27 69t69 27t69 -27t27 -69t-27 -69t-69 -27t-69 27t-27 69z" />
<glyph unicode="&#x152;" horiz-adv-x="2094" d="M146 712q0 136 38 256.5t104 209.5t153 154t188 97.5t205 32.5q65 0 150 -17q53 -11 133 -11h793l10 -376h-52q-8 40 -15 65t-26.5 70t-48.5 85q-74 104 -228 104h-360v-608h186q97 0 170 110q22 34 38 95t16 89h48v-634h-48q0 28 -16 89t-38 95q-71 108 -170 108h-186 v-674h337q223 0 321 135q48 65 67 119t35 141h52l-6 -447h-879q-80 0 -133 -11q-85 -17 -150 -17q-132 0 -254.5 51t-219.5 143.5t-155.5 234.5t-58.5 311zM380 712q0 -340 118 -514t336 -174q49 0 79.5 9.5t45 31.5t19 46t4.5 63v1086q0 39 -4.5 63t-19 46t-45 31.5 t-79.5 9.5q-217 0 -335.5 -178.5t-118.5 -519.5z" />
<glyph unicode="&#x153;" horiz-adv-x="1556" d="M96 442q0 198 117 328t288 130q94 0 174.5 -41.5t134.5 -116.5h4q111 158 319 158q77 0 141.5 -32t105 -82.5t62.5 -109.5t22 -117q0 -43 -14 -61t-56 -18h-488q0 -432 259 -432q101 0 164.5 71t76.5 178h52q-3 -57 -24 -110.5t-59 -100t-101 -74.5t-142 -28 q-99 0 -181 41t-137 118h-4q-56 -76 -136 -117.5t-173 -41.5q-171 0 -288 130t-117 328zM280 442q0 -212 55.5 -311t165.5 -99t165.5 99t55.5 311t-55.5 311t-165.5 99t-165.5 -99t-55.5 -311zM907 528h323q39 0 50.5 23t11.5 74q0 43 -10.5 82t-31 72t-56.5 53t-82 20 q-55 0 -96 -28.5t-64 -76.5t-34 -103t-11 -116z" />
<glyph unicode="&#x178;" horiz-adv-x="1462" d="M68 1382v52h672v-52h-240l362 -665l332 665h-212v52h460v-52h-182l-364 -734v-596h192v-52h-592v52h192v540l-429 790h-191zM520 1722q0 36 25.5 60t61.5 24t61.5 -24t25.5 -60t-25.5 -63t-61.5 -27t-61.5 27t-25.5 63zM1018 1722q0 36 25.5 60t61.5 24t61.5 -24 t25.5 -60t-25.5 -63t-61.5 -27t-61.5 27t-25.5 63z" />
<glyph unicode="&#x2c6;" horiz-adv-x="880" d="M178 1060l233 374h100l237 -374h-160l-184 291l-182 -291h-44z" />
<glyph unicode="&#x2dc;" horiz-adv-x="880" d="M128 1076q30 208 176 208q61 0 170 -49q100 -45 156 -45q20 0 33.5 8t22 25t13 31.5t9.5 39.5l44 -8q-30 -208 -176 -208q-61 0 -170 49q-100 45 -156 45q-20 0 -33.5 -8t-22 -25t-13 -31.5t-9.5 -39.5z" />
<glyph unicode="&#x2000;" horiz-adv-x="970" />
<glyph unicode="&#x2001;" horiz-adv-x="1940" />
<glyph unicode="&#x2002;" horiz-adv-x="970" />
<glyph unicode="&#x2003;" horiz-adv-x="1940" />
<glyph unicode="&#x2004;" horiz-adv-x="646" />
<glyph unicode="&#x2005;" horiz-adv-x="485" />
<glyph unicode="&#x2006;" horiz-adv-x="323" />
<glyph unicode="&#x2007;" horiz-adv-x="323" />
<glyph unicode="&#x2008;" horiz-adv-x="242" />
<glyph unicode="&#x2009;" horiz-adv-x="388" />
<glyph unicode="&#x200a;" horiz-adv-x="107" />
<glyph unicode="&#x2010;" horiz-adv-x="900" d="M136 346v132h628v-132h-628z" />
<glyph unicode="&#x2011;" horiz-adv-x="900" d="M136 346v132h628v-132h-628z" />
<glyph unicode="&#x2012;" horiz-adv-x="900" d="M136 346v132h628v-132h-628z" />
<glyph unicode="&#x2013;" horiz-adv-x="1056" d="M12 372v96h1032v-96h-1032z" />
<glyph unicode="&#x2014;" horiz-adv-x="2096" d="M12 372v96h2072v-96h-2072z" />
<glyph unicode="&#x2018;" horiz-adv-x="528" d="M128 1110q0 92 36 174.5t123 167.5l33 -30q-69 -74 -101.5 -133t-32.5 -139q0 -37 37 -37q15 0 38 15q27 16 45 16q100 0 100 -103q0 -53 -38 -86.5t-86 -33.5q-43 0 -74.5 17.5t-48 47t-24 60.5t-7.5 64z" />
<glyph unicode="&#x2019;" horiz-adv-x="528" d="M122 1332q0 53 38 86.5t86 33.5q43 0 74.5 -17.5t48 -47t24 -60.5t7.5 -64q0 -92 -36 -174.5t-123 -167.5l-33 30q69 74 101.5 133t32.5 139q0 37 -37 37q-15 0 -38 -15q-27 -16 -45 -16q-100 0 -100 103z" />
<glyph unicode="&#x201a;" horiz-adv-x="528" d="M122 90q0 53 38 86.5t86 33.5q43 0 74.5 -17.5t48 -47t24 -60.5t7.5 -64q0 -92 -36 -174.5t-123 -167.5l-33 30q69 74 101.5 133t32.5 139q0 37 -37 37q-15 0 -38 -15q-27 -16 -45 -16q-100 0 -100 103z" />
<glyph unicode="&#x201c;" horiz-adv-x="900" d="M128 1110q0 92 36 174.5t123 167.5l33 -30q-69 -74 -101.5 -133t-32.5 -139q0 -37 37 -37q15 0 38 15q27 16 45 16q100 0 100 -103q0 -53 -38 -86.5t-86 -33.5q-43 0 -74.5 17.5t-48 47t-24 60.5t-7.5 64zM500 1110q0 92 36 174.5t123 167.5l33 -30q-69 -74 -101.5 -133 t-32.5 -139q0 -37 37 -37q15 0 38 15q27 16 45 16q100 0 100 -103q0 -53 -38 -86.5t-86 -33.5q-43 0 -74.5 17.5t-48 47t-24 60.5t-7.5 64z" />
<glyph unicode="&#x201d;" horiz-adv-x="900" d="M122 1332q0 53 38 86.5t86 33.5q43 0 74.5 -17.5t48 -47t24 -60.5t7.5 -64q0 -92 -36 -174.5t-123 -167.5l-33 30q69 74 101.5 133t32.5 139q0 37 -37 37q-15 0 -38 -15q-27 -16 -45 -16q-100 0 -100 103zM494 1332q0 53 38 86.5t86 33.5q43 0 74.5 -17.5t48 -47 t24 -60.5t7.5 -64q0 -92 -36 -174.5t-123 -167.5l-33 30q69 74 101.5 133t32.5 139q0 37 -37 37q-15 0 -38 -15q-27 -16 -45 -16q-100 0 -100 103z" />
<glyph unicode="&#x201e;" horiz-adv-x="900" d="M122 90q0 53 38 86.5t86 33.5q43 0 74.5 -17.5t48 -47t24 -60.5t7.5 -64q0 -92 -36 -174.5t-123 -167.5l-33 30q69 74 101.5 133t32.5 139q0 37 -37 37q-15 0 -38 -15q-27 -16 -45 -16q-100 0 -100 103zM494 90q0 53 38 86.5t86 33.5q43 0 74.5 -17.5t48 -47t24 -60.5 t7.5 -64q0 -92 -36 -174.5t-123 -167.5l-33 30q69 74 101.5 133t32.5 139q0 37 -37 37q-15 0 -38 -15q-27 -16 -45 -16q-100 0 -100 103z" />
<glyph unicode="&#x2022;" horiz-adv-x="1104" d="M324 688q0 99 64.5 163.5t163.5 64.5t163.5 -64.5t64.5 -163.5t-64.5 -163.5t-163.5 -64.5t-163.5 64.5t-64.5 163.5z" />
<glyph unicode="&#x2026;" horiz-adv-x="1584" d="M136 104q0 54 37 91t91 37t91 -37t37 -91t-37 -91t-91 -37t-91 37t-37 91zM664 104q0 54 37 91t91 37t91 -37t37 -91t-37 -91t-91 -37t-91 37t-37 91zM1192 104q0 54 37 91t91 37t91 -37t37 -91t-37 -91t-91 -37t-91 37t-37 91z" />
<glyph unicode="&#x202f;" horiz-adv-x="388" />
<glyph unicode="&#x2039;" horiz-adv-x="646" d="M190 442q0 98 55 163t154 113l25 -39q-118 -74 -118 -237t118 -237l-25 -39q-99 48 -154 113t-55 163z" />
<glyph unicode="&#x203a;" horiz-adv-x="646" d="M222 205q118 74 118 237t-118 237l25 39q99 -48 154 -113t55 -163t-55 -163t-154 -113z" />
<glyph unicode="&#x205f;" horiz-adv-x="485" />
<glyph unicode="&#x20ac;" horiz-adv-x="1600" d="M110 806l18 112h196q56 255 246 412.5t430 157.5q145 0 264 -54t198 -130l-40 -118q-103 95 -202.5 142.5t-219.5 47.5q-197 0 -344 -128.5t-200 -329.5h872l-38 -112h-854q-4 -33 -4 -76t4 -76h800l-38 -112h-742q53 -201 200 -329.5t344 -128.5q228 0 428 191v-139 q-87 -76 -188 -120t-240 -44q-240 0 -430 157.5t-246 412.5h-206l18 112h171q-3 38 -3 76t3 76h-197z" />
<glyph unicode="&#x2122;" horiz-adv-x="2214" d="M84 1130l19 366h834l19 -366h-40q-13 143 -67 222q-65 96 -170 96h-77v-788h142v-48h-448v48h142v788h-77q-105 0 -170 -96q-55 -81 -67 -222h-40zM1024 612v48h134v788h-134v48h340l225 -641l236 641h321v-48h-142v-788h142v-48h-448v48h142v732h-2l-298 -806h-44 l-275 782q-8 48 -8 80h-5v-788h134v-48h-318z" />
<glyph unicode="&#x25fc;" horiz-adv-x="885" d="M0 0v885h885v-885h-885z" />
</font>
</defs>
</svg>
