<?xml version="1.0" standalone="no"?>
<!DOCTYPE svg PUBLIC "-//W3C//DTD SVG 1.1//EN" "http://www.w3.org/Graphics/SVG/1.1/DTD/svg11.dtd" >
<svg xmlns="http://www.w3.org/2000/svg">
<metadata>
This is a custom SVG webfont generated by Font Squirrel.
Copyright   : Copyright c 1989 1995 Adobe Systems Incorporated  All Rights ReservedAvenir is a trademark of LinotypeHell AG andor its subsidiaries
</metadata>
<defs>
<font id="Avenir85HeavyRegular" horiz-adv-x="606" >
<font-face units-per-em="2048" ascent="1638" descent="-410" />
<missing-glyph horiz-adv-x="500" />
<glyph unicode=" " />
<glyph unicode="!" d="M139 143.5q0 65.5 48.5 112.5t116 47t115.5 -45t48 -110.5t-48 -112.5t-116 -47q-66 0 -115 45t-49 110.5zM180 455v995h246v-995h-246z" />
<glyph unicode="&#x22;" horiz-adv-x="1062" d="M246 909v541h209v-541h-209zM608 909v541h209v-541h-209z" />
<glyph unicode="#" horiz-adv-x="1212" d="M96 428v172h207l37 250h-184v172h206l62 428h180l-61 -428h211l61 428h178l-61 -428h184v-172h-209l-35 -250h185v-172h-205l-64 -428h-178l62 428h-213l-62 -428h-178l62 428h-185zM483 600h211l35 250h-211z" />
<glyph unicode="$" horiz-adv-x="1212" d="M63 158l187 190q94 -133 291 -151v432l-11 2q-100 27 -166.5 55.5t-133 75.5t-99.5 119.5t-33 169.5q0 174 130 288.5t313 133.5v137h110v-135h19q109 0 217 -37t184 -105l-170 -190q-104 111 -250 110v-409l8 -2q84 -23 137.5 -40.5t122 -52t107.5 -74.5t66.5 -103.5 t27.5 -145.5q0 -195 -132 -311.5t-337 -137.5v-147h-110v145q-302 -3 -478 183zM356 1063q0 -27 4.5 -47.5t16.5 -37.5t19 -27.5t31 -24t33 -17.5t40.5 -17t40.5 -18v375q-78 -12 -131.5 -62t-53.5 -124zM651 197q92 18 151.5 71.5t59.5 139.5q0 35 -14 63.5t-29.5 44.5 t-52.5 34.5t-54.5 25t-60.5 20.5v-399z" />
<glyph unicode="%" horiz-adv-x="1857" d="M61 1093.5q0 157.5 112 269.5t269.5 112t269 -112t111.5 -269.5t-111.5 -269t-269 -111.5t-269.5 111.5t-112 269zM258 1093.5q0 -77.5 53.5 -131t131 -53.5t131 53.5t53.5 131t-53.5 131t-131 53.5t-131 -53.5t-53.5 -131zM420 12l852 1504l170 -78l-852 -1504z M1034 356.5q0 157.5 111.5 269t269.5 111.5t269.5 -111.5t111.5 -269t-111.5 -269.5t-269.5 -112t-269.5 112t-111.5 269.5zM1231 356.5q0 -77.5 54 -131t130 -53.5t130 53.5t54 131t-54 131t-130 53.5t-130 -53.5t-54 -131z" />
<glyph unicode="&#x26;" horiz-adv-x="1517" d="M98 389q0 139 88 246.5t226 161.5q-57 63 -87 102t-54.5 101.5t-24.5 129.5q0 170 119.5 263.5t296 93.5t293 -88t116.5 -256q0 -225 -289 -375l234 -252l162 246h288l-290 -420l313 -342h-318l-153 166q-172 -203 -428 -203q-203 0 -347.5 113.5t-144.5 312.5zM369 403 q0 -94 67.5 -156.5t161.5 -62.5q53 0 104.5 23.5t83 49.5t78.5 71l-297 323q-61 -37 -97 -63.5t-68.5 -77t-32.5 -107.5zM492 1120q0 -82 137 -211q197 106 196 221q0 57 -46 96.5t-113 39.5q-72 0 -123 -41.5t-51 -104.5z" />
<glyph unicode="'" d="M199 909v541h209v-541h-209z" />
<glyph unicode="(" d="M98 589.5q0 495.5 299 909.5l174 -106l-2 -9q-262 -365 -262 -794q0 -432 262 -797l-172 -112q-299 413 -299 908.5z" />
<glyph unicode=")" d="M35 -213l2 8q262 365 262 795t-262 794l172 115q299 -414 299 -909.5t-299 -908.5z" />
<glyph unicode="*" horiz-adv-x="948" d="M57 1092l54 163l278 -96v291h172v-291l277 90l53 -164l-279 -90l176 -239l-141 -103l-176 242l-172 -236l-137 105l176 231z" />
<glyph unicode="+" horiz-adv-x="1363" d="M127 516v209h451v451h208v-451h451v-209h-451v-450h-208v450h-451z" />
<glyph unicode="," d="M78 -258l143 541h250l-174 -541h-219z" />
<glyph unicode="-" horiz-adv-x="645" d="M70 399v209h505v-209h-505z" />
<glyph unicode="." d="M139 143.5q0 65.5 48.5 112.5t116 47t115.5 -45t48 -110.5t-48 -112.5t-116 -47q-66 0 -115 45t-49 110.5z" />
<glyph unicode="/" horiz-adv-x="796" d="M-18 -37l639 1589l170 -65l-639 -1585z" />
<glyph unicode="0" horiz-adv-x="1212" d="M82 725q0 164 26.5 293t73.5 207t99.5 131t117 77.5t111.5 33t96 8.5t96.5 -8.5t112 -33t116.5 -77.5t99 -131t73.5 -207t26.5 -293t-26.5 -293t-73.5 -207t-99 -131t-116.5 -77.5t-112 -33t-96.5 -8.5t-96 8.5t-111.5 33t-117 77.5t-99.5 131t-73.5 207t-26.5 293z M328 725q0 -63 5 -123.5t22.5 -135.5t46 -129t82 -91t123 -37t122.5 37t82 91t46 129t22.5 135.5t5.5 123.5t-5.5 123.5t-22.5 135.5t-46 129t-82 91t-122.5 37t-123 -37t-82 -91t-46 -129t-22.5 -135.5t-5 -123.5z" />
<glyph unicode="1" horiz-adv-x="1212" d="M133 1085l438 365h224v-1450h-246v1167l-273 -252z" />
<glyph unicode="2" horiz-adv-x="1212" d="M121 0v260l563 545q47 45 71.5 72.5t51.5 77t27 96.5q0 86 -61.5 138t-149.5 52q-90 0 -150.5 -53t-73.5 -144l-258 21q18 197 148.5 303.5t333.5 106.5q207 0 338 -105.5t131 -306.5q0 -127 -57.5 -226.5t-166.5 -199.5l-448 -416h672v-221h-971z" />
<glyph unicode="3" horiz-adv-x="1212" d="M94 315l262 70q49 -188 236 -188q100 0 172 64.5t72 162.5q0 221 -322 221h-59v221h63q131 0 207 39t76 158q0 84 -58.5 137t-148.5 53q-74 0 -132.5 -43t-84.5 -116l-260 69q45 156 171 234t294 78q199 0 332 -101.5t133 -286.5q0 -119 -67 -209t-181 -118v-4 q135 -18 208.5 -115.5t73.5 -237.5q0 -199 -142 -313.5t-347 -114.5q-188 0 -320.5 83t-177.5 257z" />
<glyph unicode="4" horiz-adv-x="1212" d="M70 295v244l583 911h279v-934h211v-221h-211v-295h-246v295h-616zM319 516h367v586h-4z" />
<glyph unicode="5" horiz-adv-x="1212" d="M90 307l258 70q53 -168 238 -168q111 0 181.5 70.5t70.5 177.5q0 143 -96.5 211.5t-243.5 68.5q-164 0 -303 -69l14 782h825v-221h-583l-7 -289q59 18 156 18q215 0 349 -132t134 -349q0 -229 -148.5 -365.5t-375.5 -136.5q-176 0 -298 84t-171 248z" />
<glyph unicode="6" horiz-adv-x="1212" d="M90 469q0 182 135 397l371 584h299l-348 -537l4 -4q43 25 135 25q188 0 312 -135t124 -328q0 -223 -145.5 -359.5t-370.5 -136.5q-231 0 -373.5 133.5t-142.5 360.5zM348 473.5q0 -108.5 78 -186.5t186.5 -78t186.5 78t78 186.5t-78 186t-186.5 77.5t-186.5 -77.5 t-78 -186z" />
<glyph unicode="7" horiz-adv-x="1212" d="M86 1217v233h985v-225l-579 -1225h-289l592 1217h-709z" />
<glyph unicode="8" horiz-adv-x="1212" d="M117 412q0 129 78.5 229t185.5 123v4q-106 31 -162.5 119t-56.5 207q0 176 127 278.5t317.5 102.5t317.5 -102.5t127 -278.5q0 -119 -56.5 -207t-163.5 -119v-4q109 -23 187 -123t78 -229q0 -207 -138.5 -322t-351.5 -115t-351 115t-138 322zM362 442q0 -102 69 -167.5 t175.5 -65.5t175 65.5t68.5 167.5q0 98 -70.5 163t-173 65t-173.5 -65t-71 -163zM408 1069q0 -88 54 -145.5t144 -57.5q82 0 140.5 58.5t58.5 144.5q0 82 -57.5 139.5t-141.5 57.5q-90 0 -144 -56.5t-54 -140.5z" />
<glyph unicode="9" horiz-adv-x="1212" d="M90 979q0 223 145.5 359.5t370.5 136.5q231 0 373.5 -133.5t142.5 -360.5q0 -182 -135 -397l-371 -584h-299l349 537l-4 4q-43 -25 -136 -25q-188 0 -312 135t-124 328zM336 976.5q0 -108.5 78 -186t186.5 -77.5t186 77.5t77.5 186t-77.5 186.5t-186 78t-186.5 -78 t-78 -186.5z" />
<glyph unicode=":" d="M139 143.5q0 65.5 48.5 112.5t116 47t115.5 -45t48 -110.5t-48 -112.5t-116 -47q-66 0 -115 45t-49 110.5zM139 837.5q0 65.5 48.5 112.5t116 47t115.5 -45t48 -110.5t-48 -112.5t-116 -47q-66 0 -115 45t-49 110.5z" />
<glyph unicode=";" d="M78 -258l143 541h250l-174 -541h-219zM139 837.5q0 65.5 48.5 112.5t116 47t115.5 -45t48 -110.5t-48 -112.5t-116 -47q-66 0 -115 45t-49 110.5z" />
<glyph unicode="&#x3c;" horiz-adv-x="1363" d="M164 547v147l1036 461v-225l-692 -309l692 -310v-225z" />
<glyph unicode="=" horiz-adv-x="1363" d="M127 332v209h1110v-209h-1110zM127 700v209h1110v-209h-1110z" />
<glyph unicode="&#x3e;" horiz-adv-x="1363" d="M164 86v225l692 310l-692 309v225l1036 -461v-147z" />
<glyph unicode="?" horiz-adv-x="1062" d="M98 1073q23 193 152 303.5t325 110.5q188 0 310.5 -105.5t122.5 -294.5q0 -78 -31 -145.5t-67 -107t-103 -103.5q-14 -12 -23 -20q-47 -45 -63 -63.5t-30.5 -54.5t-14.5 -87v-78h-246v113q0 86 20.5 128t90.5 111l157 160q51 51 52 133q0 80 -52.5 130t-132.5 50 q-84 0 -140 -57t-65 -143zM389 143.5q0 65.5 48 112.5t116 47t116 -45t48 -110.5t-48 -112.5t-116 -47q-66 0 -115 45t-49 110.5z" />
<glyph unicode="@" horiz-adv-x="1638" d="M66 723q0 326 228 545t554 219q184 0 347 -76t270.5 -233.5t107.5 -364.5q0 -123 -36 -218t-88 -146.5t-118.5 -84t-117 -42t-95.5 -9.5q-80 0 -120 33t-42 78h-4q-106 -111 -262 -111q-131 0 -213 96.5t-82 247.5q0 188 113 324.5t297 136.5q164 0 221 -117h4l17 93h192 l-76 -404q-18 -88 -18 -117q0 -76 55 -75q72 0 124 77.5t52 227.5q0 240 -146.5 370t-387.5 130q-254 0 -411 -163t-157 -417q0 -264 169 -420t434 -156q229 0 387 125h225q-109 -150 -273.5 -229.5t-355.5 -79.5q-332 0 -563 216t-231 544zM604 686q0 -188 170 -188 q106 0 152.5 73.5t46.5 173.5q0 84 -39 136.5t-113 52.5q-100 0 -158.5 -72t-58.5 -176z" />
<glyph unicode="A" horiz-adv-x="1478" d="M0 0l631 1450h223l625 -1450h-295l-135 332h-629l-131 -332h-289zM508 553h450l-223 590z" />
<glyph unicode="B" horiz-adv-x="1327" d="M162 0v1450h565q184 0 314 -90t130 -275q0 -119 -67.5 -200.5t-183.5 -116.5v-4q137 -16 225 -113.5t88 -236.5q0 -113 -46 -197t-127 -129t-174 -66.5t-202 -21.5h-522zM420 221h237q317 0 318 213q0 111 -74 158t-233 47h-248v-418zM420 860h235q125 0 191.5 49 t66.5 133q0 186 -280 187h-213v-369z" />
<glyph unicode="C" horiz-adv-x="1402" d="M84 719q0 346 214 557t552 211q309 0 508 -230l-201 -147q-135 143 -305 143q-221 0 -359.5 -148.5t-138.5 -369.5q0 -236 138.5 -387t359.5 -151q188 0 326 176l213 -152q-188 -258 -541 -258q-338 0 -552 209t-214 547z" />
<glyph unicode="D" horiz-adv-x="1554" d="M162 0v1450h571q307 0 522 -188.5t215 -536.5q0 -178 -70.5 -321.5t-184 -228.5t-245.5 -130t-268 -45h-540zM420 233h192q262 0 425 121t163 371q0 252 -146.5 372t-398.5 120h-235v-984z" />
<glyph unicode="E" horiz-adv-x="1251" d="M162 0v1450h960v-233h-702v-357h665v-233h-665v-394h739v-233h-997z" />
<glyph unicode="F" horiz-adv-x="1175" d="M162 0v1450h936v-233h-678v-381h639v-234h-639v-602h-258z" />
<glyph unicode="G" horiz-adv-x="1593" d="M84 719q0 346 214 557t552 211q367 0 571 -182l-190 -193q-145 141 -379 141q-221 0 -359.5 -148.5t-138.5 -369.5q0 -236 138.5 -387t359.5 -151q207 0 340 75v342h-297v234h555v-742q-268 -143 -600 -143q-338 0 -552 209t-214 547z" />
<glyph unicode="H" horiz-adv-x="1517" d="M162 0v1450h258v-578h678v578h258v-1450h-258v639h-678v-639h-258z" />
<glyph unicode="I" horiz-adv-x="569" d="M156 0v1450h258v-1450h-258z" />
<glyph unicode="J" horiz-adv-x="1024" d="M10 297l242 57q12 -72 58 -114.5t114 -42.5q104 0 147 70.5t43 209.5v973h258v-1049q0 -184 -114.5 -311t-321.5 -127q-360 0 -426 334z" />
<glyph unicode="K" horiz-adv-x="1402" d="M162 0v1450h258v-614h12l600 614h348l-678 -670l723 -780h-362l-629 713h-14v-713h-258z" />
<glyph unicode="L" horiz-adv-x="1062" d="M162 0v1450h258v-1217h616v-233h-874z" />
<glyph unicode="M" horiz-adv-x="1896" d="M168 0v1450h393l387 -1016l391 1016h390v-1450h-246v1204h-4l-441 -1204h-180l-440 1204h-4v-1204h-246z" />
<glyph unicode="N" horiz-adv-x="1630" d="M162 0v1450h342l702 -1077l4 -4h-4l4 4v1077h258v-1450h-327l-717 1112h-4v-1112h-258z" />
<glyph unicode="O" horiz-adv-x="1705" d="M84 719q0 346 214 557t552 211h19q329 0 538 -204q215 -210 215 -556q0 -338 -215 -548t-557 -216q-338 0 -552 209t-214 547zM354 735q0 -236 138.5 -387t359.5 -151q223 0 361.5 151.5t138.5 386.5q0 221 -139.5 369.5t-360.5 148.5t-359.5 -148.5t-138.5 -369.5z" />
<glyph unicode="P" horiz-adv-x="1251" d="M162 0v1450h487q236 0 385.5 -98.5t149.5 -321.5q0 -106 -32 -184t-83 -125t-129 -75t-156.5 -37t-179.5 -9h-184v-600h-258zM420 821h155q55 0 93.5 2t88.5 13.5t80.5 32t53 60.5t22.5 97q0 203 -309 203h-184v-408z" />
<glyph unicode="Q" horiz-adv-x="1744" d="M84 756q0 315 223 523t538.5 208t539 -208t223.5 -523q0 -369 -305 -543v-4h415v-209h-844q-346 0 -568 205t-222 551zM354 750q0 -223 139.5 -370t350.5 -147q215 0 354 146.5t139 370.5q0 217 -139 360t-358 143q-211 0 -348.5 -143t-137.5 -360z" />
<glyph unicode="R" horiz-adv-x="1290" d="M162 0v1450h504q88 0 163.5 -11.5t146.5 -41t121 -75.5t79.5 -120t29.5 -168q0 -160 -88 -265t-248 -128l385 -641h-311l-336 614h-188v-614h-258zM420 836h201q53 0 90 3t83 14t74.5 31.5t48 59.5t19.5 92q0 61 -25.5 102.5t-72.5 60t-91.5 24.5t-103.5 6h-223v-393z " />
<glyph unicode="S" horiz-adv-x="1175" d="M63 160l195 188q100 -152 287 -151q98 0 176 52t78 146q0 63 -38 108.5t-98.5 71t-134 48t-147.5 52.5t-134.5 73t-98 119.5t-37.5 181.5q0 211 157.5 324.5t376.5 113.5q258 0 416 -150l-189 -198q-82 115 -254 114q-98 0 -167.5 -47t-69.5 -139q0 -68 51 -113 t127 -67.5t166 -56t166 -73.5t127 -125t51 -206q0 -223 -151.5 -343t-378.5 -120q-310 0 -476 197z" />
<glyph unicode="T" horiz-adv-x="1175" d="M14 1217v233h1147v-233h-444v-1217h-258v1217h-445z" />
<glyph unicode="U" horiz-adv-x="1478" d="M156 532v918h258v-909q0 -129 78.5 -230.5t246.5 -101.5t247 101.5t79 230.5v909h258v-918q0 -258 -165 -413.5t-419 -155.5t-418.5 155.5t-164.5 413.5z" />
<glyph unicode="V" horiz-adv-x="1366" d="M-6 1450h297l395 -1096l408 1096h278l-586 -1450h-223z" />
<glyph unicode="W" horiz-adv-x="2009" d="M0 1450h283l272 -1044h4l326 1044h254l319 -1044h4l285 1044h262l-422 -1450h-246l-335 1104h-5l-335 -1104h-238z" />
<glyph unicode="X" horiz-adv-x="1402" d="M0 0l516 758l-483 692h325l342 -537l338 537h314l-475 -692l526 -758h-328l-383 612l-381 -612h-311z" />
<glyph unicode="Y" horiz-adv-x="1290" d="M-29 1450h324l356 -578l361 578h307l-545 -829v-621h-258v621z" />
<glyph unicode="Z" horiz-adv-x="1251" d="M72 0v233l774 984h-762v233h1083v-233l-780 -984h793v-233h-1108z" />
<glyph unicode="[" horiz-adv-x="569" d="M135 -319v1818h393v-160h-184v-1499h184v-159h-393z" />
<glyph unicode="\" horiz-adv-x="796" d="M6 1487l170 65l639 -1589l-170 -61z" />
<glyph unicode="]" horiz-adv-x="569" d="M41 -160h184v1499h-184v160h393v-1818h-393v159z" />
<glyph unicode="^" horiz-adv-x="1363" d="M141 702l457 748h168l457 -748h-242l-301 490l-297 -490h-242z" />
<glyph unicode="_" horiz-adv-x="1024" d="M0 -154h1024v-102h-1024v102z" />
<glyph unicode="`" horiz-adv-x="532" d="M-119 1450h279l202 -295h-192z" />
<glyph unicode="a" horiz-adv-x="1099" d="M74 270q0 78 27.5 136.5t79.5 94.5t108.5 59.5t134.5 34.5t136 14t132 3h62v27q0 88 -61.5 136t-164.5 48q-154 0 -262 -102l-129 129q156 158 418 158q86 0 154.5 -18.5t112.5 -44t75 -68.5t45 -78t22.5 -86t9.5 -78t1 -70v-565h-221v135h-6q-100 -160 -316 -160 q-147 0 -252.5 78t-105.5 217zM319 289q0 -63 52.5 -96t120.5 -33q123 0 185 59.5t62 165.5v55h-51q-369 1 -369 -151z" />
<glyph unicode="b" horiz-adv-x="1290" d="M139 0v1548h246v-690h6q121 150 334 150q209 0 342 -147.5t133 -368.5q0 -223 -132 -370t-353 -147q-233 0 -338 172h-4v-147h-234zM377 491.5q0 -120.5 79 -207.5t210 -87t209.5 87t78.5 207.5t-78.5 207.5t-209.5 87t-210 -87t-79 -207.5z" />
<glyph unicode="c" horiz-adv-x="987" d="M90 491.5q0 227.5 153.5 372t381.5 144.5q221 0 356 -150l-170 -170q-94 98 -186 98q-131 0 -210 -87t-79 -207.5t79 -207.5t210 -87q121 0 190 92l164 -176q-68 -68 -171 -103t-183 -35q-227 0 -381 144.5t-154 372z" />
<glyph unicode="d" horiz-adv-x="1290" d="M90 492q0 221 133 368.5t342 147.5q213 0 334 -150h6v690h246v-1548h-233v147h-5q-104 -172 -338 -172q-221 0 -353 147t-132 370zM336 491.5q0 -120.5 79 -207.5t210 -87t209.5 87t78.5 207.5t-78.5 207.5t-209.5 87t-210 -87t-79 -207.5z" />
<glyph unicode="e" horiz-adv-x="1175" d="M90 491.5q0 227.5 153.5 372t381.5 144.5q209 0 334.5 -141.5t125.5 -393.5v-67h-749q12 -106 86 -170t178 -64q156 0 264 133l176 -133q-160 -197 -415 -197q-227 0 -381 144.5t-154 372zM336 590h504q-2 109 -68.5 171t-181.5 62q-106 0 -173 -62t-81 -171z" />
<glyph unicode="f" horiz-adv-x="720" d="M25 774v209h202v139q0 225 77 338t290 113q84 0 156 -14l-17 -209q-61 14 -102 14q-94 0 -126 -53.5t-32 -149.5v-178h227v-209h-227v-774h-246v774h-202z" />
<glyph unicode="g" horiz-adv-x="1290" d="M90 492q0 223 132 369.5t353 146.5q233 0 338 -172h5v147h233v-895q0 -274 -138.5 -427t-416.5 -153q-303 0 -487 162l147 201q154 -141 338 -141q168 0 239.5 86t71.5 243v72h-4q-51 -70 -138 -106.5t-183 -36.5q-217 0 -353.5 145.5t-136.5 358.5zM336 494 q0 -119 83 -202t206 -83q133 0 213 82t80 207q0 129 -79 208.5t-212 79.5q-129 0 -210 -80.5t-81 -211.5z" />
<glyph unicode="h" horiz-adv-x="1175" d="M139 0v1548h246v-702h4q33 68 107.5 115t181.5 47q184 0 271 -110t87 -277v-621h-245v498q0 53 -5.5 93t-20.5 90t-54 77.5t-101 27.5q-115 0 -170 -70.5t-55 -178.5v-537h-246z" />
<glyph unicode="i" horiz-adv-x="532" d="M109 1316.5q0 59.5 45 103.5t110 44q68 0 114 -42t46 -105.5t-46 -105.5t-114 -42q-66 0 -110.5 44t-44.5 103.5zM143 0v983h246v-983h-246z" />
<glyph unicode="j" horiz-adv-x="532" d="M-76 -473l19 213q45 -10 77 -10q35 0 59.5 14t37 31.5t18.5 51.5t7 54.5t1 57.5v1044h246v-1042q0 -100 -13.5 -172t-47 -134.5t-101 -94.5t-170.5 -32q-78 1 -133 19zM109 1316.5q0 59.5 45 103.5t110 44q68 0 114 -42t46 -105.5t-46 -105.5t-114 -42q-66 0 -110.5 44 t-44.5 103.5z" />
<glyph unicode="k" horiz-adv-x="1099" d="M139 0v1548h246v-973l379 408h315l-422 -446l449 -537h-326l-391 502h-4v-502h-246z" />
<glyph unicode="l" horiz-adv-x="532" d="M143 0v1548h246v-1548h-246z" />
<glyph unicode="m" horiz-adv-x="1781" d="M129 0v983h233v-154h5q84 178 301 179q231 0 307 -183q104 182 323 183q186 0 270.5 -115t84.5 -307v-586h-246v557q0 229 -182 229q-106 0 -158.5 -73.5t-52.5 -180.5v-532h-246v586q0 201 -168 200q-115 0 -170 -70.5t-55 -178.5v-537h-246z" />
<glyph unicode="n" horiz-adv-x="1175" d="M139 0v983h234v-158h4q84 182 301 183q184 0 271 -110t87 -277v-621h-245v498q0 53 -5.5 93t-20.5 90t-54 77.5t-101 27.5q-115 0 -170 -70.5t-55 -178.5v-537h-246z" />
<glyph unicode="o" horiz-adv-x="1249" d="M90 491.5q0 227.5 153.5 372t381 144.5t381 -144.5t153.5 -372t-153.5 -372t-381 -144.5t-381 144.5t-153.5 372zM336 491.5q0 -120.5 79 -207.5t210 -87t209.5 87t78.5 207.5t-78.5 207.5t-209.5 87t-210 -87t-79 -207.5z" />
<glyph unicode="p" horiz-adv-x="1290" d="M139 -467v1450h234v-147h4q104 172 338 172q221 0 353 -146.5t132 -369.5q0 -221 -133 -369t-342 -148q-213 0 -334 150h-6v-592h-246zM377 491.5q0 -120.5 79 -207.5t210 -87t209.5 87t78.5 207.5t-78.5 207.5t-209.5 87t-210 -87t-79 -207.5z" />
<glyph unicode="q" horiz-adv-x="1290" d="M90 492q0 223 132 369.5t353 146.5q233 0 338 -172h5v147h233v-1450h-246v592h-6q-121 -150 -334 -150q-209 0 -342 148t-133 369zM336 491.5q0 -120.5 79 -207.5t210 -87t209.5 87t78.5 207.5t-78.5 207.5t-209.5 87t-210 -87t-79 -207.5z" />
<glyph unicode="r" horiz-adv-x="796" d="M139 0v983h246v-156h4q41 84 118 132.5t173 48.5q37 0 88 -15v-237q-74 18 -119 18q-80 0 -137 -29.5t-81.5 -74.5t-35 -81t-10.5 -63v-526h-246z" />
<glyph unicode="s" horiz-adv-x="909" d="M51 127l164 154q111 -121 234 -121q61 0 112 29.5t51 82.5q0 55 -54 84t-133 44.5t-157 38t-132 85t-54 166.5q0 154 115.5 236t279.5 82q240 0 350 -150l-163 -147q-72 100 -193 100q-55 0 -99 -26.5t-44 -77.5q0 -47 54 -73t133 -41t157 -40t132 -90.5t54 -171.5 q0 -162 -126 -239t-298 -77q-248 0 -383 152z" />
<glyph unicode="t" horiz-adv-x="796" d="M25 774v209h202v285h246v-285h270v-209h-270v-430q0 -80 29.5 -120t107.5 -40q92 0 133 31v-207q-68 -33 -194 -33q-186 0 -254 82t-68 267v450h-202z" />
<glyph unicode="u" horiz-adv-x="1175" d="M139 362v621h246v-498q0 -53 5 -93t20.5 -90t54.5 -77.5t100 -27.5q115 0 170.5 70.5t55.5 178.5v537h245v-983h-233v158h-4q-84 -182 -301 -183q-184 0 -271.5 109.5t-87.5 277.5z" />
<glyph unicode="v" horiz-adv-x="1062" d="M6 983h268l263 -688h4l264 688h252l-387 -983h-262z" />
<glyph unicode="w" horiz-adv-x="1630" d="M6 983h266l213 -688h4l199 688h266l213 -688h4l205 688h248l-334 -983h-243l-234 672h-4l-207 -672h-254z" />
<glyph unicode="x" horiz-adv-x="1099" d="M-2 0l395 528l-340 455h299l197 -295l213 295h280l-335 -455l395 -528h-299l-256 352l-258 -352h-291z" />
<glyph unicode="y" horiz-adv-x="1062" d="M6 983h270l275 -682h4l246 682h256l-465 -1194q-57 -147 -138 -214t-237 -67q-96 0 -188 25l30 221q68 -25 125 -24q86 0 124 31.5t71 113.5l47 117z" />
<glyph unicode="z" horiz-adv-x="987" d="M70 0v227l526 555v4h-502v197h799v-223l-533 -563h558v-197h-848z" />
<glyph unicode="{" horiz-adv-x="569" d="M0 500v180q63 0 128 34t65 109v406q0 125 89 197.5t173 72.5h186v-172h-113q-127 0 -127 -143v-385q-2 -104 -64.5 -151.5t-135.5 -55.5v-4q199 -18 200 -219v-373q0 -143 127 -143h113v-172h-186q-84 0 -173 72.5t-89 197.5v391q0 84 -65 121t-128 37z" />
<glyph unicode="|" horiz-adv-x="454" d="M123 -512v2048h209v-2048h-209z" />
<glyph unicode="}" horiz-adv-x="569" d="M-72 -147h113q127 0 127 143v385q2 104 64.5 151.5t136.5 55.5v4q-199 18 -201 219v373q0 143 -127 143h-113v172h187q84 0 173 -72.5t89 -197.5v-391q0 -84 64.5 -121t127.5 -37v-180q-63 0 -127.5 -34t-64.5 -110v-405q0 -125 -89 -197.5t-173 -72.5h-187v172z" />
<glyph unicode="~" horiz-adv-x="1363" d="M207 612q92 176 250 176q90 0 237 -65q12 -4 54.5 -23.5t60.5 -26.5t46 -15.5t46 -8.5q39 0 77 25.5t53.5 45t51.5 68.5l74 -172q-41 -55 -67.5 -85.5t-77.5 -60.5t-111 -30q-86 0 -209 68q-127 72 -235 72q-104 0 -176 -140z" />
<glyph unicode="&#xa0;" />
<glyph unicode="&#xa1;" d="M139 847.5q0 65.5 48.5 113t115.5 47.5q66 0 115 -45t49 -111t-48 -113t-115.5 -47t-116 45t-48.5 110.5zM180 -455v998h246v-998h-246z" />
<glyph unicode="&#xa2;" horiz-adv-x="1212" d="M160 494q0 213 121.5 349t332.5 165v137h111v-137q236 -8 348 -142l-158 -159q-82 86 -190 92v-615q115 0 199 95l149 -162q-123 -133 -348 -142v-147h-111v147q-207 18 -330.5 163t-123.5 356zM393 492q0 -111 57.5 -196t163.5 -112v613q-109 -23 -165 -105.5 t-56 -199.5z" />
<glyph unicode="&#xa3;" horiz-adv-x="1212" d="M135 0v197h209v448h-209v172h209v205q0 109 46 208t157.5 172t271.5 73q246 0 391 -132l-166 -178q-94 88 -217 88q-109 0 -173 -74.5t-64 -177.5v-184h332v-172h-332v-448h518v-197h-973z" />
<glyph unicode="&#xa4;" horiz-adv-x="1212" d="M74 317l100 101q-100 135 -100 309q0 170 100 309l-100 101l123 120l100 -98q137 98 309 98t309 -98l101 98l123 -120l-101 -101q100 -137 101 -309q0 -170 -101 -309l101 -101l-123 -122l-101 100q-135 -100 -309 -100q-172 0 -309 100l-100 -100zM307 727 q0 -141 81 -226t218 -85t218 85t81 226t-81 225t-218 84t-218 -84t-81 -225z" />
<glyph unicode="&#xa5;" horiz-adv-x="1212" d="M25 1450h276l317 -602l306 602h264l-332 -600h221v-160h-309l-39 -69v-99h348v-160h-348v-362h-246v362h-348v160h348v99l-39 69h-309v160h221z" />
<glyph unicode="&#xa6;" horiz-adv-x="454" d="M123 358h209v-716h-209v716zM123 666v716h209v-716h-209z" />
<glyph unicode="&#xa7;" horiz-adv-x="1214" d="M109 -43l219 106q20 -74 85.5 -111.5t147.5 -37.5q74 0 131.5 31.5t57.5 101.5q0 61 -63.5 107.5t-154 81t-180.5 76.5t-153.5 118t-63.5 182q0 197 197 303q-135 86 -135 234q0 160 126 249t291 89q133 0 247 -50.5t169 -156.5l-215 -121q-20 59 -74.5 95t-119.5 36 q-68 0 -117 -34.5t-49 -100.5q0 -61 63.5 -108.5t153.5 -84t180 -80.5t153.5 -122t63.5 -187q0 -84 -49 -154.5t-125 -107.5q125 -92 125 -243q0 -117 -70.5 -202t-172 -123t-214.5 -38q-341 0 -454 252zM369 664q0 -47 31.5 -84t58 -50.5t84.5 -40.5l198 -92q39 20 67 61.5 t28 82.5q0 25 -8.5 46t-16.5 35.5t-31.5 32t-32 22.5t-41 23.5t-36.5 20.5l-183 86q-59 -27 -88.5 -57.5t-29.5 -85.5z" />
<glyph unicode="&#xa8;" horiz-adv-x="532" d="M-102 1302.5q0 59.5 45 103.5t110 44q68 0 114 -42t46 -105.5t-46 -105.5t-114 -42q-66 0 -110.5 44t-44.5 103.5zM319 1302.5q0 59.5 45.5 103.5t110.5 44q68 0 114 -42t46 -105.5t-46 -105.5t-114 -42q-66 0 -111 44t-45 103.5z" />
<glyph unicode="&#xa9;" horiz-adv-x="1638" d="M57 725q0 315 223.5 538.5t539 223.5t538.5 -223.5t223 -538.5t-223 -538.5t-538.5 -223.5t-539 223.5t-223.5 538.5zM254 725q0 -248 164 -419t401.5 -171t401 171t163.5 419t-163.5 419t-401 171t-401.5 -171t-164 -419zM432 731q0 195 105.5 312.5t298.5 117.5 q143 0 244.5 -76.5t123.5 -220.5h-192q-25 125 -160 125q-113 0 -168 -68.5t-55 -185.5q0 -119 57 -194.5t162 -75.5q156 0 164 143h192q-20 -150 -122.5 -232.5t-241.5 -82.5q-188 0 -298 124t-110 314z" />
<glyph unicode="&#xaa;" horiz-adv-x="714" d="M57 1050.5q0 67.5 38 112.5t107.5 63.5t126 23.5t134.5 5h35v17q0 68 -142 67q-92 0 -170 -65l-88 108q104 92 283 93q145 0 210.5 -59.5t65.5 -186.5v-346h-159v80h-4q-55 -92 -211 -93q-45 0 -91.5 12.5t-90.5 56.5t-44 111.5zM229 1057q0 -29 31 -46.5t72 -17.5 q158 0 157 127v13h-57q-203 0 -203 -76z" />
<glyph unicode="&#xab;" horiz-adv-x="1062" d="M61 508l312 459l153 -105l-235 -354l237 -358l-155 -105zM518 508l311 459l154 -105l-235 -354l237 -358l-156 -105z" />
<glyph unicode="&#xac;" horiz-adv-x="1363" d="M127 700v209h1110v-608h-209v399h-901z" />
<glyph unicode="&#xad;" horiz-adv-x="645" d="M70 399v209h505v-209h-505z" />
<glyph unicode="&#xae;" horiz-adv-x="1638" d="M57 725q0 315 223.5 538.5t539 223.5t538.5 -223.5t223 -538.5t-223 -538.5t-538.5 -223.5t-539 223.5t-223.5 538.5zM254 725q0 -248 164 -419t401.5 -171t401 171t163.5 419t-163.5 419t-401 171t-401.5 -171t-164 -419zM526 334v799h256q360 0 361 -236 q0 -100 -55.5 -167.5t-124.5 -78.5l204 -317h-215l-182 307h-47v-307h-197zM721 801h96q129 0 129 86t-129 86h-96v-172z" />
<glyph unicode="&#xaf;" horiz-adv-x="532" d="M-61 1219v159h655v-159h-655z" />
<glyph unicode="&#xb0;" horiz-adv-x="819" d="M82 1147q0 135 96 231.5t231.5 96.5t231.5 -96.5t96 -231.5t-96 -231.5t-231.5 -96.5t-231.5 96.5t-96 231.5zM242 1147q0 -70 49 -119t118.5 -49t119 49t49.5 119t-49.5 119t-119 49t-118.5 -49t-49 -119z" />
<glyph unicode="&#xb1;" horiz-adv-x="1363" d="M127 66v208h1110v-208h-1110zM127 674v209h453v293h208v-293h449v-209h-449v-293h-208v293h-453z" />
<glyph unicode="&#xb2;" horiz-adv-x="788" d="M63 592v194l369 312q84 74 84 112q0 80 -115 80q-53 0 -87.5 -31.5t-39.5 -78.5l-196 12q8 141 98 212t236 71q141 0 227 -68t86 -195q0 -133 -119 -223l-287 -221v-4h406v-172h-662z" />
<glyph unicode="&#xb3;" horiz-adv-x="788" d="M55 821l211 45q20 -102 127 -102q131 0 131 98q0 45 -28.5 66.5t-60.5 25.5t-89 4h-47v172h66q143 0 143 93q0 68 -109 67q-102 0 -125 -90l-211 41q55 233 336 234q133 0 225.5 -60.5t92.5 -173.5q0 -74 -42 -125t-120 -65v-4q82 -10 130 -68.5t48 -136.5 q0 -127 -96 -194.5t-244 -67.5q-285 -1 -338 241z" />
<glyph unicode="&#xb4;" horiz-adv-x="532" d="M170 1155l203 295h278l-289 -295h-192z" />
<glyph unicode="&#xb5;" horiz-adv-x="1175" d="M139 -467v1450h246v-498q0 -53 5 -93t20.5 -90t54.5 -77.5t100 -27.5q115 0 170.5 70.5t55.5 178.5v537h245v-983h-233v158h-4q-84 -182 -301 -183q-68 0 -113 15v-457h-246z" />
<glyph unicode="&#xb6;" horiz-adv-x="1228" d="M63 1065q0 199 126 292t352 93h551v-1708h-185v1561h-219v-1561h-184v950q-197 0 -319 104.5t-122 268.5z" />
<glyph unicode="&#xb7;" d="M139 596q0 66 48.5 113t116 47t115.5 -45t48 -110.5t-48 -113t-116 -47.5q-66 0 -115 45t-49 111z" />
<glyph unicode="&#xb8;" horiz-adv-x="532" d="M109 -434l45 94q78 -41 168 -41q43 0 79.5 20.5t36.5 65.5q0 37 -32.5 55.5t-71.5 18.5q-33 0 -76 -15l-55 52l127 184h119l-87 -123q55 0 91 -5t76 -20.5t60.5 -51.5t20.5 -93q0 -102 -87 -150.5t-197 -48.5q-115 1 -217 58z" />
<glyph unicode="&#xb9;" horiz-adv-x="788" d="M82 1223l307 239h186v-870h-208v649l-172 -154z" />
<glyph unicode="&#xba;" horiz-adv-x="813" d="M63 1171q0 133 97.5 218.5t242.5 85.5q147 0 247 -85t100 -219q0 -131 -99.5 -216t-247.5 -85q-145 0 -243.5 85t-96.5 216zM231 1171q0 -57 46.5 -105t126 -48t127 48t47.5 105q0 59 -47.5 107.5t-127 48.5t-126 -48.5t-46.5 -107.5z" />
<glyph unicode="&#xbb;" horiz-adv-x="1062" d="M78 862l155 105l312 -463l-312 -459l-153 105l235 354zM535 862l155 105l311 -463l-311 -459l-153 105l235 354z" />
<glyph unicode="&#xbc;" horiz-adv-x="1820" d="M59 1223l308 239h186v-870h-209v649l-172 -154zM377 12l852 1504l170 -78l-852 -1504zM1038 174v160l385 536h230v-524h108v-172h-108v-174h-209v174h-406zM1247 346h197v275l-2 4z" />
<glyph unicode="&#xbd;" horiz-adv-x="1820" d="M66 1223l307 239h186v-870h-209v649l-172 -154zM381 12l852 1504l170 -78l-852 -1504zM1096 0v195l366 311q84 74 84 112q0 80 -114 80q-53 0 -88 -31.5t-39 -78.5l-197 12q8 141 98 212t236 71q141 0 227 -67.5t86 -194.5q0 -133 -119 -224l-286 -221v-4h405v-172h-659z " />
<glyph unicode="&#xbe;" horiz-adv-x="1820" d="M47 821l211 45q20 -102 127 -102q131 0 131 98q0 45 -28.5 66.5t-60.5 25.5t-89 4h-47v172h65q143 0 144 93q0 68 -109 67q-102 0 -125 -90l-211 41q55 233 336 234q133 0 225.5 -60.5t92.5 -173.5q0 -74 -42 -125t-120 -65v-4q82 -10 130 -68.5t48 -136.5 q0 -127 -96.5 -194.5t-243.5 -67.5q-285 -1 -338 241zM432 12l852 1504l170 -78l-852 -1504zM1053 174v160l385 536h229v-524h107v-172h-107v-174h-209v174h-405zM1219 322h245v364h-4l-241 -360v-4z" />
<glyph unicode="&#xbf;" horiz-adv-x="1062" d="M55 -92q0 78 31 145.5t66.5 107.5t103.5 103q14 12 23 21q47 45 63 63.5t30.5 54t14.5 86.5v78h246v-112q0 -86 -20.5 -128t-90.5 -112l-157 -160q-51 -51 -52 -133q0 -80 52.5 -130t132.5 -50q84 0 140 57.5t64 143.5l263 -21q-23 -193 -152 -303.5t-326 -110.5 q-188 0 -310 106t-122 294zM346 847.5q0 65.5 48 113t116 47.5q66 0 115 -45t49 -111t-48 -113t-116 -47t-116 45t-48 110.5z" />
<glyph unicode="&#xc0;" horiz-adv-x="1478" d="M0 0l631 1450h223l625 -1450h-295l-135 332h-629l-131 -332h-289zM354 1843h279l203 -295h-193zM508 553h450l-223 590z" />
<glyph unicode="&#xc1;" horiz-adv-x="1478" d="M0 0l631 1450h223l625 -1450h-295l-135 332h-629l-131 -332h-289zM508 553h450l-223 590zM643 1548l203 295h278l-288 -295h-193z" />
<glyph unicode="&#xc2;" horiz-adv-x="1478" d="M0 0l631 1450h223l625 -1450h-295l-135 332h-629l-131 -332h-289zM367 1548l235 295h277l233 -295h-233l-142 185l-141 -185h-229zM508 553h450l-223 590z" />
<glyph unicode="&#xc3;" horiz-adv-x="1478" d="M0 0l631 1450h223l625 -1450h-295l-135 332h-629l-131 -332h-289zM362 1556q45 260 230 261q61 0 164.5 -38t130.5 -38q68 0 94 86h135q-45 -260 -229 -260q-61 0 -165 39t-130 39q-66 0 -94 -89h-136zM508 553h450l-223 590z" />
<glyph unicode="&#xc4;" horiz-adv-x="1478" d="M0 0l631 1450h223l625 -1450h-295l-135 332h-629l-131 -332h-289zM371 1695.5q0 59.5 45 103.5t110 44q68 0 114 -42t46 -105.5t-46 -105.5t-114 -42q-66 0 -110.5 44t-44.5 103.5zM508 553h450l-223 590zM793 1695.5q0 59.5 45 103.5t110 44q68 0 114 -42t46 -105.5 t-46 -105.5t-114 -42q-66 0 -110.5 44t-44.5 103.5z" />
<glyph unicode="&#xc5;" horiz-adv-x="1478" d="M0 0l631 1450h223l625 -1450h-295l-135 332h-629l-131 -332h-289zM508 553h450l-223 590zM524 1712q0 90 61.5 150.5t153.5 60.5t153.5 -59.5t61.5 -149.5t-61.5 -149.5t-153.5 -59.5q-90 0 -152.5 59.5t-62.5 147.5zM623 1714q0 -47 34.5 -78.5t81.5 -31.5t82 31.5 t35 78.5t-35 79t-82 32t-81.5 -32t-34.5 -79z" />
<glyph unicode="&#xc6;" horiz-adv-x="2048" d="M-12 0l927 1450h1016v-233h-590v-357h553v-233h-553v-394h615v-233h-873v381h-548l-234 -381h-313zM670 602h413v615h-30z" />
<glyph unicode="&#xc7;" horiz-adv-x="1402" d="M84 719q0 346 214 557t552 211q309 0 508 -230l-201 -147q-135 143 -305 143q-221 0 -359.5 -148.5t-138.5 -369.5q0 -236 138.5 -387t359.5 -151q188 0 326 176l213 -152q-184 -254 -533 -258l-59 -86q55 0 91 -5t76 -20.5t60.5 -51.5t20.5 -93q0 -102 -87.5 -150.5 t-197.5 -48.5q-115 0 -217 58l45 94q78 -41 168 -41q43 0 79.5 20.5t36.5 65.5q0 37 -32.5 55.5t-71.5 18.5q-33 0 -76 -15l-55 52l104 153q-297 35 -478 238t-181 512z" />
<glyph unicode="&#xc8;" horiz-adv-x="1251" d="M162 0v1450h960v-233h-702v-357h665v-233h-665v-394h739v-233h-997zM242 1843h278l203 -295h-193z" />
<glyph unicode="&#xc9;" horiz-adv-x="1251" d="M162 0v1450h960v-233h-702v-357h665v-233h-665v-394h739v-233h-997zM530 1548l203 295h279l-289 -295h-193z" />
<glyph unicode="&#xca;" horiz-adv-x="1251" d="M162 0v1450h960v-233h-702v-357h665v-233h-665v-394h739v-233h-997zM254 1548l235 295h277l233 -295h-233l-141 185l-142 -185h-229z" />
<glyph unicode="&#xcb;" horiz-adv-x="1251" d="M162 0v1450h960v-233h-702v-357h665v-233h-665v-394h739v-233h-997zM258 1695.5q0 59.5 45 103.5t111 44q68 0 113.5 -42t45.5 -105.5t-46 -105.5t-113 -42q-66 0 -111 44t-45 103.5zM680 1695.5q0 59.5 45 103.5t111 44q68 0 113.5 -42t45.5 -105.5t-46 -105.5t-113 -42 q-66 0 -111 44t-45 103.5z" />
<glyph unicode="&#xcc;" horiz-adv-x="569" d="M-100 1843h278l203 -295h-193zM156 0v1450h258v-1450h-258z" />
<glyph unicode="&#xcd;" horiz-adv-x="569" d="M156 0v1450h258v-1450h-258zM188 1548l203 295h279l-289 -295h-193z" />
<glyph unicode="&#xce;" horiz-adv-x="569" d="M-88 1548l235 295h277l233 -295h-233l-141 185l-142 -185h-229zM156 0v1450h258v-1450h-258z" />
<glyph unicode="&#xcf;" horiz-adv-x="569" d="M-84 1695.5q0 59.5 45 103.5t111 44q68 0 113.5 -42t45.5 -105.5t-46 -105.5t-113 -42q-66 0 -111 44t-45 103.5zM156 0v1450h258v-1450h-258zM338 1695.5q0 59.5 45 103.5t111 44q68 0 113.5 -42t45.5 -105.5t-46 -105.5t-113 -42q-66 0 -111 44t-45 103.5z" />
<glyph unicode="&#xd0;" horiz-adv-x="1554" d="M27 664v172h135v614h571q307 0 522 -188.5t215 -536.5q0 -178 -70.5 -321.5t-184 -228.5t-245.5 -130t-268 -45h-540v664h-135zM420 233h192q262 0 425 121t163 371q0 252 -146.5 372t-398.5 120h-235v-381h442v-172h-442v-431z" />
<glyph unicode="&#xd1;" horiz-adv-x="1630" d="M162 0v1450h342l702 -1077l4 -4h-4l4 4v1077h258v-1450h-327l-717 1112h-4v-1112h-258zM438 1556q45 260 230 261q61 0 164.5 -38t130.5 -38q68 0 94 86h135q-45 -260 -229 -260q-61 0 -165 39t-130 39q-66 0 -95 -89h-135z" />
<glyph unicode="&#xd2;" horiz-adv-x="1705" d="M84 719q0 346 214 557t552 211q342 6 557 -204t215 -556q0 -338 -215 -548t-557 -216q-338 0 -552 209t-214 547zM354 735q0 -236 138.5 -387t359.5 -151q223 0 361.5 151.5t138.5 386.5q0 221 -139.5 369.5t-360.5 148.5t-359.5 -148.5t-138.5 -369.5zM469 1843h279 l202 -295h-192z" />
<glyph unicode="&#xd3;" horiz-adv-x="1705" d="M84 719q0 346 214 557t552 211q342 6 557 -204t215 -556q0 -338 -215 -548t-557 -216q-338 0 -552 209t-214 547zM354 735q0 -236 138.5 -387t359.5 -151q223 0 361.5 151.5t138.5 386.5q0 221 -139.5 369.5t-360.5 148.5t-359.5 -148.5t-138.5 -369.5zM758 1548l203 295 h278l-289 -295h-192z" />
<glyph unicode="&#xd4;" horiz-adv-x="1705" d="M84 719q0 346 214 557t552 211q342 6 557 -204t215 -556q0 -338 -215 -548t-557 -216q-338 0 -552 209t-214 547zM354 735q0 -236 138.5 -387t359.5 -151q223 0 361.5 151.5t138.5 386.5q0 221 -139.5 369.5t-360.5 148.5t-359.5 -148.5t-138.5 -369.5zM481 1548l236 295 h276l234 -295h-234l-141 185l-141 -185h-230z" />
<glyph unicode="&#xd5;" horiz-adv-x="1705" d="M84 719q0 346 214 557t552 211q342 6 557 -204t215 -556q0 -338 -215 -548t-557 -216q-338 0 -552 209t-214 547zM354 735q0 -236 138.5 -387t359.5 -151q223 0 361.5 151.5t138.5 386.5q0 221 -139.5 369.5t-360.5 148.5t-359.5 -148.5t-138.5 -369.5zM477 1556 q45 260 230 261q61 0 164.5 -38t129.5 -38q68 0 95 86h135q-45 -260 -230 -260q-61 0 -164.5 39t-129.5 39q-66 0 -95 -89h-135z" />
<glyph unicode="&#xd6;" horiz-adv-x="1705" d="M84 719q0 346 214 557t552 211q342 6 557 -204t215 -556q0 -338 -215 -548t-557 -216q-338 0 -552 209t-214 547zM354 735q0 -236 138.5 -387t359.5 -151q223 0 361.5 151.5t138.5 386.5q0 221 -139.5 369.5t-360.5 148.5t-359.5 -148.5t-138.5 -369.5zM485 1695.5 q0 59.5 45 103.5t111 44q68 0 114 -42t46 -105.5t-46 -105.5t-114 -42q-66 0 -111 44t-45 103.5zM907 1695.5q0 59.5 45 103.5t111 44q68 0 114 -42t46 -105.5t-46.5 -105.5t-113.5 -42q-66 0 -111 44t-45 103.5z" />
<glyph unicode="&#xd7;" horiz-adv-x="1363" d="M158 242l379 372l-377 381l147 146l375 -375l373 373l143 -144l-371 -370l379 -381l-151 -152l-375 371l-371 -371z" />
<glyph unicode="&#xd8;" horiz-adv-x="1705" d="M84 719q0 346 214 557t552 211q266 6 471 -133l178 192l100 -88l-176 -192q199 -209 199 -539q0 -338 -215 -548t-557 -216q-283 0 -483 152l-174 -189l-103 88l178 193q-184 207 -184 512zM354 735q0 -188 95 -332l696 758q-127 92 -293 92q-221 0 -359.5 -148.5 t-138.5 -369.5zM541 303q133 -106 311 -106q223 0 361.5 151.5t138.5 386.5q0 199 -111 332z" />
<glyph unicode="&#xd9;" horiz-adv-x="1478" d="M156 532v918h258v-909q0 -129 78.5 -230.5t246.5 -101.5t247 101.5t79 230.5v909h258v-918q0 -258 -165 -413.5t-419 -155.5t-418.5 155.5t-164.5 413.5zM354 1843h279l203 -295h-193z" />
<glyph unicode="&#xda;" horiz-adv-x="1478" d="M156 532v918h258v-909q0 -129 78.5 -230.5t246.5 -101.5t247 101.5t79 230.5v909h258v-918q0 -258 -165 -413.5t-419 -155.5t-418.5 155.5t-164.5 413.5zM643 1548l203 295h278l-288 -295h-193z" />
<glyph unicode="&#xdb;" horiz-adv-x="1478" d="M156 532v918h258v-909q0 -129 78.5 -230.5t246.5 -101.5t247 101.5t79 230.5v909h258v-918q0 -258 -165 -413.5t-419 -155.5t-418.5 155.5t-164.5 413.5zM367 1548l235 295h277l233 -295h-233l-142 185l-141 -185h-229z" />
<glyph unicode="&#xdc;" horiz-adv-x="1478" d="M156 532v918h258v-909q0 -129 78.5 -230.5t246.5 -101.5t247 101.5t79 230.5v909h258v-918q0 -258 -165 -413.5t-419 -155.5t-418.5 155.5t-164.5 413.5zM371 1695.5q0 59.5 45 103.5t110 44q68 0 114 -42t46 -105.5t-46 -105.5t-114 -42q-66 0 -110.5 44t-44.5 103.5z M793 1695.5q0 59.5 45 103.5t110 44q68 0 114 -42t46 -105.5t-46 -105.5t-114 -42q-66 0 -110.5 44t-44.5 103.5z" />
<glyph unicode="&#xdd;" horiz-adv-x="1290" d="M-29 1450h324l356 -578l361 578h307l-545 -829v-621h-258v621zM549 1548l203 295h278l-289 -295h-192z" />
<glyph unicode="&#xde;" horiz-adv-x="1251" d="M162 0v1450h258v-281h229q236 0 385.5 -98t149.5 -321q0 -106 -32 -184.5t-83 -125.5t-129 -74.5t-156.5 -37t-179.5 -9.5h-184v-319h-258zM420 541h155q55 0 93.5 2t88.5 13t80.5 31.5t53 60.5t22.5 97q0 203 -309 203h-184v-407z" />
<glyph unicode="&#xdf;" horiz-adv-x="1251" d="M115 0v1047q0 274 120.5 400t370.5 126q188 0 316.5 -99.5t128.5 -279.5q0 -233 -217 -324v-4q158 -20 242.5 -136t84.5 -284q0 -209 -135 -340t-346 -131q-94 0 -172 23v207q45 -20 113 -21q131 0 212.5 77t81.5 206q0 141 -85 217t-226 76h-29v209h17q92 0 152.5 52 t60.5 140q0 84 -60.5 137.5t-146.5 53.5q-119 0 -178.5 -67.5t-59.5 -180.5v-1104h-245z" />
<glyph unicode="&#xe0;" horiz-adv-x="1099" d="M74 270q0 78 27.5 136.5t79.5 94.5t108.5 59.5t134.5 34.5t136 14t132 3h62v27q0 88 -61.5 136t-164.5 48q-154 0 -262 -102l-129 129q156 158 418 158q86 0 154.5 -18.5t112.5 -44t75 -68.5t45 -78t22.5 -86t9.5 -78t1 -70v-565h-221v135h-6q-100 -160 -316 -160 q-147 0 -252.5 78t-105.5 217zM166 1450h278l203 -295h-192zM319 289q0 -63 52.5 -96t120.5 -33q123 0 185 59.5t62 165.5v55h-51q-369 1 -369 -151z" />
<glyph unicode="&#xe1;" horiz-adv-x="1099" d="M74 270q0 78 27.5 136.5t79.5 94.5t108.5 59.5t134.5 34.5t136 14t132 3h62v27q0 88 -61.5 136t-164.5 48q-154 0 -262 -102l-129 129q156 158 418 158q86 0 154.5 -18.5t112.5 -44t75 -68.5t45 -78t22.5 -86t9.5 -78t1 -70v-565h-221v135h-6q-100 -160 -316 -160 q-147 0 -252.5 78t-105.5 217zM319 289q0 -63 52.5 -96t120.5 -33q123 0 185 59.5t62 165.5v55h-51q-369 1 -369 -151zM455 1155l202 295h279l-289 -295h-192z" />
<glyph unicode="&#xe2;" horiz-adv-x="1099" d="M74 270q0 78 27.5 136.5t79.5 94.5t108.5 59.5t134.5 34.5t136 14t132 3h62v27q0 88 -61.5 136t-164.5 48q-154 0 -262 -102l-129 129q156 158 418 158q86 0 154.5 -18.5t112.5 -44t75 -68.5t45 -78t22.5 -86t9.5 -78t1 -70v-565h-221v135h-6q-100 -160 -316 -160 q-147 0 -252.5 78t-105.5 217zM178 1155l236 295h276l234 -295h-234l-141 184l-141 -184h-230zM319 289q0 -63 52.5 -96t120.5 -33q123 0 185 59.5t62 165.5v55h-51q-369 1 -369 -151z" />
<glyph unicode="&#xe3;" horiz-adv-x="1099" d="M74 270q0 78 27.5 136.5t79.5 94.5t108.5 59.5t134.5 34.5t136 14t132 3h62v27q0 88 -61.5 136t-164.5 48q-154 0 -262 -102l-129 129q156 158 418 158q86 0 154.5 -18.5t112.5 -44t75 -68.5t45 -78t22.5 -86t9.5 -78t1 -70v-565h-221v135h-6q-100 -160 -316 -160 q-147 0 -252.5 78t-105.5 217zM174 1163q45 260 229 260q61 0 165 -37.5t130 -37.5q68 0 95 86h135q-45 -260 -230 -260q-61 0 -164.5 38.5t-130.5 38.5q-66 0 -94 -88h-135zM319 289q0 -63 52.5 -96t120.5 -33q123 0 185 59.5t62 165.5v55h-51q-369 1 -369 -151z" />
<glyph unicode="&#xe4;" horiz-adv-x="1099" d="M74 270q0 78 27.5 136.5t79.5 94.5t108.5 59.5t134.5 34.5t136 14t132 3h62v27q0 88 -61.5 136t-164.5 48q-154 0 -262 -102l-129 129q156 158 418 158q86 0 154.5 -18.5t112.5 -44t75 -68.5t45 -78t22.5 -86t9.5 -78t1 -70v-565h-221v135h-6q-100 -160 -316 -160 q-147 0 -252.5 78t-105.5 217zM182 1302.5q0 59.5 45 103.5t111 44q68 0 114 -42t46 -105.5t-46 -105.5t-114 -42q-66 0 -111 44t-45 103.5zM319 289q0 -63 52.5 -96t120.5 -33q123 0 185 59.5t62 165.5v55h-51q-369 1 -369 -151zM604 1302.5q0 59.5 45 103.5t111 44 q68 0 114 -42t46 -105.5t-46.5 -105.5t-113.5 -42q-66 0 -111 44t-45 103.5z" />
<glyph unicode="&#xe5;" horiz-adv-x="1099" d="M74 270q0 78 27.5 136.5t79.5 94.5t108.5 59.5t134.5 34.5t136 14t132 3h62v27q0 88 -61.5 136t-164.5 48q-154 0 -262 -102l-129 129q156 158 418 158q86 0 154.5 -18.5t112.5 -44t75 -68.5t45 -78t22.5 -86t9.5 -78t1 -70v-565h-221v135h-6q-100 -160 -316 -160 q-147 0 -252.5 78t-105.5 217zM319 289q0 -63 52.5 -96t120.5 -33q123 0 185 59.5t62 165.5v55h-51q-369 1 -369 -151zM336 1339q0 90 61.5 150.5t153.5 60.5t153.5 -59t61.5 -149.5t-61.5 -149.5t-153.5 -59q-90 0 -152.5 59t-62.5 147zM434 1341.5q0 -47.5 35 -79 t82 -31.5t82 31.5t35 79t-35 79t-82 31.5t-82 -31.5t-35 -79z" />
<glyph unicode="&#xe6;" horiz-adv-x="1744" d="M74 272q0 170 119.5 244t355.5 74h201q0 111 -57.5 173t-164.5 62q-154 0 -262 -102l-129 129q156 158 418 158q90 4 179 -34t147 -112q133 145 317 144q229 0 351 -146.5t122 -376.5v-67h-717q-4 -113 74 -185.5t166 -72.5q154 0 262 133l170 -121q-154 -197 -432 -197 q-119 0 -215 49.5t-152 127.5q-113 -174 -395 -175q-145 0 -251.5 76t-106.5 219zM319 289q0 -63 54.5 -95t115.5 -32q119 0 190 69.5t71 161.5v25h-123q-308 0 -308 -129zM958 590h476q-6 106 -68.5 169.5t-169.5 63.5q-100 0 -166 -65.5t-72 -167.5z" />
<glyph unicode="&#xe7;" horiz-adv-x="987" d="M90 492q0 227 153.5 371.5t381.5 144.5q221 0 356 -150l-170 -170q-94 98 -186 98q-131 0 -210 -87t-79 -207.5t79 -207.5t210 -87q121 0 190 92l164 -176q-68 -68 -170 -103t-180 -35l-70 -98q55 0 91 -5t76 -20.5t60.5 -51.5t20.5 -93q0 -102 -87 -150.5t-198 -48.5 q-115 0 -217 58l45 94q78 -41 168 -41q43 0 80 20.5t37 65.5q0 37 -33 55.5t-72 18.5q-33 0 -75 -15l-56 52l117 170q-186 33 -306 170t-120 336z" />
<glyph unicode="&#xe8;" horiz-adv-x="1175" d="M90 491.5q0 227.5 153.5 372t381.5 144.5q209 0 334.5 -141.5t125.5 -393.5v-67h-749q12 -106 86 -170t178 -64q156 0 264 133l176 -133q-160 -197 -415 -197q-227 0 -381 144.5t-154 372zM203 1450h278l203 -295h-192zM336 590h504q-2 109 -68.5 171t-181.5 62 q-106 0 -173 -62t-81 -171z" />
<glyph unicode="&#xe9;" horiz-adv-x="1175" d="M90 491.5q0 227.5 153.5 372t381.5 144.5q209 0 334.5 -141.5t125.5 -393.5v-67h-749q12 -106 86 -170t178 -64q156 0 264 133l176 -133q-160 -197 -415 -197q-227 0 -381 144.5t-154 372zM336 590h504q-2 109 -68.5 171t-181.5 62q-106 0 -173 -62t-81 -171zM492 1155 l202 295h279l-289 -295h-192z" />
<glyph unicode="&#xea;" horiz-adv-x="1175" d="M90 491.5q0 227.5 153.5 372t381.5 144.5q209 0 334.5 -141.5t125.5 -393.5v-67h-749q12 -106 86 -170t178 -64q156 0 264 133l176 -133q-160 -197 -415 -197q-227 0 -381 144.5t-154 372zM215 1155l236 295h276l234 -295h-234l-141 184l-142 -184h-229zM336 590h504 q-2 109 -68.5 171t-181.5 62q-106 0 -173 -62t-81 -171z" />
<glyph unicode="&#xeb;" horiz-adv-x="1175" d="M90 491.5q0 227.5 153.5 372t381.5 144.5q209 0 334.5 -141.5t125.5 -393.5v-67h-749q12 -106 86 -170t178 -64q156 0 264 133l176 -133q-160 -197 -415 -197q-227 0 -381 144.5t-154 372zM219 1302.5q0 59.5 45 103.5t111 44q68 0 114 -42t46 -105.5t-46.5 -105.5 t-113.5 -42q-66 0 -111 44t-45 103.5zM336 590h504q-2 109 -68.5 171t-181.5 62q-106 0 -173 -62t-81 -171zM641 1302.5q0 59.5 45 103.5t111 44q68 0 113.5 -42t45.5 -105.5t-46 -105.5t-113 -42q-66 0 -111 44t-45 103.5z" />
<glyph unicode="&#xec;" horiz-adv-x="532" d="M-94 1450h278l203 -295h-192zM143 0v983h246v-983h-246z" />
<glyph unicode="&#xed;" horiz-adv-x="532" d="M143 0v983h246v-983h-246zM145 1155l203 295h279l-289 -295h-193z" />
<glyph unicode="&#xee;" horiz-adv-x="532" d="M-106 1155l235 295h277l233 -295h-233l-142 184l-141 -184h-229zM143 0v983h246v-983h-246z" />
<glyph unicode="&#xef;" horiz-adv-x="532" d="M-102 1302.5q0 59.5 45 103.5t110 44q68 0 114 -42t46 -105.5t-46 -105.5t-114 -42q-66 0 -110.5 44t-44.5 103.5zM143 0v983h246v-983h-246zM319 1302.5q0 59.5 45.5 103.5t110.5 44q68 0 114 -42t46 -105.5t-46 -105.5t-114 -42q-66 0 -111 44t-45 103.5z" />
<glyph unicode="&#xf0;" horiz-adv-x="1249" d="M90 491.5q0 227.5 150.5 372t363.5 144.5q154 0 234 -78l4 4q-80 129 -258 311l-6 6l-218 -100l-122 117l219 102q-16 16 -45 41t-65 53.5t-48 38.5l205 119q57 -45 174 -154l227 105l131 -115l-239 -110q362 -397 362 -781q0 -266 -139 -429t-395 -163 q-227 0 -381 144.5t-154 372zM336 491.5q0 -120.5 79 -207.5t210 -87t209.5 87t78.5 207.5t-78.5 207.5t-209.5 87t-210 -87t-79 -207.5z" />
<glyph unicode="&#xf1;" horiz-adv-x="1175" d="M139 0v983h234v-158h4q84 182 301 183q184 0 271 -110t87 -277v-621h-245v498q0 53 -5.5 93t-20.5 90t-54 77.5t-101 27.5q-115 0 -170 -70.5t-55 -178.5v-537h-246zM211 1163q45 260 229 260q61 0 165 -37.5t130 -37.5q68 0 94 86h136q-45 -260 -230 -260 q-61 0 -164.5 38.5t-130.5 38.5q-66 0 -94 -88h-135z" />
<glyph unicode="&#xf2;" horiz-adv-x="1249" d="M90 491.5q0 227.5 153.5 372t381 144.5t381 -144.5t153.5 -372t-153.5 -372t-381 -144.5t-381 144.5t-153.5 372zM240 1450h278l203 -295h-193zM336 491.5q0 -120.5 79 -207.5t210 -87t209.5 87t78.5 207.5t-78.5 207.5t-209.5 87t-210 -87t-79 -207.5z" />
<glyph unicode="&#xf3;" horiz-adv-x="1249" d="M90 491.5q0 227.5 153.5 372t381 144.5t381 -144.5t153.5 -372t-153.5 -372t-381 -144.5t-381 144.5t-153.5 372zM336 491.5q0 -120.5 79 -207.5t210 -87t209.5 87t78.5 207.5t-78.5 207.5t-209.5 87t-210 -87t-79 -207.5zM528 1155l203 295h279l-289 -295h-193z" />
<glyph unicode="&#xf4;" horiz-adv-x="1249" d="M90 491.5q0 227.5 153.5 372t381 144.5t381 -144.5t153.5 -372t-153.5 -372t-381 -144.5t-381 144.5t-153.5 372zM252 1155l235 295h277l233 -295h-233l-141 184l-142 -184h-229zM336 491.5q0 -120.5 79 -207.5t210 -87t209.5 87t78.5 207.5t-78.5 207.5t-209.5 87 t-210 -87t-79 -207.5z" />
<glyph unicode="&#xf5;" horiz-adv-x="1249" d="M90 491.5q0 227.5 153.5 372t381 144.5t381 -144.5t153.5 -372t-153.5 -372t-381 -144.5t-381 144.5t-153.5 372zM248 1163q45 260 229 260q61 0 164.5 -37.5t130.5 -37.5q68 0 94 86h135q-45 -260 -229 -260q-61 0 -164.5 38.5t-130.5 38.5q-66 0 -94 -88h-135z M336 491.5q0 -120.5 79 -207.5t210 -87t209.5 87t78.5 207.5t-78.5 207.5t-209.5 87t-210 -87t-79 -207.5z" />
<glyph unicode="&#xf6;" horiz-adv-x="1249" d="M90 491.5q0 227.5 153.5 372t381 144.5t381 -144.5t153.5 -372t-153.5 -372t-381 -144.5t-381 144.5t-153.5 372zM256 1302.5q0 59.5 45 103.5t111 44q68 0 113.5 -42t45.5 -105.5t-46 -105.5t-113 -42q-66 0 -111 44t-45 103.5zM336 491.5q0 -120.5 79 -207.5t210 -87 t209.5 87t78.5 207.5t-78.5 207.5t-209.5 87t-210 -87t-79 -207.5zM678 1302.5q0 59.5 45 103.5t111 44q68 0 113.5 -42t45.5 -105.5t-46 -105.5t-113 -42q-66 0 -111 44t-45 103.5z" />
<glyph unicode="&#xf7;" horiz-adv-x="1363" d="M127 516v209h1110v-209h-1110zM528 251.5q0 63.5 45 109t108.5 45.5t109 -45.5t45.5 -109t-45.5 -108.5t-109 -45t-108.5 45t-45 108.5zM528 989.5q0 63.5 45 108.5t108.5 45t109 -45t45.5 -108.5t-45.5 -108.5t-109 -45t-108.5 45t-45 108.5z" />
<glyph unicode="&#xf8;" horiz-adv-x="1249" d="M74 14l137 140q-121 137 -121 338q0 227 153.5 371.5t381.5 144.5q188 0 329 -103l146 148l86 -82l-144 -146q117 -139 117 -333q0 -227 -153.5 -372t-380.5 -145q-186 0 -326 101l-143 -146zM336 492q0 -92 47 -164l403 409q-70 49 -161 49q-131 0 -210 -86.5 t-79 -207.5zM465 244q66 -47 160 -47q131 0 209.5 87t78.5 208q0 90 -43 159z" />
<glyph unicode="&#xf9;" horiz-adv-x="1175" d="M139 362v621h246v-498q0 -53 5 -93t20.5 -90t54.5 -77.5t100 -27.5q115 0 170.5 70.5t55.5 178.5v537h245v-983h-233v158h-4q-84 -182 -301 -183q-184 0 -271.5 109.5t-87.5 277.5zM203 1450h278l203 -295h-192z" />
<glyph unicode="&#xfa;" horiz-adv-x="1175" d="M139 362v621h246v-498q0 -53 5 -93t20.5 -90t54.5 -77.5t100 -27.5q115 0 170.5 70.5t55.5 178.5v537h245v-983h-233v158h-4q-84 -182 -301 -183q-184 0 -271.5 109.5t-87.5 277.5zM492 1155l202 295h279l-289 -295h-192z" />
<glyph unicode="&#xfb;" horiz-adv-x="1175" d="M139 362v621h246v-498q0 -53 5 -93t20.5 -90t54.5 -77.5t100 -27.5q115 0 170.5 70.5t55.5 178.5v537h245v-983h-233v158h-4q-84 -182 -301 -183q-184 0 -271.5 109.5t-87.5 277.5zM215 1155l236 295h276l234 -295h-234l-141 184l-142 -184h-229z" />
<glyph unicode="&#xfc;" horiz-adv-x="1175" d="M139 362v621h246v-498q0 -53 5 -93t20.5 -90t54.5 -77.5t100 -27.5q115 0 170.5 70.5t55.5 178.5v537h245v-983h-233v158h-4q-84 -182 -301 -183q-184 0 -271.5 109.5t-87.5 277.5zM219 1302.5q0 59.5 45 103.5t111 44q68 0 114 -42t46 -105.5t-46.5 -105.5t-113.5 -42 q-66 0 -111 44t-45 103.5zM641 1302.5q0 59.5 45 103.5t111 44q68 0 113.5 -42t45.5 -105.5t-46 -105.5t-113 -42q-66 0 -111 44t-45 103.5z" />
<glyph unicode="&#xfd;" horiz-adv-x="1062" d="M6 983h270l275 -682h4l246 682h256l-465 -1194q-57 -147 -138 -214t-237 -67q-96 0 -188 25l30 221q68 -25 125 -24q86 0 124 31.5t71 113.5l47 117zM436 1155l203 295h279l-289 -295h-193z" />
<glyph unicode="&#xfe;" horiz-adv-x="1290" d="M139 -467v2015h246v-692h4q43 72 131 112t195 40q221 0 353 -146.5t132 -369.5q0 -221 -133 -369t-342 -148q-213 0 -334 150h-6v-592h-246zM377 491.5q0 -120.5 79 -207.5t210 -87t209.5 87t78.5 207.5t-78.5 207.5t-209.5 87t-210 -87t-79 -207.5z" />
<glyph unicode="&#xff;" horiz-adv-x="1062" d="M6 983h270l275 -682h4l246 682h256l-465 -1194q-57 -147 -138 -214t-237 -67q-96 0 -188 25l30 221q68 -25 125 -24q86 0 124 31.5t71 113.5l47 117zM164 1302.5q0 59.5 45 103.5t110 44q68 0 114 -42t46 -105.5t-46 -105.5t-114 -42q-66 0 -110.5 44t-44.5 103.5z M586 1302.5q0 59.5 45 103.5t110 44q68 0 114 -42t46 -105.5t-46 -105.5t-114 -42q-66 0 -110.5 44t-44.5 103.5z" />
<glyph unicode="&#x152;" horiz-adv-x="2048" d="M102 725q0 319 221.5 522t604.5 203h983v-233h-590v-357h553v-233h-553v-394h625v-233h-1018q-381 0 -603.5 205t-222.5 520zM385 725q0 -113 40 -203t99.5 -142t136 -87t143 -47.5t130.5 -12.5h129v984h-129q-63 0 -130 -12.5t-143.5 -47.5t-136 -87t-99.5 -142 t-40 -203z" />
<glyph unicode="&#x153;" horiz-adv-x="1896" d="M74 491.5q0 227.5 153.5 372t380.5 144.5q231 0 377 -160q129 160 365 160q229 0 351 -146.5t122 -376.5v-67h-717q-4 -104 75 -175t165 -71q154 0 262 133l170 -121q-150 -209 -432 -209q-246 0 -365 158q-143 -158 -373 -158q-227 0 -380.5 144.5t-153.5 372z M319 491.5q0 -129.5 79 -218.5t210 -89q133 0 213 89t80 218.5t-80 218.5t-213 89q-131 0 -210 -89t-79 -218.5zM1098 590h479q-2 106 -64.5 169.5t-162.5 63.5q-96 0 -173 -62t-79 -171z" />
<glyph unicode="&#x178;" horiz-adv-x="1290" d="M-29 1450h324l356 -578l361 578h307l-545 -829v-621h-258v621zM276 1695.5q0 59.5 45.5 103.5t110.5 44q68 0 114 -42t46 -105.5t-46 -105.5t-114 -42q-66 0 -111 44t-45 103.5zM698 1695.5q0 59.5 45 103.5t111 44q68 0 114 -42t46 -105.5t-46 -105.5t-114 -42 q-66 0 -111 44t-45 103.5z" />
<glyph unicode="&#x2c6;" horiz-adv-x="532" d="M-106 1155l235 295h277l233 -295h-233l-142 184l-141 -184h-229z" />
<glyph unicode="&#x2dc;" horiz-adv-x="532" d="M-111 1163q45 260 230 260q61 0 164.5 -37.5t130.5 -37.5q68 0 94 86h135q-45 -260 -229 -260q-61 0 -165 38.5t-130 38.5q-66 0 -94 -88h-136z" />
<glyph unicode="&#x2000;" horiz-adv-x="960" />
<glyph unicode="&#x2001;" horiz-adv-x="1923" />
<glyph unicode="&#x2002;" horiz-adv-x="960" />
<glyph unicode="&#x2003;" horiz-adv-x="1923" />
<glyph unicode="&#x2004;" horiz-adv-x="641" />
<glyph unicode="&#x2005;" horiz-adv-x="479" />
<glyph unicode="&#x2006;" horiz-adv-x="319" />
<glyph unicode="&#x2007;" horiz-adv-x="319" />
<glyph unicode="&#x2008;" horiz-adv-x="239" />
<glyph unicode="&#x2009;" horiz-adv-x="382" />
<glyph unicode="&#x200a;" horiz-adv-x="106" />
<glyph unicode="&#x2010;" horiz-adv-x="645" d="M70 399v209h505v-209h-505z" />
<glyph unicode="&#x2011;" horiz-adv-x="645" d="M70 399v209h505v-209h-505z" />
<glyph unicode="&#x2012;" horiz-adv-x="645" d="M70 399v209h505v-209h-505z" />
<glyph unicode="&#x2013;" horiz-adv-x="1024" d="M0 406v196h1024v-196h-1024z" />
<glyph unicode="&#x2014;" horiz-adv-x="2048" d="M0 406v196h2048v-196h-2048z" />
<glyph unicode="&#x2018;" d="M106 909l175 541h219l-144 -541h-250z" />
<glyph unicode="&#x2019;" d="M106 909l144 541h250l-174 -541h-220z" />
<glyph unicode="&#x201a;" d="M106 -258l144 541h250l-174 -541h-220z" />
<glyph unicode="&#x201c;" horiz-adv-x="1062" d="M119 909l174 541h219l-143 -541h-250zM551 909l174 541h219l-143 -541h-250z" />
<glyph unicode="&#x201d;" horiz-adv-x="1062" d="M119 909l143 541h250l-174 -541h-219zM551 909l143 541h250l-174 -541h-219z" />
<glyph unicode="&#x201e;" horiz-adv-x="1062" d="M121 -258l143 541h250l-174 -541h-219zM549 -258l143 541h250l-174 -541h-219z" />
<glyph unicode="&#x2022;" horiz-adv-x="1024" d="M150 725q0 152 105 257t257 105t257 -105t105 -257t-105 -257.5t-257 -105.5t-257 105.5t-105 257.5z" />
<glyph unicode="&#x2026;" horiz-adv-x="2048" d="M178 143.5q0 65.5 48 112.5t116 47t116 -45t48 -110.5t-48 -112.5t-116 -47q-66 0 -115 45t-49 110.5zM860 143.5q0 65.5 48 112.5t116 47t116 -45t48 -110.5t-48 -112.5t-116 -47q-66 0 -115 45t-49 110.5zM1542 143.5q0 65.5 48 112.5t116 47t116 -45t48 -110.5 t-48 -112.5t-116 -47q-66 0 -115 45t-49 110.5z" />
<glyph unicode="&#x202f;" horiz-adv-x="382" />
<glyph unicode="&#x2039;" d="M61 508l312 459l153 -105l-235 -354l237 -358l-155 -105z" />
<glyph unicode="&#x203a;" d="M78 862l155 105l312 -463l-312 -459l-153 105l235 354z" />
<glyph unicode="&#x205f;" horiz-adv-x="479" />
<glyph unicode="&#x2122;" horiz-adv-x="2048" d="M82 1266v184h709v-184h-250v-660h-209v660h-250zM983 606v844h291l201 -549l200 549h291v-844h-209v549h-4l-207 -549h-143l-207 549h-4v-549h-209z" />
<glyph unicode="&#xe000;" horiz-adv-x="985" d="M0 985h985v-985h-985v985z" />
<glyph unicode="&#xfb01;" horiz-adv-x="1214" d="M25 774v209h202v139q0 225 77 338t290 113q84 0 156 -14l-17 -209q-61 14 -102 14q-94 0 -126 -53.5t-32 -149.5v-178h227v-209h-227v-774h-246v774h-202zM827 1316.5q0 59.5 45.5 103.5t110.5 44q68 0 114 -42t46 -105.5t-46 -105.5t-114 -42q-66 0 -111 44t-45 103.5z M860 0v983h246v-983h-246z" />
<glyph unicode="&#xfb02;" horiz-adv-x="1214" d="M25 774v209h202v139q0 225 77 338t290 113q84 0 156 -14l-17 -209q-61 14 -102 14q-94 0 -126 -53.5t-32 -149.5v-178h227v-209h-227v-774h-246v774h-202zM860 0v1548h246v-1548h-246z" />
<glyph unicode="&#xfb03;" horiz-adv-x="1974" d="M1551 1316.5q0 59.5 45 103.5t110 44q68 0 114 -42t46 -105.5t-46 -105.5t-114 -42q-66 0 -110.5 44t-44.5 103.5zM1585 0v983h246v-983h-246zM746 774v209h202v139q0 225 77 338t290 113q84 0 156 -14l-17 -209q-61 14 -102 14q-94 0 -126 -53.5t-32 -149.5v-178h227 v-209h-227v-774h-246v774h-202zM25 774v209h202v139q0 225 77 338t290 113q84 0 156 -14l-17 -209q-61 14 -102 14q-94 0 -126 -53.5t-32 -149.5v-178h227v-209h-227v-774h-246v774h-202z" />
<glyph unicode="&#xfb04;" horiz-adv-x="1974" d="M1585 0v1548h246v-1548h-246zM746 774v209h202v139q0 225 77 338t290 113q84 0 156 -14l-17 -209q-61 14 -102 14q-94 0 -126 -53.5t-32 -149.5v-178h227v-209h-227v-774h-246v774h-202zM25 774v209h202v139q0 225 77 338t290 113q84 0 156 -14l-17 -209q-61 14 -102 14 q-94 0 -126 -53.5t-32 -149.5v-178h227v-209h-227v-774h-246v774h-202z" />
</font>
</defs>
</svg>
