<?xml version="1.0" standalone="no"?>
<!DOCTYPE svg PUBLIC "-//W3C//DTD SVG 1.1//EN" "http://www.w3.org/Graphics/SVG/1.1/DTD/svg11.dtd" >
<svg xmlns="http://www.w3.org/2000/svg">
<metadata>
This is a custom SVG webfont generated by Font Squirrel.
Copyright   : Copyright c 1989 Adobe Systems Incorporated  All Rights ReservedTrajan is a trademark of Adobe Systems Incorporated
</metadata>
<defs>
<font id="TrajanRegular" horiz-adv-x="1433" >
<font-face units-per-em="2048" ascent="1638" descent="-410" />
<missing-glyph horiz-adv-x="665" />
<glyph unicode=" "  horiz-adv-x="665" />
<glyph unicode="&#x09;" horiz-adv-x="665" />
<glyph unicode="&#xa0;" horiz-adv-x="665" />
<glyph unicode="!" horiz-adv-x="655" d="M221 1393q0 12 10 28q53 90 152 140q20 10 31 10q12 0 12 -21q0 -4 -5 -39.5t-13.5 -100t-12.5 -130.5q0 -6 -11 -227.5t-22.5 -435.5t-13.5 -236q-4 -66 -24 -66q-14 0 -20.5 21.5t-10.5 85.5q-2 31 -16.5 279.5t-16.5 265.5q0 43 -10 194.5t-21 192.5q-8 33 -8 39z M225 70q0 39 27 71.5t78 32.5q45 0 74.5 -27.5t29.5 -70.5q0 -47 -29.5 -79t-76.5 -32q-49 0 -76 32t-27 73z" />
<glyph unicode="$" horiz-adv-x="1142" d="M145 123q0 152 23 242q6 39 22 38q12 0 11 -45q-4 -125 53 -190q76 -90 223 -90l60 655q-188 131 -267.5 227.5t-79.5 225.5q0 119 71 206t165 124.5t188 37.5l15 164q0 14 12 19l47 14q16 4 17 -10l-19 -187q156 0 229 -28q16 -8 17 -31q0 -170 -8 -240q-2 -20 -17 -20 q-16 0 -16 31q0 106 -60 161q-63 59 -153 60l-60 -610q92 -59 141.5 -97.5t108 -96.5t84 -126t25.5 -149q0 -109 -47 -192t-118 -128t-140.5 -66.5t-128.5 -21.5l-15 -166q-2 -12 -20 -16l-39 -13q-8 -2 -12 3.5t-2 17.5l16 174q-156 0 -268 49q-39 16 -48.5 28.5t-9.5 45.5 zM328 1239q0 -88 54 -158.5t171 -152.5l53 559q-33 0 -75 -10.5t-90 -35t-80.5 -77.5t-32.5 -125zM551 78q129 6 203.5 83t74.5 201q0 178 -225 324z" />
<glyph unicode="%" horiz-adv-x="1781" d="M102 1143q0 158 95.5 275.5t269.5 117.5q154 0 335 12.5t305 23.5t138.5 11t14.5 -8q0 -2 -23 -59l-602 -1500q-8 -23 -21 -24l-94 -17q-16 -2 -21 5.5t-1 17.5q51 115 647 1505q-53 -2 -169 -11t-208 -15.5t-106 -6.5v-4q57 -41 95 -119.5t38 -172.5q0 -156 -91.5 -274 t-261.5 -118q-164 0 -252 112t-88 249zM229 1171q0 -131 58.5 -231t163.5 -100q111 0 164 85t53 220q0 131 -59.5 232.5t-162.5 101.5q-111 0 -164 -86.5t-53 -221.5zM985 360q0 158 90 275t264 117q162 0 251 -112t89 -249q0 -156 -91 -273.5t-263 -117.5 q-164 0 -252 111.5t-88 248.5zM1112 389q0 -131 58.5 -231.5t162.5 -100.5q111 0 165 86t54 219q0 131 -60 231.5t-163 100.5q-111 0 -164 -85t-53 -220z" />
<glyph unicode="&#x26;" horiz-adv-x="1587" d="M102 418q0 309 314 493q-100 141 -101 283q0 135 124 256t317 121q156 0 248 -51q27 -16 26 -52q0 -164 -14 -235q-6 -35 -21 -35q-12 0 -12 39q0 109 -63 174q-86 90 -205 90q-104 0 -182 -67.5t-78 -200.5q0 -111 71.5 -220.5t251.5 -303.5q49 -53 191.5 -187.5 t195.5 -179.5q45 61 75 155.5t30 184.5q0 61 -39 100q-33 33 -101 33q-25 0 -24.5 14.5t33.5 14.5q113 0 245 -15q37 -4 37 -41q0 -115 -62.5 -251t-139.5 -232q150 -127 282 -203q135 -80 244 -79q29 0 29 -14.5t-35 -14.5h-201q-117 0 -189.5 31.5t-236.5 160.5 q-221 -221 -512 -221q-127 0 -227.5 45t-156.5 116t-85 145.5t-29 146.5zM262 514q0 -190 118 -315t292 -125q240 0 387 151q-80 66 -202 181.5t-169 164.5q-174 186 -242 287q-184 -121 -184 -344z" />
<glyph unicode="(" horiz-adv-x="737" d="M127 729q0 154 47 307.5t117.5 267t138.5 192.5t121 118q16 12 22 12q14 0 15 -16q0 -8 -15 -23q-100 -100 -196 -327.5t-96 -503.5q0 -295 74.5 -498t215.5 -371q14 -18 15 -24q0 -14 -15 -15q-4 0 -18 11q-68 49 -135.5 126.5t-136 187.5t-111.5 256t-43 300z" />
<glyph unicode=")" horiz-adv-x="737" d="M150 -135q0 8 14 22q100 100 196.5 327.5t96.5 504.5q0 295 -75 497.5t-216 370.5q-14 18 -14 25q0 14 14 14q4 0 18 -10q68 -49 135.5 -127t136 -187.5t111.5 -255t43 -296.5q0 -203 -83 -404t-174 -315.5t-167 -169.5q-16 -12 -22 -13q-14 1 -14 17z" />
<glyph unicode="*" horiz-adv-x="716" d="M68 1475q0 16 20 16q39 0 113.5 -48t117.5 -83q8 -4 17 -2q2 4 2 14q2 18 -20.5 99t-32.5 102q-8 16 -9 22q0 14 51.5 37t80.5 23q16 0 16 -23q0 -84 -55 -260q-4 -8 0 -14q2 -2 10 0q59 16 115.5 53t76.5 59q18 14 21 15q12 0 34.5 -50.5t22.5 -78.5q0 -12 -24 -19 q-2 0 -236 -8q-4 0 -12 -4q-4 -4 2 -14q16 -29 83.5 -83t88.5 -61q23 -8 22 -18q0 -25 -40.5 -63.5t-63.5 -38.5q-12 0 -29 28q-49 90 -88 211q-6 12 -8 12q-6 0 -8 -6q-8 -12 -39 -80.5t-39 -89.5q-12 -43 -12 -47q0 -10 -25 -10q-49 0 -89 8t-40 19q0 14 14 32 q25 35 205 187q6 6 6 12t-8 6q-55 14 -194 14q-8 0 -17 -4l-8 -2q-22 1 -22 138z" />
<glyph unicode="," horiz-adv-x="512" d="M158 141q0 41 42 76t85 35q12 0 37 -39q35 -53 34 -88q0 -27 -20 -80q-61 -143 -131 -219q-14 -18 -27 -19q-14 0 -14 15l14 28q49 84 49 146q0 55 -34.5 98t-34.5 47z" />
<glyph unicode="-" horiz-adv-x="798" d="M74 709l30 114q4 16 46 17h516q61 0 61 -21q0 -27 -72 -35q-8 -2 -227 -33.5t-260 -41.5q-16 -4 -35.5 -12.5t-32 -13.5t-16.5 -5q-20 0 -10 31z" />
<glyph unicode="." horiz-adv-x="512" d="M143 113q0 41 29 76.5t84 35.5q49 0 81 -28.5t32 -77.5q0 -51 -32 -85t-83 -34q-53 0 -82 35t-29 78z" />
<glyph unicode="/" horiz-adv-x="1130" d="M47 12q-12 6 2 31l944 1513q12 18 29 9l61 -37q12 -8 4 -21l-950 -1527q-10 -18 -24 -11z" />
<glyph unicode="0" horiz-adv-x="1333" d="M131 721q0 377 146.5 613.5t404.5 236.5q141 0 247.5 -73t163 -190.5t83 -241.5t26.5 -251q0 -375 -148.5 -612.5t-404.5 -237.5q-139 0 -244.5 73t-162 190.5t-84 241.5t-27.5 251zM303 805q0 -139 22.5 -270.5t67.5 -244t122 -181t175 -68.5q154 0 247 186.5t93 499.5 q0 137 -23.5 269t-68.5 246t-123 183.5t-174 69.5q-154 0 -246 -187.5t-92 -502.5z" />
<glyph unicode="1" horiz-adv-x="962" d="M131 1262q0 10 14 20q6 4 195.5 131t200.5 133q31 25 49 25q20 0 20 -43q0 -2 -1 -30t-2 -76t-3 -108.5t-3 -145.5t-1 -173v-379q0 -381 10 -471q6 -53 21.5 -75.5t60.5 -32.5q61 -12 135 -12q16 0 17 -17q0 -14 -35 -14q-68 0 -138.5 1t-113.5 3l-43 2l-51 -2 q-53 -2 -129 -3t-133 -1q-33 0 -33 14q0 16 16 17q96 0 164 14q49 8 65.5 31.5t20.5 74.5q6 90 6 471v359q0 55 -1 154.5t-1 156.5q0 35 -7 49.5t-30 14.5q-29 0 -233 -99q-14 -8 -25 -8q-12 1 -12 19z" />
<glyph unicode="2" horiz-adv-x="1198" d="M49 29q0 16 37 49q106 96 169.5 153.5t150 142.5t135.5 144.5t105 139t86 148t49.5 149.5t19.5 163q0 104 -31 182t-81 118t-104.5 59.5t-109.5 19.5q-135 0 -219 -78q-72 -70 -72 -198q0 -31 -18 -31q-14 0 -16 27q-12 111 -13 251q0 16 21 31q156 72 360 72 q221 0 342 -120t121 -294q0 -117 -49 -241.5t-118 -224t-171 -207t-180 -177t-172 -151.5q-14 -12 -22.5 -18.5t-6.5 -10.5t10 -4h150q258 0 350 10q199 18 240 197q8 31 24 30q12 0 13 -30q0 -59 -62 -269q-12 -39 -38.5 -50t-94.5 -11h-776q-10 0 -19.5 8.5t-9.5 20.5z " />
<glyph unicode="3" horiz-adv-x="1208" d="M143 72q0 152 15 256q2 31 16 30q12 0 14 -28q25 -276 308 -277q164 0 267 93.5t103 269.5q0 96 -39 172t-102 121t-120.5 68.5t-117.5 35.5q-53 10 -53 26.5t47 24.5q45 8 95.5 31t104.5 63.5t90 109.5t36 153q0 39 -13.5 80.5t-43 89t-92 77t-146.5 29.5 q-115 0 -186.5 -63.5t-71.5 -178.5q0 -25 -14 -24q-12 0 -15 22q-14 115 -14 205q0 25 27 43q143 70 331 70q117 0 203 -33t127 -84t58.5 -98t17.5 -92q0 -72 -33 -138.5t-82 -112.5t-89 -75t-71 -43v-10q123 -29 230.5 -131.5t107.5 -261.5q0 -219 -172 -373t-440 -154 q-63 0 -140 15.5t-110 33.5q-33 21 -33 58z" />
<glyph unicode="4" horiz-adv-x="1304" d="M57 485q0 20 19 43q18 20 384.5 484.5t409.5 521.5q27 37 43 37q20 0 21 -35q0 -4 -1 -123t-1 -184v-658h155q25 0 43.5 5.5t28.5 11.5t12 6q10 0 11 -25q0 -27 -19 -82q-12 -27 -43 -26h-188q0 -270 4 -316q4 -49 22.5 -74.5t65.5 -37.5q39 -8 90 -8q18 0 19 -17 q0 -14 -33 -14q-49 0 -110.5 1t-102.5 3t-45 2t-40 -2t-92.5 -3t-105.5 -1q-33 0 -33 14q0 16 17 17q47 0 96 6q47 6 64.5 33.5t23.5 80.5q4 45 4 316h-676q-43 -1 -43 24zM201 571h575v725h-4q-14 -23 -146 -190.5t-273.5 -344t-151.5 -190.5z" />
<glyph unicode="5" horiz-adv-x="1165" d="M156 59q0 205 8 258q8 37 18 37q16 0 17 -35q0 -152 75.5 -208t204.5 -56q145 0 253 100.5t108 297.5q0 117 -58.5 215t-143.5 155.5t-169 90t-150 36.5q-57 2 -53 37l47 522q2 27 39 27h482q49 0 85.5 4t54 7t21.5 3q14 0 15 -20q0 -63 -27 -258q-4 -23 -16.5 -23 t-12.5 27q0 68 -34.5 99.5t-145.5 31.5h-387l-29 -315q84 -12 167 -38t170 -72t152.5 -106.5t107.5 -150.5t42 -195q0 -219 -162.5 -392t-451.5 -173q-123 0 -188 37q-39 20 -39 57z" />
<glyph unicode="6" horiz-adv-x="1234" d="M131 555q0 297 205 584.5t504 416.5q33 14 43 15q16 0 16 -19q0 -14 -39 -36q-225 -125 -388 -375t-163 -586q0 -201 89 -356.5t253 -155.5q127 0 210 96.5t83 259.5q0 197 -100.5 313.5t-208.5 116.5q-98 0 -154 -26q-25 -8 -26 -8q-8 0 -9 16q0 12 19 25q102 72 237 71 q197 0 304.5 -129t107.5 -286q0 -246 -147 -390q-143 -137 -355 -137q-219 0 -350 157t-131 433z" />
<glyph unicode="7" horiz-adv-x="1126" d="M115 1202q0 39 15 180.5t15 145.5q0 29 21 28q2 0 23.5 -5t66.5 -10t104 -5h664q37 0 37 -20q0 -18 -12 -39q-129 -190 -320.5 -655.5t-214.5 -659.5v-72q0 -29 -83 -77t-118 -48q-18 0 -18 21q0 33 12 69q70 233 234 608t377 744h-504q-129 0 -191 -51q-68 -53 -78 -158 q-4 -29 -18 -29q-12 0 -12 33z" />
<glyph unicode="8" horiz-adv-x="1280" d="M164 362q0 160 104.5 278t259.5 179q-137 82 -211.5 170t-74.5 215q0 135 114.5 251t321.5 116q164 0 269.5 -83t105.5 -231q0 -250 -293 -395q68 -35 116 -66.5t110.5 -86t96 -130t33.5 -163.5q0 -184 -137 -317.5t-350 -133.5q-199 0 -332 108.5t-133 288.5zM322 383 q0 -139 92 -239.5t231 -100.5t226 93t87 233q0 80 -27.5 143t-87 114.5t-108.5 83t-137 76.5q-276 -135 -276 -403zM387 1243q0 -117 76 -191.5t227 -156.5q43 27 69.5 46.5t67.5 60t61.5 99t20.5 132.5q0 119 -69.5 193.5t-186.5 74.5q-127 0 -196.5 -81t-69.5 -177z" />
<glyph unicode="9" horiz-adv-x="1208" d="M119 1094q0 211 138 344t351 133q211 0 340 -159t129 -398q0 -164 -50 -317.5t-126 -266.5t-176 -211t-186 -157.5t-170 -102.5q-16 -8 -33 -8t-17 20q0 18 21 29q96 53 189.5 139t178.5 205t137 278.5t52 331.5q0 256 -97.5 398.5t-240.5 142.5q-131 0 -205.5 -92 t-74.5 -221q0 -119 38.5 -206t95 -127t100.5 -57.5t73 -17.5q104 0 164 37q18 12 26 12q10 0 10 -14q0 -8 -8 -16q-88 -94 -246 -95q-201 0 -307 123t-106 273z" />
<glyph unicode=":" horiz-adv-x="512" d="M143 174q0 41 29 77t84 36q49 0 81 -29t32 -78q0 -51 -32 -85t-83 -34q-53 0 -82 35t-29 78zM143 866q0 41 29 77t84 36q49 0 81 -28.5t32 -78.5q0 -51 -32 -84.5t-83 -33.5q-53 0 -82 34.5t-29 77.5z" />
<glyph unicode=";" horiz-adv-x="512" d="M143 866q0 41 29 77t84 36q49 0 81 -28.5t32 -78.5q0 -51 -32 -84.5t-83 -33.5q-53 0 -82 34.5t-29 77.5zM168 141q0 41 42 76t85 35q12 0 37 -39q35 -53 35 -88q0 -27 -21 -80q-61 -143 -131 -219q-14 -18 -27 -19q-14 0 -14 15l14 28q49 84 50 146q0 55 -35 98t-35 47z " />
<glyph unicode="?" horiz-adv-x="999" d="M143 1456q0 18 23 33q137 82 340 82q186 0 278.5 -96.5t92.5 -223.5q0 -70 -15.5 -127t-53.5 -115.5t-73 -99.5t-101.5 -115.5t-109.5 -129.5q-84 -106 -84 -164q0 -51 39 -105q18 -25 19 -35q0 -6 -8.5 -12t-14.5 -6q-29 0 -86 72q-59 74 -59 121q0 45 45 102 q25 33 73 88t68 82q102 131 141 227t39 203q0 96 -57 180t-182 84q-137 0 -201 -80q-61 -74 -72 -190q-4 -35 -16 -35q-14 0 -16 21q-9 38 -9 239zM356 70q0 39 27 71.5t78 32.5q45 0 74.5 -27.5t29.5 -70.5q0 -47 -29.5 -79t-76.5 -32q-49 0 -76 32t-27 73z" />
<glyph unicode="A" d="M-55 10q0 12 18 13q27 0 60 4q66 8 102.5 56t69.5 136l464 1272q29 80 45.5 80t45.5 -74q8 -20 103 -270t206.5 -539t167.5 -426q82 -201 176 -227q37 -12 82 -12q20 0 20 -13q0 -16 -41 -16q-180 0 -321 4q-61 4 -61.5 14.5t14.5 14.5q18 7 18 27q0 12 -6 28l-190 504 q-6 12 -19 12h-440q-14 0 -21 -16l-123 -363q-29 -80 -28 -137q0 -29 23.5 -44t54.5 -15h20q20 0 21 -13q0 -16 -31 -16q-29 0 -90.5 3t-69.5 3q-2 0 -88 -3t-143 -3q-39 0 -39 16zM475 686q-2 -5 -2 -8q0 -6 8 -6h391q12 0 9 14l-195 553q-7 24 -14.5 24t-16.5 -24z" />
<glyph unicode="B" horiz-adv-x="1406" d="M186 1526q0 16 33 16q41 0 96.5 -1t94.5 -3t41 -2q18 0 94 3t129 3q119 0 205 -32.5t127 -84t59 -98.5t18 -92q0 -78 -31.5 -150.5t-64.5 -111.5t-96 -107q135 -43 244.5 -155.5t109.5 -276.5q0 -180 -137 -313t-385 -133q-27 0 -147.5 6t-124.5 6q-2 0 -40 -2t-86.5 -3 t-74.5 -1q-33 0 -33 16q0 12 16 13q25 0 62 8q45 8 59 112q10 86 11 445v360q0 377 -5 443q-4 55 -21 80.5t-67 35.5q-25 6 -69 6q-17 1 -17 13zM528 686q0 -412 2 -442q4 -61 7.5 -83t17.5 -42.5t45 -34.5q63 -31 180 -31q47 0 93.5 13.5t92.5 44t74.5 91t28.5 142.5 q0 111 -46 223.5t-153 186.5q-70 47 -170 59q-27 4 -159 4q-12 0 -13 -14v-117zM528 903q0 -16 15 -22q49 -8 125 -9q90 0 122.5 9.5t63.5 44.5q74 84 74 207q0 143 -68.5 247.5t-208.5 104.5q-57 0 -98 -10q-25 -6 -25 -23v-549z" />
<glyph unicode="C" horiz-adv-x="1648" d="M131 793q0 129 53.5 282.5t175.5 276.5q219 219 625 219q164 0 297 -25q145 -27 209 -30q27 -2 27 -23q0 -6 -2.5 -19.5t-4.5 -39t-4 -56.5q-2 -37 -4 -117.5t-2 -93.5q-2 -43 -18.5 -43t-16.5 43q0 135 -86 209q-57 49 -168.5 83t-240.5 34q-317 0 -471 -150 q-104 -100 -144.5 -230t-40.5 -304q0 -303 210 -526.5t530 -223.5q256 0 356 103q57 59 76 172q6 31 20.5 31t14.5 -31q0 -16 -15.5 -116.5t-29.5 -145.5q-8 -29 -16.5 -38t-37.5 -22q-117 -47 -368 -47q-430 0 -676 221q-248 224 -248 607z" />
<glyph unicode="D" horiz-adv-x="1878" d="M186 1526q0 16 33 16q41 0 96.5 -1t94.5 -3t41 -2l102 4q100 2 174 2h39q90 0 143.5 -1t153.5 -13t174 -35t160 -70t151 -114q199 -207 199 -521q0 -344 -221 -577q-225 -236 -621 -236q-78 0 -186.5 6.5t-186 12.5t-81.5 6q-2 0 -40 -2t-86.5 -3t-74.5 -1q-33 0 -33 16 q0 12 16 13q25 0 62 8q45 8 59 112q10 86 11 445v360q0 377 -5 443q-4 55 -21 80.5t-67 35.5q-25 6 -69 6q-17 1 -17 13zM537 727q0 -367 4 -444q6 -131 22 -156q55 -82 348 -82q297 0 488 191q78 76 121 210t43 279q0 309 -197 516q-131 139 -292 185.5t-378 46.5 q-104 0 -133 -15q-25 -10 -24 -41q-2 -70 -2 -436v-254z" />
<glyph unicode="E" horiz-adv-x="1249" d="M186 1526q0 16 33 16q41 0 96.5 -1t94.5 -3t41 -2q422 0 469 2q59 4 88 10q4 0 13 5.5t15 5.5q8 0 8 -19q0 -6 -3 -17.5t-7 -33t-6 -45.5q0 -4 -4 -62.5t-6 -72.5q-4 -23 -14 -23q-16 0 -17 27q0 45 -12 73.5t-41 45t-105 24.5q-51 6 -280 6q-12 0 -12 -20v-565 q0 -20 12 -21q279 0 325 4q76 6 97 29q23 27 30 26q10 0 11 -16q0 -4 -3 -18.5t-7.5 -41t-6.5 -55.5q-8 -82 -8 -131q0 -39 -14.5 -39t-14.5 19q0 41 -8 67q-18 63 -106 72q-92 10 -293 10q-14 0 -14 -14v-180v-350q4 -106 46 -137t191 -31q143 0 197 22q72 31 92 148 q6 31 18.5 30.5t12.5 -30.5q0 -14 -10.5 -92t-16.5 -107q-10 -39 -28.5 -46t-82.5 -7q-135 0 -247.5 3t-176 6t-81.5 3q-2 0 -40 -2t-86.5 -3t-74.5 -1q-33 0 -33 16q0 12 16 13q25 0 62 8q45 8 59 112q10 86 11 445v360q0 377 -5 443q-4 55 -21 80.5t-67 35.5q-25 6 -69 6 q-17 1 -17 13z" />
<glyph unicode="F" horiz-adv-x="1212" d="M186 1526q0 16 33 16q41 0 96.5 -1t94.5 -3t41 -2q457 0 503 2q78 4 90 8l15 7q10 5 14 6q12 0 12 -19q0 -6 -3 -17.5t-7 -33t-6 -45.5q0 -4 -4 -62.5t-6 -72.5q-4 -23 -17 -23q-14 0 -14 25q0 37 -18 78q-10 25 -47 44t-93 21l-315 6q-18 0 -18 -22v-566q0 -18 14 -18 l262 2q63 0 92 2q74 6 94 37q16 20 23 20q10 0 10 -16q0 -4 -3 -18.5t-7 -41t-6 -55.5q-8 -82 -8 -137q0 -39 -14.5 -39t-14.5 19q-6 53 -12 73q-23 63 -107 74q-51 6 -309 6q-14 0 -14 -18v-174q0 -358 10 -445q6 -51 21.5 -78.5t58.5 -33.5q57 -8 92 -8q16 0 16 -13 q0 -16 -33 -16q-49 0 -109.5 1t-100 3t-41.5 2t-40 -2t-86.5 -3t-74.5 -1q-33 0 -33 16q0 12 16 13q25 0 62 8q45 8 59 112q10 86 11 445v360q0 377 -5 443q-4 55 -21 80.5t-67 35.5q-25 6 -69 6q-17 1 -17 13z" />
<glyph unicode="G" horiz-adv-x="1765" d="M131 768q0 231 96.5 405.5t245.5 268.5q207 129 545 129q147 0 313 -35q70 -16 166 -20q25 -2 25 -19q0 -6 -3 -38t-7.5 -97.5t-4.5 -155.5q0 -43 -18 -43q-10 0 -14 31q-6 76 -43 135q-43 66 -170 116t-312 50q-266 0 -438 -135q-92 -74 -147.5 -210t-55.5 -310 q0 -190 71 -342t146 -226q225 -219 537 -219q160 0 233 43q41 23 41 72v348q0 125 -15 160t-77 51q-25 6 -69 6q-16 0 -17 12q0 16 33 17q41 0 96 -2t94 -3t41 -1t40 1t86 3t75 2q33 0 33 -17q0 -12 -17 -12q-14 0 -51 -6q-41 -8 -56 -34.5t-20 -82.5q-4 -66 -4 -213v-229 q0 -68 -4 -84t-22 -27q-174 -92 -434 -92q-424 0 -674 219q-102 88 -173 246t-71 338z" />
<glyph unicode="H" horiz-adv-x="1966" d="M186 1526q0 16 33 16q41 0 96.5 -1t94.5 -3t41 -2t39.5 2t86 3t74.5 1q33 0 33 -16q0 -12 -16 -13q-14 0 -52 -6q-41 -8 -56 -34.5t-19 -81.5q-4 -66 -4 -443v-43q0 -12 12 -12h868q12 0 13 12v43q0 377 -5 443q-4 55 -21.5 80.5t-66.5 35.5q-25 6 -69 6q-16 0 -17 13 q0 16 33 16q41 0 96.5 -1t94 -3t41 -2t40 2t86 3t74.5 1q33 0 33 -16q0 -12 -16 -13q-14 0 -52 -6q-41 -8 -56 -34.5t-19 -81.5q-4 -66 -4 -443v-360q0 -358 10 -445q6 -51 21.5 -78.5t58.5 -33.5q57 -8 92 -8q16 0 16 -13q0 -16 -33 -16q-49 0 -109.5 1t-100 3t-42 2 t-40 -2t-86 -3t-74.5 -1q-33 0 -33 16q0 12 16 13q25 0 62 8q45 8 59 112q10 86 11 445v215q0 12 -13 12h-868q-12 0 -12 -12v-215q0 -358 10 -445q6 -51 21.5 -78.5t58.5 -33.5q57 -8 92 -8q16 0 16 -13q0 -16 -33 -16q-49 0 -109.5 1t-100 3t-41.5 2t-40 -2t-86.5 -3 t-74.5 -1q-33 0 -33 16q0 12 16 13q25 0 62 8q45 8 59 112q10 86 11 445v360q0 377 -5 443q-4 55 -21 80.5t-67 35.5q-25 6 -69 6q-17 1 -17 13z" />
<glyph unicode="I" horiz-adv-x="901" d="M211 1526q0 16 33 16q31 0 80 -1t87 -3t40 -2t39.5 2t86 3t74.5 1q33 0 33 -16q0 -12 -16 -13q-14 0 -52 -6q-41 -8 -56 -34.5t-19 -81.5q-4 -66 -4 -443v-360q0 -358 10 -445q6 -51 21.5 -78.5t58.5 -33.5q57 -8 92 -8q16 0 16 -13q0 -16 -33 -16q-49 0 -109.5 1t-100 3 t-41.5 2t-40 -2t-86.5 -3t-74.5 -1q-33 0 -33 16q0 12 16 13q25 0 62 8q45 8 59 112q10 86 11 445v360q0 377 -5 443q-6 100 -69 114q-31 8 -64 8q-16 1 -16 13z" />
<glyph unicode="J" horiz-adv-x="847" d="M68 -504q0 12 28 31q35 20 72 57q76 76 112.5 144.5t60.5 220t24 407.5v592q0 377 -5 443q-4 55 -21 80.5t-67 35.5q-25 6 -69 6q-16 0 -17 13q0 16 33 16q41 0 96.5 -1t94.5 -3t41 -2t39.5 2t86 3t74.5 1q33 0 33 -16q0 -12 -16 -13q-14 0 -52 -6q-41 -8 -56 -34.5 t-19 -81.5q-4 -66 -4 -443v-491q0 -281 -9.5 -392.5t-52.5 -211.5q-63 -150 -299 -314q-59 -41 -80 -51q-8 -4 -14 -4q-14 0 -14 12z" />
<glyph unicode="K" horiz-adv-x="1540" d="M186 1526q0 16 33 16q41 0 94.5 -1t91 -3t39.5 -2q4 0 83 3t116 3q33 0 33 -16q0 -12 -17 -13q-14 0 -51 -6q-41 -8 -56 -34.5t-20 -81.5q-4 -66 -4 -443v-123h9q16 18 228 235.5t251 260.5q111 115 110.5 147.5t-26.5 42.5q-18 8 -19 17q0 14 25 14q20 0 73.5 -3 t80.5 -3l83 4q82 2 113 2t31 -14.5t-21 -14.5q-51 0 -114 -28q-20 -8 -40 -20.5t-33 -21.5t-35.5 -28.5t-33 -29t-39 -37t-41.5 -39.5q-381 -367 -450 -449q45 -51 275.5 -287.5t287.5 -289.5q139 -129 187.5 -167t117.5 -67q63 -27 127 -26q27 0 27 -13q0 -16 -45 -16h-105 q-96 0 -141 4q-51 4 -96 24.5t-67.5 37t-84.5 63.5q-66 53 -305.5 310t-318.5 355h-11v-200q0 -358 11 -445q6 -51 21 -78.5t58 -33.5q57 -8 80 -8q16 0 17 -13q0 -16 -33 -16q-45 0 -99.5 1t-93 3t-43.5 2q-2 0 -80.5 -3t-115.5 -3q-33 0 -33 16q0 12 16 13q25 0 62 8 q45 8 59 112q10 86 11 445v360q0 377 -5 443q-4 55 -21 80.5t-67 35.5q-25 6 -69 6q-17 1 -17 13z" />
<glyph unicode="L" horiz-adv-x="1212" d="M186 1526q0 16 33 16q41 0 96.5 -1t94.5 -3t41 -2t45 2t96 3t80 1q33 0 33 -16q0 -12 -17 -13q-31 0 -67 -6q-43 -8 -59.5 -34.5t-20.5 -81.5q-4 -66 -4 -443v-364q0 -236 9 -339.5t36 -129.5q47 -47 245 -47q100 0 157.5 10t90.5 51q43 51 53 123q4 27 19 27 q12 0 12 -31q0 -94 -31 -205q-10 -37 -30.5 -46t-98.5 -9q-170 0 -341 6t-207 6q-4 0 -84 -3t-117 -3q-33 0 -33 16q0 12 16 13q25 0 62 8q45 8 59 112q10 86 11 445v360q0 377 -5 443q-4 55 -21 80.5t-67 35.5q-25 6 -69 6q-17 1 -17 13z" />
<glyph unicode="M" horiz-adv-x="2150" d="M102 12q0 10 21 11q31 0 61 6q25 4 40.5 18t23.5 44t11 47.5t7 60.5l148 1335q6 37 22.5 37t30.5 -31l627 -1288l602 1286q14 33 30 33q18 0 25 -55l137 -1258q20 -188 111 -217q59 -18 133 -18q16 0 16 -11q0 -18 -43 -18q-190 0 -342 12q-57 4 -57 21q0 12 14 14 q11 3 11 35q0 16 -2 39l-99 1056h-6l-502 -1065q-47 -100 -57 -106q-4 -2 -10 -2q-14 0 -64 94q-35 68 -239 475q-16 35 -136 291t-135 293h-8l-82 -950q-2 -33 -2 -105q0 -23 15.5 -41t37.5 -22q43 -10 78 -10q16 0 17 -11q0 -18 -37 -18q-45 0 -119 2l-72 4q-4 0 -71.5 -3 t-100.5 -3q-35 0 -35 18z" />
<glyph unicode="N" horiz-adv-x="1939" d="M135 10q0 12 17 13q47 0 84 12q37 10 49 63.5t12 196.5l2 1173q0 102 23 103q8 0 19 -10.5t29.5 -31t22.5 -24.5q76 -86 651 -702q106 -115 283.5 -309.5t208.5 -225.5l-23 1041q-2 102 -17 142t-62 52q-45 10 -101 10q-16 0 -16 14.5t41 14.5q55 0 133 -3t80 -3 q4 0 64.5 3t109.5 3q37 0 37 -14.5t-23 -14.5q-25 0 -49 -6q-49 -10 -62.5 -47t-13.5 -135l-4 -1200q0 -51 -1 -80t-3 -43t-5 -18t-9 -4q-18 0 -150 131q-12 12 -96 97t-212 218t-226 240q-287 309 -535 587l27 -981q2 -125 19.5 -175t60.5 -62q47 -12 102 -12q16 0 16 -13 q0 -16 -36 -16q-51 0 -101.5 1t-81 3t-34.5 2l-70 -4q-72 -2 -127 -2q-33 0 -33 16z" />
<glyph unicode="O" horiz-adv-x="1873" d="M131 770q0 131 48 266t141.5 257t255 200t362.5 78q352 0 578.5 -208t226.5 -560t-227.5 -595t-589.5 -243q-162 0 -297 48t-225.5 128t-154 186.5t-91 217t-27.5 225.5zM326 827q0 -352 186 -568t469 -216q63 0 130 15.5t147.5 61.5t142 119.5t103.5 204.5t42 301 q0 352 -182 554t-440 202q-266 0 -432 -174t-166 -500z" />
<glyph unicode="P" horiz-adv-x="1314" d="M186 1526q0 16 33 16q41 0 94.5 -1t93 -3t44.5 -2q16 0 110 3t148 3q256 0 381 -117q102 -98 102 -243q0 -217 -142.5 -352.5t-361.5 -135.5q-33 0 -43 2q-23 0 -22 15q0 18 55 18q150 0 252 96.5t102 237.5q0 199 -114 315q-100 102 -281 103q-59 0 -88 -13 q-16 -6 -17 -38v-842q0 -358 11 -445q6 -51 21.5 -78.5t58.5 -33.5q57 -8 92 -8q16 0 16 -13q0 -16 -33 -16q-49 0 -109.5 1t-100 3t-42.5 2l-36 -2q-37 -2 -85.5 -3t-74.5 -1q-33 0 -33 16q0 12 16 13q25 0 62 8q45 8 59 112q10 86 11 445v360q0 377 -5 443q-4 55 -21 80.5 t-67 35.5q-25 6 -69 6q-17 1 -17 13z" />
<glyph unicode="Q" horiz-adv-x="1884" d="M131 770q0 131 48 266t141.5 257t255 200t362.5 78q352 0 578.5 -209t226.5 -559q0 -127 -37 -245t-95.5 -203t-115.5 -144t-115 -96l420 -217q469 -242 862 -242q207 0 404 80q25 8 29 8q12 0 12 -12.5t-17 -20.5q-309 -141 -649 -141q-344 0 -844 274l-344 191 q-55 -29 -147 -49.5t-174 -20.5q-203 0 -362.5 73t-252 192.5t-139.5 257t-47 282.5zM326 827q0 -352 186 -568t469 -216q63 0 130 15.5t147.5 61.5t142 119.5t103.5 204.5t42 301q0 352 -182 554t-440 202q-266 0 -432 -174t-166 -500z" />
<glyph unicode="R" horiz-adv-x="1544" d="M186 1526q0 16 33 16q41 0 96.5 -1t94.5 -3t41 -2q6 0 105 3t136 3q250 0 375 -90q51 -37 96 -110.5t45 -167.5q0 -244 -247 -474q326 -418 425 -524q121 -127 250 -147q39 -6 80 -6q18 0 19 -13q0 -16 -49 -16h-146q-147 0 -219 39q-41 23 -91 74t-75 82.5t-111 144.5 q-47 63 -126.5 172.5t-96.5 130.5q-12 12 -26 12l-252 4q-14 0 -15 -16v-49q0 -358 11 -445q6 -51 21 -78.5t58 -33.5q57 -8 93 -8q16 0 16 -13q0 -16 -33 -16q-49 0 -109.5 1t-100.5 3t-42 2h-14q-14 -2 -36.5 -2t-47.5 -1t-51.5 -2t-42.5 -1q-33 0 -33 16q0 12 16 13 q25 0 62 8q45 8 59 112q10 86 11 445v360q0 377 -5 443q-4 55 -21 80.5t-67 35.5q-25 6 -69 6q-17 1 -17 13zM528 770q0 -16 15 -25q55 -33 215 -32q98 0 153 39q125 86 125 315q0 193 -95 301.5t-259 108.5q-96 0 -137 -13q-16 -6 -17 -24v-670z" />
<glyph unicode="S" horiz-adv-x="1167" d="M203 98q0 53 10 217q2 33 16.5 33t14.5 -22q0 -47 6 -76q23 -106 106.5 -157.5t196.5 -51.5q139 0 216 82t77 190q0 104 -50.5 180t-185.5 189l-92 76q-154 125 -210 227t-56 217q0 166 114.5 267.5t309.5 101.5q104 0 190 -21q49 -10 72 -10q20 0 20 -14l-2 -27 q-2 -27 -4 -78t-2 -112q0 -47 -14 -47q-12 0 -16 26q-6 63 -27 103q-59 109 -256 108q-109 0 -180.5 -64.5t-71.5 -172.5q0 -86 51 -155t199 -189l57 -46q174 -137 236.5 -243.5t62.5 -237.5q0 -82 -40 -177t-134 -163q-123 -86 -309 -86q-162 0 -275 55q-20 10 -25 22.5 t-5 55.5z" />
<glyph unicode="T" horiz-adv-x="1415" d="M51 1319q0 33 45 213q12 39 21 39q4 0 30.5 -11.5t59.5 -13.5q98 -10 162 -10h768q57 0 104 5t70.5 10t27.5 5q10 0 11 -24q0 -35 -3.5 -127t-3.5 -98q0 -27 -14 -27t-16 35l-2 22q-6 51 -60.5 81t-191.5 32l-258 4v-866q0 -358 10 -445q6 -51 21.5 -78.5t58.5 -33.5 q57 -8 92 -8q16 0 16 -13q0 -16 -32 -16q-49 0 -109.5 1t-100.5 3t-42 2t-40 -2t-86 -3t-75 -1q-33 0 -33 16q0 12 17 13q25 0 61 8q45 8 59 112q10 86 11 445v866l-303 -4q-96 -2 -140.5 -15.5t-68.5 -50.5q-23 -35 -35 -63q-8 -20 -21 -21q-10 1 -10 19z" />
<glyph unicode="U" horiz-adv-x="1699" d="M68 1526q0 16 32 16q55 0 146 -2l90 -4q4 0 85 3t118 3q33 0 32 -16q0 -12 -16 -13q-14 0 -51 -6q-39 -6 -55.5 -32.5t-20.5 -83.5q-4 -66 -4 -443v-286q0 -205 40 -321t114 -185q70 -66 141.5 -89.5t167.5 -23.5q92 0 179 40t142 107q119 147 119 502v256q0 377 -4 443 q-4 55 -21.5 80.5t-66.5 35.5q-25 6 -70 6q-16 0 -16 13q0 16 33 16q41 0 92 -1t87 -3t38 -2t68.5 3t103.5 3q33 0 33 -16q0 -12 -17 -13q-27 0 -51 -6q-41 -8 -56.5 -34.5t-19.5 -81.5q-4 -66 -4 -443v-219q0 -203 -39 -358.5t-149 -253.5q-170 -152 -422 -152 q-268 0 -422 146q-178 170 -178 538v299q0 377 -4 443q-4 55 -21.5 80.5t-66.5 35.5q-25 6 -70 6q-16 1 -16 13z" />
<glyph unicode="V" horiz-adv-x="1519" d="M-53 1527.5q0 14.5 53 14.5q57 0 147.5 -3t92.5 -3t73.5 3t116.5 3q55 0 55 -14.5t-20 -14.5q-55 0 -78 -10q-27 -12 -27 -41q0 -27 56 -170l393 -1048q88 203 245.5 613.5t192.5 522.5q18 55 19 78q0 33 -27 47q-25 8 -78 8q-23 0 -22 13q0 16 45 16q49 0 122.5 -3 t77.5 -3l62 4q63 2 98 2t35 -14.5t-25 -14.5q-59 0 -98 -24q-49 -35 -113 -193q-14 -35 -229 -555q-219 -524 -264 -620q-8 -18 -17.5 -38t-14.5 -32t-11 -25.5t-10 -20.5t-9 -15l-6 -13q-2 -4 -5 -7t-6 -4t-7 -1q-16 0 -28.5 22.5t-45.5 104.5l-502 1256 q-33 82 -61.5 111.5t-85.5 45.5q-31 8 -78 8q-16 0 -16 14.5z" />
<glyph unicode="W" horiz-adv-x="2252" d="M-23 1527.5q0 14.5 33 14.5q63 0 154 -2l88 -4q6 0 38 2t80 3t93 1q37 0 37 -14.5t-21 -14.5q-55 0 -80 -12q-27 -14 -26 -49q0 -16 39 -188q29 -125 274 -992h4l434 1168q35 94 51.5 94t51.5 -96l407 -1162h8q10 39 141.5 465t174.5 580q23 84 22 131q0 61 -116 61 q-18 0 -18.5 14.5t34.5 14.5q45 0 93 -1t79 -3t37 -2l63 4q63 2 103 2q29 0 29 -12q0 -16 -19 -17q-41 0 -70 -10q-41 -14 -69.5 -66.5t-63.5 -154.5q-45 -131 -191.5 -579.5t-184.5 -561.5q-41 -117 -55.5 -146.5t-31.5 -29.5q-14 0 -26 21.5t-35 85.5l-401 1138h-4 q-371 -989 -428 -1136q-27 -68 -38.5 -88.5t-29.5 -20.5q-16 0 -28.5 29t-43.5 133l-364 1214q-25 80 -48.5 112t-64.5 48q-33 12 -92 12q-19 0 -19 14.5z" />
<glyph unicode="X" horiz-adv-x="1421" d="M-10 8.5q0 14.5 16 14.5q39 0 78 10q45 12 81 48t89 118l371 585l-328 551q-80 135 -160 164q-45 14 -86 14q-18 0 -18 14.5t34.5 14.5t135 -3t104.5 -3q2 0 77 3t116 3q35 0 35 -14.5t-19 -14.5q-39 0 -55 -6q-25 -8 -25 -34q0 -31 21 -68q141 -266 276 -490 q47 66 167 257.5t134 224.5q20 43 21 73q0 27 -35 37q-20 6 -62 6q-18 0 -18 14.5t35 14.5q47 0 113.5 -3t68.5 -3t66.5 3t105.5 3q33 0 33 -14.5t-23 -14.5q-39 0 -67 -10q-29 -8 -56.5 -34.5t-45 -50t-56.5 -81.5l-330 -495q8 -14 114 -191.5t203 -338t116 -185.5 q55 -72 120 -92q43 -12 72 -12q16 0 16 -13q0 -16 -28 -16q-119 0 -328 4q-63 4 -63 16q0 14 12 17q10 4 15 17t-5 40q-131 240 -352 610l-320 -542q-27 -47 -26 -90q0 -31 32 -39q25 -4 39 -4q16 0 16.5 -14.5t-24.5 -14.5q-29 0 -109.5 3t-86.5 3q-4 0 -76 -3t-111 -3 q-20 0 -20 14.5z" />
<glyph unicode="Y" horiz-adv-x="1339" d="M-63 1527.5q0 14.5 26 14.5q23 0 112 -3t91 -3q4 0 30.5 2t66.5 3t75 1q27 0 27 -14q0 -4 -31 -19q-27 -14 -27 -36q0 -31 27 -80q27 -47 188.5 -326t188.5 -322q25 55 159 290t181 313q35 55 34.5 104t-32.5 57q-31 10 -31 21q0 12 33 12q31 0 81 -3t54 -3q2 0 89 3 t110 3q27 0 26 -12q0 -16 -26 -17q-49 0 -95 -28q-45 -27 -108 -105q-49 -59 -206 -321t-185 -330q-31 -74 -31 -205v-176q0 -119 6 -205q6 -102 84 -112q57 -8 92 -8q16 0 17 -13q0 -16 -33 -16q-49 0 -109.5 1t-100.5 3t-42 2t-40 -2t-86 -3t-75 -1q-33 0 -33 16 q0 12 17 13q25 0 61 8q57 12 64 112q6 86 6 205v176q0 111 -47 215q-10 25 -158.5 268.5t-202.5 321.5q-72 106 -139 152q-49 33 -88 32q-20 0 -20 14.5z" />
<glyph unicode="Z" horiz-adv-x="1417" d="M150 16q0 14 28 58q668 1008 899 1384h-444q-217 0 -295 -41q-51 -27 -81 -74t-36 -88q-4 -37 -22 -36q-12 0 -12.5 26.5t40.5 272.5q6 39 21 38q6 0 29.5 -6t56.5 -8q145 -6 356 -6h572q41 0 41 -16q0 -12 -9 -25q-340 -539 -917 -1413h557q150 0 218.5 24.5t104.5 75.5 q31 45 41 111q6 33 19 33q16 0 16 -47q0 -66 -41 -236q-10 -37 -18 -45t-43 -8q-170 0 -516 5t-529 5q-36 0 -36 16z" />
<glyph unicode="[" horiz-adv-x="737" d="M199 -119v1718q0 16 6 21.5t28 5.5h349q25 0 24.5 -14.5t-35.5 -16.5q-164 -16 -223 -43q-14 -59 -14 -190v-1249q0 -131 14 -191q57 -27 221 -43q35 -2 35 -16.5t-24 -14.5h-349q-23 0 -27.5 5t-4.5 28z" />
<glyph unicode="]" horiz-adv-x="737" d="M131 -137.5q0 14.5 35 16.5q164 16 223 43q14 59 14 191v1249q0 131 -14 190q-57 27 -221 43q-35 2 -35 16.5t25 14.5h348q23 0 28 -5t5 -28v-1718q0 -16 -6.5 -21.5t-28.5 -5.5h-348q-25 0 -25 14.5z" />
<glyph unicode="_" horiz-adv-x="1024" d="M0 -154h1024v-102h-1024v102z" />
<glyph unicode="`" horiz-adv-x="1865" d="M606 1855q0 10 23 17q94 27 123 39q27 10 32 10q4 0 8.5 -4t9.5 -12.5t13 -16.5q61 -61 201 -149q39 -27 39 -29q0 -10 -19 -10q-49 0 -370 121q-60 22 -60 34z" />
<glyph unicode="a" d="M-55 10q0 12 18 13q27 0 60 4q66 8 102.5 56t69.5 136l464 1272q29 80 45.5 80t45.5 -74q8 -20 103 -270t206.5 -539t167.5 -426q82 -201 176 -227q37 -12 82 -12q20 0 20 -13q0 -16 -41 -16q-180 0 -321 4q-61 4 -61.5 14.5t14.5 14.5q18 7 18 27q0 12 -6 28l-190 504 q-6 12 -19 12h-440q-14 0 -21 -16l-123 -363q-29 -80 -28 -137q0 -29 23.5 -44t54.5 -15h20q20 0 21 -13q0 -16 -31 -16q-29 0 -90.5 3t-69.5 3q-2 0 -88 -3t-143 -3q-39 0 -39 16zM475 686q-2 -5 -2 -8q0 -6 8 -6h391q12 0 9 14l-195 553q-7 24 -14.5 24t-16.5 -24z" />
<glyph unicode="b" horiz-adv-x="1406" d="M186 1526q0 16 33 16q41 0 96.5 -1t94.5 -3t41 -2q18 0 94 3t129 3q119 0 205 -32.5t127 -84t59 -98.5t18 -92q0 -78 -31.5 -150.5t-64.5 -111.5t-96 -107q135 -43 244.5 -155.5t109.5 -276.5q0 -180 -137 -313t-385 -133q-27 0 -147.5 6t-124.5 6q-2 0 -40 -2t-86.5 -3 t-74.5 -1q-33 0 -33 16q0 12 16 13q25 0 62 8q45 8 59 112q10 86 11 445v360q0 377 -5 443q-4 55 -21 80.5t-67 35.5q-25 6 -69 6q-17 1 -17 13zM528 686q0 -412 2 -442q4 -61 7.5 -83t17.5 -42.5t45 -34.5q63 -31 180 -31q47 0 93.5 13.5t92.5 44t74.5 91t28.5 142.5 q0 111 -46 223.5t-153 186.5q-70 47 -170 59q-27 4 -159 4q-12 0 -13 -14v-117zM528 903q0 -16 15 -22q49 -8 125 -9q90 0 122.5 9.5t63.5 44.5q74 84 74 207q0 143 -68.5 247.5t-208.5 104.5q-57 0 -98 -10q-25 -6 -25 -23v-549z" />
<glyph unicode="c" horiz-adv-x="1648" d="M131 793q0 129 53.5 282.5t175.5 276.5q219 219 625 219q164 0 297 -25q145 -27 209 -30q27 -2 27 -23q0 -6 -2.5 -19.5t-4.5 -39t-4 -56.5q-2 -37 -4 -117.5t-2 -93.5q-2 -43 -18.5 -43t-16.5 43q0 135 -86 209q-57 49 -168.5 83t-240.5 34q-317 0 -471 -150 q-104 -100 -144.5 -230t-40.5 -304q0 -303 210 -526.5t530 -223.5q256 0 356 103q57 59 76 172q6 31 20.5 31t14.5 -31q0 -16 -15.5 -116.5t-29.5 -145.5q-8 -29 -16.5 -38t-37.5 -22q-117 -47 -368 -47q-430 0 -676 221q-248 224 -248 607z" />
<glyph unicode="d" horiz-adv-x="1878" d="M186 1526q0 16 33 16q41 0 96.5 -1t94.5 -3t41 -2l102 4q100 2 174 2h39q90 0 143.5 -1t153.5 -13t174 -35t160 -70t151 -114q199 -207 199 -521q0 -344 -221 -577q-225 -236 -621 -236q-78 0 -186.5 6.5t-186 12.5t-81.5 6q-2 0 -40 -2t-86.5 -3t-74.5 -1q-33 0 -33 16 q0 12 16 13q25 0 62 8q45 8 59 112q10 86 11 445v360q0 377 -5 443q-4 55 -21 80.5t-67 35.5q-25 6 -69 6q-17 1 -17 13zM537 727q0 -367 4 -444q6 -131 22 -156q55 -82 348 -82q297 0 488 191q78 76 121 210t43 279q0 309 -197 516q-131 139 -292 185.5t-378 46.5 q-104 0 -133 -15q-25 -10 -24 -41q-2 -70 -2 -436v-254z" />
<glyph unicode="e" horiz-adv-x="1249" d="M186 1526q0 16 33 16q41 0 96.5 -1t94.5 -3t41 -2q422 0 469 2q59 4 88 10q4 0 13 5.5t15 5.5q8 0 8 -19q0 -6 -3 -17.5t-7 -33t-6 -45.5q0 -4 -4 -62.5t-6 -72.5q-4 -23 -14 -23q-16 0 -17 27q0 45 -12 73.5t-41 45t-105 24.5q-51 6 -280 6q-12 0 -12 -20v-565 q0 -20 12 -21q279 0 325 4q76 6 97 29q23 27 30 26q10 0 11 -16q0 -4 -3 -18.5t-7.5 -41t-6.5 -55.5q-8 -82 -8 -131q0 -39 -14.5 -39t-14.5 19q0 41 -8 67q-18 63 -106 72q-92 10 -293 10q-14 0 -14 -14v-180v-350q4 -106 46 -137t191 -31q143 0 197 22q72 31 92 148 q6 31 18.5 30.5t12.5 -30.5q0 -14 -10.5 -92t-16.5 -107q-10 -39 -28.5 -46t-82.5 -7q-135 0 -247.5 3t-176 6t-81.5 3h-13q-12 0 -31.5 -1t-37.5 -1q-82 -4 -119 -4q-33 0 -33 16q0 12 16 13q25 0 62 8q45 8 59 112q10 86 11 445v360q0 377 -5 443q-4 55 -21 80.5t-67 35.5 q-25 6 -69 6q-17 1 -17 13z" />
<glyph unicode="f" horiz-adv-x="1212" d="M186 1526q0 16 33 16q41 0 96.5 -1t94.5 -3t41 -2q457 0 503 2q78 4 90 8l15 7q10 5 14 6q12 0 12 -19q0 -6 -3 -17.5t-7 -33t-6 -45.5q0 -4 -4 -62.5t-6 -72.5q-4 -23 -17 -23q-14 0 -14 25q0 37 -18 78q-10 25 -47 44t-93 21l-315 6q-18 0 -18 -22v-566q0 -18 14 -18 l262 2q63 0 92 2q74 6 94 37q16 20 23 20q10 0 10 -16q0 -4 -3 -18.5t-7 -41t-6 -55.5q-8 -82 -8 -137q0 -39 -14.5 -39t-14.5 19q-6 53 -12 73q-23 63 -107 74q-51 6 -309 6q-14 0 -14 -18v-174q0 -358 10 -445q6 -51 21.5 -78.5t58.5 -33.5q57 -8 92 -8q16 0 16 -13 q0 -16 -33 -16q-49 0 -109.5 1t-100 3t-41.5 2t-40 -2t-86.5 -3t-74.5 -1q-33 0 -33 16q0 12 16 13q25 0 62 8q45 8 59 112q10 86 11 445v360q0 377 -5 443q-4 55 -21 80.5t-67 35.5q-25 6 -69 6q-17 1 -17 13z" />
<glyph unicode="g" horiz-adv-x="1765" d="M131 768q0 231 96.5 405.5t245.5 268.5q207 129 545 129q147 0 313 -35q70 -16 166 -20q25 -2 25 -19q0 -6 -3 -38t-7.5 -97.5t-4.5 -155.5q0 -43 -18 -43q-10 0 -14 31q-6 76 -43 135q-43 66 -170 116t-312 50q-266 0 -438 -135q-92 -74 -147.5 -210t-55.5 -310 q0 -190 71 -342t146 -226q225 -219 537 -219q160 0 233 43q41 23 41 72v348q0 125 -15 160t-77 51q-25 6 -69 6q-16 0 -17 12q0 16 33 17q41 0 96 -2t94 -3t41 -1t40 1t86 3t75 2q33 0 33 -17q0 -12 -17 -12q-14 0 -51 -6q-41 -8 -56 -34.5t-20 -82.5q-4 -66 -4 -213v-229 q0 -68 -4 -84t-22 -27q-174 -92 -434 -92q-424 0 -674 219q-102 88 -173 246t-71 338z" />
<glyph unicode="h" horiz-adv-x="1966" d="M186 1526q0 16 33 16q41 0 96.5 -1t94.5 -3t41 -2t39.5 2t86 3t74.5 1q33 0 33 -16q0 -12 -16 -13q-14 0 -52 -6q-41 -8 -56 -34.5t-19 -81.5q-4 -66 -4 -443v-43q0 -12 12 -12h868q12 0 13 12v43q0 377 -5 443q-4 55 -21.5 80.5t-66.5 35.5q-25 6 -69 6q-16 0 -17 13 q0 16 33 16q41 0 96.5 -1t94 -3t41 -2t40 2t86 3t74.5 1q33 0 33 -16q0 -12 -16 -13q-14 0 -52 -6q-41 -8 -56 -34.5t-19 -81.5q-4 -66 -4 -443v-360q0 -358 10 -445q6 -51 21.5 -78.5t58.5 -33.5q57 -8 92 -8q16 0 16 -13q0 -16 -33 -16q-49 0 -109.5 1t-100 3t-42 2 t-40 -2t-86 -3t-74.5 -1q-33 0 -33 16q0 12 16 13q25 0 62 8q45 8 59 112q10 86 11 445v215q0 12 -13 12h-868q-12 0 -12 -12v-215q0 -358 10 -445q6 -51 21.5 -78.5t58.5 -33.5q57 -8 92 -8q16 0 16 -13q0 -16 -33 -16q-49 0 -109.5 1t-100 3t-41.5 2t-40 -2t-86.5 -3 t-74.5 -1q-33 0 -33 16q0 12 16 13q25 0 62 8q45 8 59 112q10 86 11 445v360q0 377 -5 443q-4 55 -21 80.5t-67 35.5q-25 6 -69 6q-17 1 -17 13z" />
<glyph unicode="i" horiz-adv-x="901" d="M211 1526q0 16 33 16q31 0 80 -1t87 -3t40 -2t39.5 2t86 3t74.5 1q33 0 33 -16q0 -12 -16 -13q-14 0 -52 -6q-41 -8 -56 -34.5t-19 -81.5q-4 -66 -4 -443v-360q0 -358 10 -445q6 -51 21.5 -78.5t58.5 -33.5q57 -8 92 -8q16 0 16 -13q0 -16 -33 -16q-49 0 -109.5 1t-100 3 t-41.5 2t-40 -2t-86.5 -3t-74.5 -1q-33 0 -33 16q0 12 16 13q25 0 62 8q45 8 59 112q10 86 11 445v360q0 377 -5 443q-6 100 -69 114q-31 8 -64 8q-16 1 -16 13z" />
<glyph unicode="j" horiz-adv-x="847" d="M68 -504q0 12 28 31q35 20 72 57q76 76 112.5 144.5t60.5 220t24 407.5v592q0 377 -5 443q-4 55 -21 80.5t-67 35.5q-25 6 -69 6q-16 0 -17 13q0 16 33 16q41 0 96.5 -1t94.5 -3t41 -2t39.5 2t86 3t74.5 1q33 0 33 -16q0 -12 -16 -13q-14 0 -52 -6q-41 -8 -56 -34.5 t-19 -81.5q-4 -66 -4 -443v-491q0 -281 -9.5 -392.5t-52.5 -211.5q-63 -150 -299 -314q-59 -41 -80 -51q-8 -4 -14 -4q-14 0 -14 12z" />
<glyph unicode="k" horiz-adv-x="1540" d="M186 1526q0 16 33 16q41 0 94.5 -1t91 -3t39.5 -2q4 0 83 3t116 3q33 0 33 -16q0 -12 -17 -13q-14 0 -51 -6q-41 -8 -56 -34.5t-20 -81.5q-4 -66 -4 -443v-123h9q16 18 228 235.5t251 260.5q111 115 110.5 147.5t-26.5 42.5q-18 8 -19 17q0 14 25 14q20 0 73.5 -3 t80.5 -3l83 4q82 2 113 2t31 -14.5t-21 -14.5q-51 0 -114 -28q-20 -8 -40 -20.5t-33 -21.5t-35.5 -28.5t-33 -29t-39 -37t-41.5 -39.5q-381 -367 -450 -449q45 -51 275.5 -287.5t287.5 -289.5q139 -129 187.5 -167t117.5 -67q63 -27 127 -26q27 0 27 -13q0 -16 -45 -16h-105 q-96 0 -141 4q-51 4 -96 24.5t-67.5 37t-84.5 63.5q-66 53 -305.5 310t-318.5 355h-11v-200q0 -358 11 -445q6 -51 21 -78.5t58 -33.5q57 -8 80 -8q16 0 17 -13q0 -16 -33 -16q-45 0 -99.5 1t-93 3t-43.5 2q-2 0 -80.5 -3t-115.5 -3q-33 0 -33 16q0 12 16 13q25 0 62 8 q45 8 59 112q10 86 11 445v360q0 377 -5 443q-4 55 -21 80.5t-67 35.5q-25 6 -69 6q-17 1 -17 13z" />
<glyph unicode="l" horiz-adv-x="1212" d="M186 1526q0 16 33 16q41 0 96.5 -1t94.5 -3t41 -2t45 2t96 3t80 1q33 0 33 -16q0 -12 -17 -13q-31 0 -67 -6q-43 -8 -59.5 -34.5t-20.5 -81.5q-4 -66 -4 -443v-364q0 -236 9 -339.5t36 -129.5q47 -47 245 -47q100 0 157.5 10t90.5 51q43 51 53 123q4 27 19 27 q12 0 12 -31q0 -94 -31 -205q-10 -37 -30.5 -46t-98.5 -9q-170 0 -341 6t-207 6h-29q-31 -2 -55 -2q-82 -4 -117 -4q-33 0 -33 16q0 12 16 13q25 0 62 8q45 8 59 112q10 86 11 445v360q0 377 -5 443q-4 55 -21 80.5t-67 35.5q-25 6 -69 6q-17 1 -17 13z" />
<glyph unicode="m" horiz-adv-x="2150" d="M102 12q0 10 21 11q31 0 61 6q25 4 40.5 18t23.5 44t11 47.5t7 60.5l148 1335q6 37 22.5 37t30.5 -31l627 -1288l602 1286q14 33 30 33q18 0 25 -55l137 -1258q20 -188 111 -217q59 -18 133 -18q16 0 16 -11q0 -18 -43 -18q-190 0 -342 12q-57 4 -57 21q0 12 14 14 q11 3 11 35q0 16 -2 39l-99 1056h-6l-502 -1065q-47 -100 -57 -106q-4 -2 -10 -2q-14 0 -64 94q-35 68 -239 475q-16 35 -136 291t-135 293h-8l-82 -950q-2 -33 -2 -105q0 -23 15.5 -41t37.5 -22q43 -10 78 -10q16 0 17 -11q0 -18 -37 -18q-45 0 -119 2l-72 4q-4 0 -71.5 -3 t-100.5 -3q-35 0 -35 18z" />
<glyph unicode="n" horiz-adv-x="1939" d="M135 10q0 12 17 13q47 0 84 12q37 10 49 63.5t12 196.5l2 1173q0 102 23 103q8 0 19 -10.5t29.5 -31t22.5 -24.5q76 -86 651 -702q106 -115 283.5 -309.5t208.5 -225.5l-23 1041q-2 102 -17 142t-62 52q-45 10 -101 10q-16 0 -16 14.5t41 14.5q55 0 133 -3t80 -3 q4 0 64.5 3t109.5 3q37 0 37 -14.5t-23 -14.5q-25 0 -49 -6q-49 -10 -62.5 -47t-13.5 -135l-4 -1200q0 -51 -1 -80t-3 -43t-5 -18t-9 -4q-18 0 -150 131q-12 12 -96 97t-212 218t-226 240q-287 309 -535 587l27 -981q2 -125 19.5 -175t60.5 -62q47 -12 102 -12q16 0 16 -13 q0 -16 -36 -16q-51 0 -101.5 1t-81 3t-34.5 2l-70 -4q-72 -2 -127 -2q-33 0 -33 16z" />
<glyph unicode="o" horiz-adv-x="1873" d="M131 770q0 131 48 266t141.5 257t255 200t362.5 78q352 0 578.5 -208t226.5 -560t-227.5 -595t-589.5 -243q-162 0 -297 48t-225.5 128t-154 186.5t-91 217t-27.5 225.5zM326 827q0 -352 186 -568t469 -216q63 0 130 15.5t147.5 61.5t142 119.5t103.5 204.5t42 301 q0 352 -182 554t-440 202q-266 0 -432 -174t-166 -500z" />
<glyph unicode="p" horiz-adv-x="1314" d="M186 1526q0 16 33 16q41 0 94.5 -1t93 -3t44.5 -2q16 0 110 3t148 3q256 0 381 -117q102 -98 102 -243q0 -217 -142.5 -352.5t-361.5 -135.5q-33 0 -43 2q-23 0 -22 15q0 18 55 18q150 0 252 96.5t102 237.5q0 199 -114 315q-100 102 -281 103q-59 0 -88 -13 q-16 -6 -17 -38v-842q0 -358 11 -445q6 -51 21.5 -78.5t58.5 -33.5q57 -8 92 -8q16 0 16 -13q0 -16 -33 -16q-49 0 -109.5 1t-100 3t-42.5 2l-36 -2q-37 -2 -85.5 -3t-74.5 -1q-33 0 -33 16q0 12 16 13q25 0 62 8q45 8 59 112q10 86 11 445v360q0 377 -5 443q-4 55 -21 80.5 t-67 35.5q-25 6 -69 6q-17 1 -17 13z" />
<glyph unicode="q" horiz-adv-x="1884" d="M131 770q0 131 48 266t141.5 257t255 200t362.5 78q352 0 578.5 -209t226.5 -559q0 -127 -37 -245t-95.5 -203t-115.5 -144t-115 -96l420 -217q469 -242 862 -242q207 0 404 80q25 8 29 8q12 0 12 -12.5t-17 -20.5q-309 -141 -649 -141q-344 0 -844 274l-344 191 q-55 -29 -147 -49.5t-174 -20.5q-203 0 -362.5 73t-252 192.5t-139.5 257t-47 282.5zM326 827q0 -352 186 -568t469 -216q63 0 130 15.5t147.5 61.5t142 119.5t103.5 204.5t42 301q0 352 -182 554t-440 202q-266 0 -432 -174t-166 -500z" />
<glyph unicode="r" horiz-adv-x="1544" d="M186 1526q0 16 33 16q41 0 96.5 -1t94.5 -3t41 -2q6 0 105 3t136 3q250 0 375 -90q51 -37 96 -110.5t45 -167.5q0 -244 -247 -474q326 -418 425 -524q121 -127 250 -147q39 -6 80 -6q18 0 19 -13q0 -16 -49 -16h-146q-147 0 -219 39q-41 23 -91 74t-75 82.5t-111 144.5 q-47 63 -126.5 172.5t-96.5 130.5q-12 12 -26 12l-252 4q-14 0 -15 -16v-49q0 -358 11 -445q6 -51 21 -78.5t58 -33.5q57 -8 93 -8q16 0 16 -13q0 -16 -33 -16q-49 0 -109.5 1t-100.5 3t-42 2h-14q-14 -2 -36.5 -2t-47.5 -1t-51.5 -2t-42.5 -1q-33 0 -33 16q0 12 16 13 q25 0 62 8q45 8 59 112q10 86 11 445v360q0 377 -5 443q-4 55 -21 80.5t-67 35.5q-25 6 -69 6q-17 1 -17 13zM528 770q0 -16 15 -25q55 -33 215 -32q98 0 153 39q125 86 125 315q0 193 -95 301.5t-259 108.5q-96 0 -137 -13q-16 -6 -17 -24v-670z" />
<glyph unicode="s" horiz-adv-x="1167" d="M203 98q0 53 10 217q2 33 16.5 33t14.5 -22q0 -47 6 -76q23 -106 106.5 -157.5t196.5 -51.5q139 0 216 82t77 190q0 104 -50.5 180t-185.5 189l-92 76q-154 125 -210 227t-56 217q0 166 114.5 267.5t309.5 101.5q104 0 190 -21q49 -10 72 -10q20 0 20 -14l-2 -27 q-2 -27 -4 -78t-2 -112q0 -47 -14 -47q-12 0 -16 26q-6 63 -27 103q-59 109 -256 108q-109 0 -180.5 -64.5t-71.5 -172.5q0 -86 51 -155t199 -189l57 -46q174 -137 236.5 -243.5t62.5 -237.5q0 -82 -40 -177t-134 -163q-123 -86 -309 -86q-162 0 -275 55q-20 10 -25 22.5 t-5 55.5z" />
<glyph unicode="t" horiz-adv-x="1415" d="M51 1319q0 33 45 213q12 39 21 39q4 0 30.5 -11.5t59.5 -13.5q98 -10 162 -10h768q63 0 145 10q51 10 57 10q10 0 11 -24q0 -35 -3.5 -127t-3.5 -98q0 -27 -14 -27t-16 35l-2 22q-6 51 -60.5 81t-191.5 32l-258 4v-866q0 -358 10 -445q6 -51 21.5 -78.5t58.5 -33.5 q57 -8 92 -8q16 0 16 -13q0 -16 -32 -16q-49 0 -109.5 1t-100.5 3t-42 2t-40 -2t-86 -3t-75 -1q-33 0 -33 16q0 12 17 13q25 0 61 8q45 8 59 112q10 86 11 445v866l-303 -4q-96 -2 -140.5 -15.5t-68.5 -50.5q-23 -35 -35 -63q-8 -20 -21 -21q-10 1 -10 19z" />
<glyph unicode="u" horiz-adv-x="1699" d="M68 1526q0 16 32 16q55 0 146 -2l90 -4q4 0 85 3t118 3q33 0 32 -16q0 -12 -16 -13q-14 0 -51 -6q-39 -6 -55.5 -32.5t-20.5 -83.5q-4 -66 -4 -443v-286q0 -205 40 -321t114 -185q70 -66 141.5 -89.5t167.5 -23.5q92 0 179 40t142 107q119 147 119 502v256q0 377 -4 443 q-4 55 -21.5 80.5t-66.5 35.5q-25 6 -70 6q-16 0 -16 13q0 16 33 16q41 0 92 -1t87 -3t38 -2t68.5 3t103.5 3q33 0 33 -16q0 -12 -17 -13q-27 0 -51 -6q-41 -8 -56.5 -34.5t-19.5 -81.5q-4 -66 -4 -443v-219q0 -203 -39 -358.5t-149 -253.5q-170 -152 -422 -152 q-268 0 -422 146q-178 170 -178 538v299q0 377 -4 443q-4 55 -21.5 80.5t-66.5 35.5q-25 6 -70 6q-16 1 -16 13z" />
<glyph unicode="v" horiz-adv-x="1519" d="M-53 1527.5q0 14.5 53 14.5q57 0 147.5 -3t92.5 -3t73.5 3t116.5 3q55 0 55 -14.5t-20 -14.5q-55 0 -78 -10q-27 -12 -27 -41q0 -27 56 -170l393 -1048q88 203 245.5 613.5t192.5 522.5q18 55 19 78q0 33 -27 47q-25 8 -78 8q-23 0 -22 13q0 16 45 16q49 0 122.5 -3 t77.5 -3l62 4q63 2 98 2t35 -14.5t-25 -14.5q-59 0 -98 -24q-49 -35 -113 -193q-14 -35 -229 -555q-219 -524 -264 -620q-8 -18 -17.5 -38t-14.5 -32t-11 -25.5t-10 -20.5t-9 -15l-6 -13q-2 -4 -5 -7t-6 -4t-7 -1q-16 0 -28.5 22.5t-45.5 104.5l-502 1256 q-33 82 -61.5 111.5t-85.5 45.5q-31 8 -78 8q-16 0 -16 14.5z" />
<glyph unicode="w" horiz-adv-x="2252" d="M-23 1527.5q0 14.5 33 14.5q63 0 154 -2l88 -4q6 0 38 2t80 3t93 1q37 0 37 -14.5t-21 -14.5q-55 0 -80 -12q-27 -14 -26 -49q0 -16 39 -188q29 -125 274 -992h4l434 1168q35 94 51.5 94t51.5 -96l407 -1162h8q10 39 141.5 465t174.5 580q23 84 22 131q0 61 -116 61 q-18 0 -18.5 14.5t34.5 14.5q45 0 93 -1t79 -3t37 -2l63 4q63 2 103 2q29 0 29 -12q0 -16 -19 -17q-41 0 -70 -10q-41 -14 -69.5 -66.5t-63.5 -154.5q-45 -131 -191.5 -579.5t-184.5 -561.5q-41 -117 -55.5 -146.5t-31.5 -29.5q-14 0 -26 21.5t-35 85.5l-401 1138h-4 q-371 -989 -428 -1136q-27 -68 -38.5 -88.5t-29.5 -20.5q-16 0 -28.5 29t-43.5 133l-364 1214q-25 80 -48.5 112t-64.5 48q-33 12 -92 12q-19 0 -19 14.5z" />
<glyph unicode="x" horiz-adv-x="1421" d="M-10 8.5q0 14.5 16 14.5q39 0 78 10q45 12 81 48t89 118l371 585l-328 551q-80 135 -160 164q-45 14 -86 14q-18 0 -18 14.5t34.5 14.5t135 -3t104.5 -3q2 0 77 3t116 3q35 0 35 -14.5t-19 -14.5q-39 0 -55 -6q-25 -8 -25 -34q0 -31 21 -68q141 -266 276 -490 q47 66 167 257.5t134 224.5q20 43 21 73q0 27 -35 37q-20 6 -62 6q-18 0 -18 14.5t35 14.5q47 0 113.5 -3t68.5 -3t66.5 3t105.5 3q33 0 33 -14.5t-23 -14.5q-39 0 -67 -10q-29 -8 -56.5 -34.5t-45 -50t-56.5 -81.5l-330 -495q8 -14 114 -191.5t203 -338t116 -185.5 q55 -72 120 -92q43 -12 72 -12q16 0 16 -13q0 -16 -28 -16q-119 0 -328 4q-63 4 -63 16q0 14 12 17q10 4 15 17t-5 40q-131 240 -352 610l-320 -542q-27 -47 -26 -90q0 -31 32 -39q25 -4 39 -4q16 0 16.5 -14.5t-24.5 -14.5q-29 0 -109.5 3t-86.5 3q-4 0 -76 -3t-111 -3 q-20 0 -20 14.5z" />
<glyph unicode="y" horiz-adv-x="1339" d="M-63 1527.5q0 14.5 26 14.5q23 0 112 -3t91 -3q4 0 30.5 2t66.5 3t75 1q27 0 27 -14q0 -4 -31 -19q-27 -14 -27 -36q0 -31 27 -80q27 -47 188.5 -326t188.5 -322q25 55 159 290t181 313q35 55 34.5 104t-32.5 57q-31 10 -31 21q0 12 33 12q31 0 81 -3t54 -3q2 0 89 3 t110 3q27 0 26 -12q0 -16 -26 -17q-49 0 -95 -28q-45 -27 -108 -105q-49 -59 -206 -321t-185 -330q-31 -74 -31 -205v-176q0 -119 6 -205q6 -102 84 -112q57 -8 92 -8q16 0 17 -13q0 -16 -33 -16q-49 0 -109.5 1t-100.5 3t-42 2t-40 -2t-86 -3t-75 -1q-33 0 -33 16 q0 12 17 13q25 0 61 8q57 12 64 112q6 86 6 205v176q0 111 -47 215q-10 25 -158.5 268.5t-202.5 321.5q-72 106 -139 152q-49 33 -88 32q-20 0 -20 14.5z" />
<glyph unicode="z" horiz-adv-x="1417" d="M150 16q0 14 28 58q668 1008 899 1384h-444q-217 0 -295 -41q-51 -27 -81 -74t-36 -88q-4 -37 -22 -36q-12 0 -12.5 26.5t40.5 272.5q6 39 21 38q6 0 29.5 -6t56.5 -8q145 -6 356 -6h572q41 0 41 -16q0 -12 -9 -25q-340 -539 -917 -1413h557q150 0 218.5 24.5t104.5 75.5 q31 45 41 111q6 33 19 33q16 0 16 -47q0 -66 -41 -236q-10 -37 -18 -45t-43 -8q-170 0 -516 5t-529 5q-36 0 -36 16z" />
<glyph unicode="{" horiz-adv-x="737" d="M115 805q0 16 24 18q86 4 114 27.5t28 112.5q0 41 -10.5 119.5t-10.5 99.5q0 143 33 221t98 139q43 39 99.5 61.5t93.5 22.5q27 0 26 -10q0 -8 -32 -19q-55 -16 -109.5 -78.5t-54.5 -177.5v-98v-89q0 -26 -1 -65.5t-5.5 -65.5t-10.5 -50q-12 -51 -50 -97.5t-73 -58.5 q86 -45 119 -162q20 -76 21 -307q0 -399 153 -463q45 -16 45 -26.5t-37 -10.5q-39 0 -99 34t-111 104q-49 68 -77 169t-28 298q0 31 7 107.5t7 111.5q0 43 -14 65.5t-39.5 31.5t-81.5 19q-24 5 -24 17z" />
<glyph unicode="}" horiz-adv-x="737" d="M125 -143q0 12 45 28q154 53 154 463v59v53v43q0 28 2 42t4 35.5t5 39t9 35.5q33 117 119 162q-35 12 -73 58.5t-50 97.5q-6 25 -10 50.5t-5 65t-1 65.5v89v98q0 115 -54.5 177.5t-109.5 78.5q-33 10 -33 17q0 12 27 12q37 0 93 -22.5t99 -61.5q66 -61 98.5 -139 t32.5 -221q0 -23 -10 -104t-10 -141t22 -81q14 -12 32.5 -20.5t28 -9.5t33.5 -3h25q25 -2 25 -18q0 -12 -25 -17q-39 -6 -54.5 -10t-36 -14t-30.5 -27q-14 -25 -14 -73t7 -115.5t7 -95.5q0 -197 -27.5 -298.5t-76.5 -168.5q-51 -70 -111.5 -104t-99.5 -34q-37 1 -37 9z" />
<glyph unicode="&#xa1;" horiz-adv-x="655" d="M221 -14q0 4 5 39.5t13.5 100t12.5 130.5q0 6 11 227.5t22.5 435.5t13.5 236q4 66 25 66q14 0 20 -21.5t10 -85.5q2 -31 16.5 -279.5t16.5 -265.5q0 -43 10.5 -194.5t20.5 -192.5q8 -33 8 -39q0 -12 -10 -28q-53 -90 -152 -140q-20 -10 -31 -10q-12 1 -12 21zM225 1460 q0 47 30 79t77 32q49 0 75.5 -32t26.5 -73q0 -39 -26.5 -71.5t-77.5 -32.5q-45 0 -75 27.5t-30 70.5z" />
<glyph unicode="&#xa2;" horiz-adv-x="1142" d="M117 780q0 131 50 230.5t109 150.5q147 127 398 137l22 205q2 14 21 19l41 8q10 2 16 -1t4 -11l-26 -222q145 0 282 -51q14 -8 15 -28q0 -102 -13 -189q-2 -25 -16 -24q-10 0 -10 24q-8 74 -41 115q-23 27 -85.5 51.5t-146.5 28.5l-92 -889q70 -4 100 -4 q119 0 182.5 32.5t84.5 124.5q6 31 18 31t12 -24q0 -14 -10 -88t-16 -101q-6 -29 -27 -35q-123 -33 -272 -32q-57 0 -88 2l-29 -277q-2 -18 -18 -22l-47 -11q-12 -2 -16.5 1t-2.5 12l37 311q-193 35 -314.5 173t-121.5 353zM268 836q0 -199 87 -317t212 -163l92 869 q-178 0 -284.5 -110.5t-106.5 -278.5z" />
<glyph unicode="&#xa3;" horiz-adv-x="1218" d="M-16 20q0 25 41 35q74 14 125 54.5t79.5 108t44 133t27.5 165.5l27 215h-154q-14 0 -27.5 -2t-15.5 -2q-14 0 -6 18l25 43q6 16 28 17h162l20 143q47 362 213 508q131 115 310 115q104 0 178 -25q45 -10 55 -10q14 -2 14 -25q0 -172 -10 -233q-4 -25 -16 -25 q-16 0 -17 31q0 72 -49 137q-59 78 -202 78q-121 0 -200 -100.5t-104 -284.5l-36 -309h223q25 0 46 3t34.5 5t15.5 2q18 0 10 -20l-22 -50q-8 -16 -33 -16h-287l-10 -86q-47 -369 -227 -524l4 -4l639 6q86 2 131 40t59 128q2 20 16.5 20t14.5 -30q0 -20 -12.5 -109.5 t-22.5 -138.5q-4 -27 -22.5 -34t-102.5 -7q-74 0 -208 5t-222 5h-477q-59 0 -59 20z" />
<glyph unicode="&#xa5;" horiz-adv-x="1300" d="M-45 1526q0 16 20 16q23 0 108 -3t87 -3q4 0 28.5 2t62.5 3t73 1q25 0 24 -16q0 -10 -28 -19q-27 -6 -27 -37q0 -33 27 -77q35 -68 177 -317t171 -292q23 37 157 285t152 281q37 61 37 108q0 33 -33 47q-31 12 -30 23q0 14 32 14q31 0 78 -3t49 -3t86 3t105 3 q25 0 24 -14q0 -16 -24 -17q-45 0 -88 -24q-45 -20 -107 -105q-29 -37 -107.5 -174t-171 -303t-112.5 -200h332q25 0 16 -19l-12 -47q-4 -12 -29 -12h-311v-289q0 -156 2 -201q2 -49 22.5 -73.5t71.5 -32.5q43 -6 92 -6q16 0 17 -17q0 -14 -33 -14q-31 0 -66.5 1t-65.5 2 t-55.5 1t-41 1t-17.5 1t-41 -2t-98 -3t-107 -1q-33 0 -32 14q0 16 14 17q51 0 94 6q51 8 71.5 32.5t22.5 73.5q2 45 2 201v289h-331q-18 0 -13 22l15 43q4 12 22 13h303q-35 51 -176 288.5t-200 339.5q-66 111 -127 152q-39 27 -91 26q-20 1 -20 15z" />
<glyph unicode="&#xa8;" horiz-adv-x="1865" d="M639 1788q0 33 22.5 60.5t65.5 27.5q39 0 63.5 -22.5t24.5 -59.5q0 -41 -24.5 -67.5t-65.5 -26.5q-43 0 -64.5 26.5t-21.5 61.5zM1051 1788q0 33 22.5 60.5t65.5 27.5q39 0 63.5 -22.5t24.5 -59.5q0 -41 -24.5 -67.5t-65.5 -26.5q-43 0 -64.5 26.5t-21.5 61.5z" />
<glyph unicode="&#xa9;" horiz-adv-x="1855" d="M127 766q0 334 234.5 569.5t568.5 235.5q330 0 564.5 -235.5t234.5 -569.5q0 -332 -233.5 -566.5t-565.5 -234.5q-334 0 -568.5 233.5t-234.5 567.5zM238 768q-4 -295 197.5 -506t494.5 -211q291 2 489.5 212t198.5 505q0 297 -198.5 507t-489.5 210q-293 0 -494.5 -211 t-197.5 -506zM465 786q0 199 139 332q119 117 346 117q72 0 168 -16q14 -2 44 -8.5t53.5 -11.5t25.5 -5q4 0 12.5 1t10.5 1q4 0 4 -10q0 -131 -13 -193q-2 -16 -14 -16q-14 0 -14 22q-4 72 -33 103q-10 12 -35.5 26.5t-88 30t-138.5 15.5q-162 0 -249 -89.5t-87 -250.5 q0 -209 116.5 -329t278.5 -120q141 0 193 51q29 27 47 103q6 20 18.5 20t12.5 -18q0 -55 -21 -146q-8 -35 -14 -43t-31 -14q-90 -25 -219 -25q-227 0 -369.5 129t-142.5 344z" />
<glyph unicode="&#xaa;" horiz-adv-x="819" d="M-20 846q0 8 10 8q23 0 33 2q59 4 92 86l260 604q10 25 26 25q12 0 29 -35q2 -4 55.5 -125t115 -254t93.5 -196q51 -92 88 -103q16 -4 45 -4q10 0 11 -8q0 -10 -23 -10q-98 0 -201 4q-35 0 -34.5 6t8.5 10q14 4 8 21l-82 184q-6 8 -12 8h-246q-6 0 -10 -10l-45 -123 q-12 -37 -13 -53q0 -12 9.5 -20.5t19.5 -8.5h10q12 0 13 -8q0 -10 -19 -10q-14 0 -49 2t-43 2q-6 0 -52 -2t-77 -2q-20 0 -20 10zM276 1139q-4 -8 5 -9h192q10 0 6 9l-94 229q-10 25 -20 0z" />
<glyph unicode="&#xab;" horiz-adv-x="1146" d="M154 819q0 12 39 45q57 49 364 357q27 23 37 22q18 0 18 -16q0 -14 -12 -27q-2 -2 -29.5 -34.5t-66.5 -78l-81 -94.5t-79 -95t-53 -69q29 -35 126 -134t165 -158q29 -27 28 -31q0 -6 -8 -14l-61 -68q-6 -10 -17 -10q-8 0 -47 45q-188 213 -287 311q-36 37 -36 49z M537 819q0 12 38 45q57 49 365 357q27 23 37 22q18 0 18 -16q0 -14 -12 -27q-2 -2 -29.5 -34.5t-66.5 -78l-81 -94.5t-79 -95t-53 -69q29 -35 126 -134t165 -158q29 -27 28 -31q0 -6 -8 -14l-61 -68q-6 -10 -17 -10q-8 0 -47 45q-188 213 -287 311q-36 37 -36 49z" />
<glyph unicode="&#xad;" horiz-adv-x="798" d="M74 709l30 114q4 16 46 17h516q61 0 61 -21q0 -27 -72 -35q-8 -2 -227 -33.5t-260 -41.5q-16 -4 -35.5 -12.5t-32 -13.5t-16.5 -5q-20 0 -10 31z" />
<glyph unicode="&#xae;" horiz-adv-x="1855" d="M127 766q2 336 236.5 570.5t566.5 234.5t565.5 -234.5t233.5 -570.5q0 -332 -234.5 -566.5t-566.5 -234.5q-330 0 -564.5 234.5t-236.5 566.5zM238 768q-4 -293 198.5 -505t497.5 -212q285 0 485.5 212t198.5 505q2 295 -198.5 506t-489.5 211q-293 0 -494.5 -210 t-197.5 -507zM575 1208q0 12 25 13h35q8 0 60.5 -2t54.5 -2q16 0 59 2t82 2q164 0 229 -50q80 -61 80 -161q0 -127 -143 -269q37 -45 88 -112.5t88 -115.5t67 -79q76 -76 125 -76q20 0 21 -16q0 -12 -25 -12h-28q-100 0 -144 22q-53 29 -159 172q-35 45 -125 178h-164v-100 q0 -205 18 -227q12 -14 78 -15q18 0 21 -14q-4 -16 -23 -16h-39q-8 0 -56 2t-50 2t-54.5 -2t-62.5 -2h-37q-18 0 -18 14t22 14q55 2 70.5 12.5t17.5 51.5q4 43 4 250v207q0 223 -2 249q-2 35 -24.5 48.5t-71.5 15.5q-19 0 -19 16zM801 772q39 -23 127 -22q51 0 82 22 q74 51 73 176q0 98 -54 160.5t-150 62.5q-61 0 -78 -8v-391z" />
<glyph unicode="&#xaf;" horiz-adv-x="1865" d="M664 1780l16 51q2 12 22 12h482q25 0 16 -20l-16 -45q-4 -12 -19 -13h-481q-12 0 -17 3.5t-3 11.5z" />
<glyph unicode="&#xb2;" horiz-adv-x="909" d="M106 641q0 8 25 33q113 90 167 137t138 135t122 171t38 169q0 121 -61.5 176.5t-137.5 55.5q-90 0 -143 -56q-45 -49 -45 -112q0 -23 -16 -23q-8 0 -13 23q-8 41 -8 141q0 20 14 29q106 51 236 51q145 0 227 -72t82 -172q0 -86 -39 -172t-116.5 -169t-140 -138 t-159.5 -131q-2 -4 7 -8h67q145 0 236 8q74 6 106.5 29.5t48.5 74.5q8 20 18.5 20.5t10.5 -18t-15.5 -77t-31.5 -87.5q-18 -35 -76 -34h-518q-23 0 -23 16z" />
<glyph unicode="&#xb3;" horiz-adv-x="845" d="M121 698q0 92 6 131q2 18 12.5 18.5t12.5 -16.5q16 -154 210 -153q96 0 159 59.5t63 163.5q0 94 -74 149.5t-168 65.5q-41 6 -41 19q0 16 37 22q61 8 133 65.5t72 143.5q0 49 -42 100.5t-136 51.5q-72 0 -125.5 -39t-53.5 -95q0 -27 -10 -26q-12 0 -14 22q-12 74 -12 121 q0 23 18 31q90 39 231 39q145 0 207 -56.5t62 -117.5q0 -80 -63.5 -138.5t-127.5 -84.5v-5q80 -12 162 -73.5t82 -161.5q0 -129 -116 -223.5t-281 -94.5q-133 0 -181 27q-16 8 -19 17t-3 38z" />
<glyph unicode="&#xb4;" horiz-adv-x="1865" d="M823 1712q0 8 15 17q121 84 278 174q45 27 58 26q8 0 20 -18q8 -10 51 -90q14 -25 -8 -25h-61q-143 -14 -312 -86q-25 -10 -30 -10q-11 0 -11 12z" />
<glyph unicode="&#xb5;" horiz-adv-x="2150" d="M102 12q0 10 21 11q31 0 61 6q25 4 40.5 18t23.5 44t11 47.5t7 60.5l148 1335q6 37 22.5 37t30.5 -31l627 -1288l602 1286q14 33 30 33q18 0 25 -55l137 -1258q20 -188 111 -217q59 -18 133 -18q16 0 16 -11q0 -18 -43 -18q-190 0 -342 12q-57 4 -57 21q0 12 14 14 q16 4 9 74l-99 1056h-6l-502 -1065q-47 -100 -57 -106q-4 -2 -10 -2q-14 0 -64 94q-35 68 -239 475q-16 35 -136 291t-135 293h-8l-82 -950q-2 -33 -2 -105q0 -23 15.5 -41t37.5 -22q43 -10 78 -10q16 0 17 -11q0 -18 -37 -18q-45 0 -119 2l-72 4q-4 0 -71.5 -3t-100.5 -3 q-35 0 -35 18z" />
<glyph unicode="&#xb7;" horiz-adv-x="512" d="M143 793q0 41 29 76.5t84 35.5q49 0 81 -28.5t32 -77.5q0 -51 -32 -85t-83 -34q-53 0 -82 35t-29 78z" />
<glyph unicode="&#xb8;" horiz-adv-x="1865" d="M768 -473q0 18 41 22q59 6 105.5 40t46.5 85q0 106 -148 150q-31 8 -31 18q0 8 27 29l158 129h82q-14 -8 -76 -65.5t-78 -73.5q205 -20 205 -146q0 -55 -43 -99t-103 -69q-82 -37 -159 -36q-27 0 -27 16z" />
<glyph unicode="&#xb9;" horiz-adv-x="675" d="M61 1352q0 8 7 14q4 4 148 93t151 93q23 18 36 19q12 0 13 -27q0 -2 -1 -18.5t-1 -44t-1 -64.5t-2 -90t-1 -108v-226q0 -215 6 -268q4 -29 15 -44t44 -22q41 -10 94 -10q18 0 19 -12q0 -16 -25 -16q-49 0 -100 1t-82 1l-33 2l-39 -2q-39 0 -95 -1t-101 -1q-25 0 -25 14 t16 14q70 0 117 10q35 6 46.5 21.5t15.5 44.5q6 53 6 268v226q0 135 -2 155q-2 12 -3 17.5t-6.5 10.5t-15.5 5q-29 0 -170 -61q-12 -6 -18 -7q-13 1 -13 13z" />
<glyph unicode="&#xba;" horiz-adv-x="894" d="M41 1200q0 141 107.5 256t300.5 115q180 0 293.5 -95.5t113.5 -259t-114.5 -275.5t-299.5 -112q-197 0 -299 108.5t-102 262.5zM186 1223q0 -143 84 -240.5t201 -97.5q35 0 69.5 12t76.5 42t68 94.5t26 156.5q0 150 -85 239t-196 89q-96 0 -170 -77t-74 -218z" />
<glyph unicode="&#xbb;" horiz-adv-x="1146" d="M152 430q0 14 12 27q2 2 29.5 34.5t66.5 77.5t81 94.5t79 95.5t53 68q-29 35 -126 134.5t-165 158.5q-29 27 -28 31q0 6 8 14l61 68q6 10 17 10q8 0 47 -45q188 -213 286 -311q37 -37 37 -49.5t-39 -44.5q-57 -49 -364 -357q-27 -23 -37 -22q-18 0 -18 16zM535 430 q0 14 12 27q2 2 29.5 34.5t66.5 77.5t81 94.5t79 95.5t53 68q-29 35 -126 134.5t-165 158.5q-29 27 -28 31q0 6 8 14l61 68q6 10 17 10q8 0 47 -45q188 -213 286 -311q37 -37 37 -49.5t-39 -44.5q-57 -49 -364 -357q-27 -23 -37 -22q-18 0 -18 16z" />
<glyph unicode="&#xbf;" horiz-adv-x="999" d="M123 285q0 70 15.5 127t53 114.5t72.5 99.5t101.5 117.5t109.5 128.5q84 106 84 164q0 51 -39 105q-18 25 -18 35q0 6 8 12t14 6q29 0 86 -72q59 -74 60 -121q0 -45 -45 -102q-25 -33 -73 -88t-69 -82q-104 -133 -142 -227t-38 -207q0 -94 57.5 -177t182.5 -83 q137 0 200 80q61 74 72 190q4 35 16 35q14 0 17 -21q8 -35 8 -239q0 -18 -22 -33q-137 -82 -340 -82q-186 0 -278.5 97.5t-92.5 222.5zM432 1460q0 47 30 79t77 32q49 0 75.5 -32t26.5 -73q0 -39 -26.5 -71.5t-77.5 -32.5q-45 0 -75 27.5t-30 70.5z" />
<glyph unicode="&#xc0;" d="M-55 10q0 12 18 13q27 0 60 4q66 8 102.5 56t69.5 136l464 1272q29 80 45.5 80t45.5 -74q8 -20 103 -270t206.5 -539t167.5 -426q82 -201 176 -227q37 -12 82 -12q20 0 20 -13q0 -16 -41 -16q-180 0 -321 4q-61 4 -61.5 14.5t14.5 14.5q29 10 12 55l-190 504 q-6 12 -19 12h-440q-14 0 -21 -16l-123 -363q-29 -80 -28 -137q0 -29 23.5 -44t54.5 -15h20q20 0 21 -13q0 -16 -31 -16q-29 0 -90.5 3t-69.5 3q-2 0 -88 -3t-143 -3q-39 0 -39 16zM391 1855q0 10 23 17q94 27 123 39q27 10 32 10q4 0 8.5 -4t9.5 -12.5t13 -16.5 q61 -61 201 -149q39 -27 39 -29q0 -10 -19 -10q-49 0 -370 121q-60 22 -60 34zM475 686q-6 -14 6 -14h391q12 0 9 14l-195 553q-14 47 -31 0z" />
<glyph unicode="&#xc1;" d="M-55 10q0 12 18 13q27 0 60 4q66 8 102.5 56t69.5 136l464 1272q29 80 45.5 80t45.5 -74q8 -20 103 -270t206.5 -539t167.5 -426q82 -201 176 -227q37 -12 82 -12q20 0 20 -13q0 -16 -41 -16q-180 0 -321 4q-61 4 -61.5 14.5t14.5 14.5q29 10 12 55l-190 504 q-6 12 -19 12h-440q-14 0 -21 -16l-123 -363q-29 -80 -28 -137q0 -29 23.5 -44t54.5 -15h20q20 0 21 -13q0 -16 -31 -16q-29 0 -90.5 3t-69.5 3q-2 0 -88 -3t-143 -3q-39 0 -39 16zM475 686q-6 -14 6 -14h391q12 0 9 14l-195 553q-14 47 -31 0zM608 1712q0 8 15 17 q121 84 278 174q45 27 57 26q8 0 21 -18q8 -10 51 -90q14 -25 -8 -25h-61q-143 -14 -312 -86q-25 -10 -31 -10q-10 0 -10 12z" />
<glyph unicode="&#xc2;" d="M-55 10q0 12 18 13q27 0 60 4q66 8 102.5 56t69.5 136l464 1272q29 80 45.5 80t45.5 -74q8 -20 103 -270t206.5 -539t167.5 -426q82 -201 176 -227q37 -12 82 -12q20 0 20 -13q0 -16 -41 -16q-180 0 -321 4q-61 4 -61.5 14.5t14.5 14.5q29 10 12 55l-190 504 q-6 12 -19 12h-440q-14 0 -21 -16l-123 -363q-29 -80 -28 -137q0 -29 23.5 -44t54.5 -15h20q20 0 21 -13q0 -16 -31 -16q-29 0 -90.5 3t-69.5 3q-2 0 -88 -3t-143 -3q-39 0 -39 16zM449 1690q0 6 12 22q49 49 229 213q23 20 33 21q6 0 33 -21q180 -135 207 -156 q25 -16 24.5 -20t-10.5 -18l-43 -45q-12 -12 -19 -13q-8 0 -16 10q-29 31 -89 80t-83 62q-16 8 -20 8q-12 0 -33 -10q-51 -27 -174 -129q-23 -20 -37 -20t-14 16zM475 686q-6 -14 6 -14h391q12 0 9 14l-195 553q-14 47 -31 0z" />
<glyph unicode="&#xc3;" d="M-55 10q0 12 18 13q27 0 60 4q66 8 102.5 56t69.5 136l464 1272q29 80 45.5 80t45.5 -74q8 -20 103 -270t206.5 -539t167.5 -426q82 -201 176 -227q37 -12 82 -12q20 0 20 -13q0 -16 -41 -16q-180 0 -321 4q-61 4 -61.5 14.5t14.5 14.5q29 10 12 55l-190 504 q-6 12 -19 12h-440q-14 0 -21 -16l-123 -363q-29 -80 -28 -137q0 -29 23.5 -44t54.5 -15h20q20 0 21 -13q0 -16 -31 -16q-29 0 -90.5 3t-69.5 3q-2 0 -88 -3t-143 -3q-39 0 -39 16zM395 1720q0 8 15 31q31 47 82 96t94 49q41 0 172 -63q70 -35 119 -35q80 0 124 60 q14 23 25 22q14 0 14 -12q0 -10 -8 -27q-18 -35 -73.5 -88t-96.5 -53q-55 0 -162 53q-8 4 -27.5 14.5t-32.5 16.5t-34.5 11t-44.5 5q-61 0 -125 -74q-14 -18 -28 -18q-13 0 -13 12zM475 686q-6 -14 6 -14h391q12 0 9 14l-195 553q-14 47 -31 0z" />
<glyph unicode="&#xc4;" d="M-55 10q0 12 18 13q27 0 60 4q66 8 102.5 56t69.5 136l464 1272q29 80 45.5 80t45.5 -74q8 -20 103 -270t206.5 -539t167.5 -426q82 -201 176 -227q37 -12 82 -12q20 0 20 -13q0 -16 -41 -16q-180 0 -321 4q-61 4 -61.5 14.5t14.5 14.5q29 10 12 55l-190 504 q-6 12 -19 12h-440q-14 0 -21 -16l-123 -363q-29 -80 -28 -137q0 -29 23.5 -44t54.5 -15h20q20 0 21 -13q0 -16 -31 -16q-29 0 -90.5 3t-69.5 3q-2 0 -88 -3t-143 -3q-39 0 -39 16zM424 1788q0 33 22.5 60.5t65.5 27.5q39 0 63.5 -22.5t24.5 -59.5q0 -41 -24.5 -67.5 t-65.5 -26.5q-43 0 -64.5 26.5t-21.5 61.5zM475 686q-6 -14 6 -14h391q12 0 9 14l-195 553q-14 47 -31 0zM836 1788q0 33 22.5 60.5t65.5 27.5q39 0 63.5 -22.5t24.5 -59.5q0 -41 -24.5 -67.5t-65.5 -26.5q-43 0 -64.5 26.5t-21.5 61.5z" />
<glyph unicode="&#xc5;" d="M-55 10q0 12 18 13q27 0 60 4q66 8 102.5 56t69.5 136l464 1272q29 80 45.5 80t45.5 -74q8 -20 103 -270t206.5 -539t167.5 -426q82 -201 176 -227q37 -12 82 -12q20 0 20 -13q0 -16 -41 -16q-180 0 -321 4q-61 4 -61.5 14.5t14.5 14.5q29 10 12 55l-190 504 q-6 12 -19 12h-440q-14 0 -21 -16l-123 -363q-29 -80 -28 -137q0 -29 23.5 -44t54.5 -15h20q20 0 21 -13q0 -16 -31 -16q-29 0 -90.5 3t-69.5 3q-2 0 -88 -3t-143 -3q-39 0 -39 16zM475 686q-6 -14 6 -14h391q12 0 9 14l-195 553q-14 47 -31 0zM514 1800q0 72 68.5 124 t173.5 52q78 0 122 -31.5t46 -84.5q0 -80 -77 -130.5t-173 -50.5q-76 0 -118 34t-42 87zM604 1827q0 -43 32 -70.5t71 -27.5q51 0 85.5 30.5t34.5 73.5q0 39 -26.5 66.5t-79.5 27.5q-41 0 -79 -26.5t-38 -73.5z" />
<glyph unicode="&#xc6;" horiz-adv-x="1867" d="M-143 10q0 12 22 13q45 0 86 20q61 31 103.5 76t111.5 143q70 96 752 1165q37 57 45 86q6 29 27 29q6 0 29.5 -3t35.5 -3q422 0 469 2q59 4 88 10q4 0 13.5 5.5t15.5 5.5q8 0 8 -19q0 -6 -3 -17.5t-7 -33t-6 -45.5q0 -4 -4.5 -62.5t-6.5 -72.5q-4 -23 -14 -23 q-16 0 -16 27q0 45 -12.5 73.5t-41 45t-104.5 24.5q-51 6 -281 6q-12 0 -12 -20v-649q0 -20 12 -21q279 0 326 4q76 6 96 29q23 27 31 26q10 0 10 -16q0 -4 -3 -18.5t-7 -41t-6 -55.5q-8 -82 -8 -116q0 -33 -15 -33q-12 0 -16 22q0 27 -6 50q-18 61 -121 71q-41 4 -279 4 q-14 0 -14 -18v-92v-352q4 -106 46 -136t192 -30q143 0 196 22q39 16 60.5 49t31.5 97q6 31 18.5 30.5t12.5 -30.5q0 -14 -10 -91t-16 -106q-10 -39 -29 -46t-82 -7q-135 0 -248 3t-176.5 6t-81.5 3q-4 0 -80 -3t-112 -3q-33 0 -33 16q0 12 16 13q20 0 58 8q45 8 59 112 q10 86 10 445v94q0 16 -18 16h-361q-27 0 -37 -14q-57 -78 -233 -379q-88 -145 -88 -207q0 -43 41 -59q43 -16 90 -16q25 0 25 -14.5t-35 -14.5q-51 0 -109.5 1t-99.5 3t-47 2q-4 0 -42 -2t-92.5 -3t-97.5 -1q-26 0 -26 16zM633 791q-10 -18 8 -19h328q18 0 18 16v553 q0 6 -3 8.5t-7 0.5t-8 -9q-29 -43 -176.5 -284t-159.5 -266z" />
<glyph unicode="&#xc7;" horiz-adv-x="1648" d="M131 793q0 129 53.5 282.5t175.5 276.5q219 219 625 219q164 0 297 -25q145 -27 209 -30q27 -2 27 -23q0 -6 -2.5 -19.5t-4.5 -39t-4 -56.5q-2 -37 -4 -117.5t-2 -93.5q-2 -43 -18.5 -43t-16.5 43q0 135 -86 209q-57 49 -168.5 83t-240.5 34q-317 0 -471 -150 q-104 -100 -144.5 -230t-40.5 -304q0 -303 210 -526.5t530 -223.5q256 0 356 103q57 59 76 172q6 31 20.5 31t14.5 -31q0 -16 -15.5 -116.5t-29.5 -145.5q-8 -29 -16.5 -38t-37.5 -22q-117 -47 -368 -47q-430 0 -676 221q-248 224 -248 607zM659 -473q0 18 41 22 q59 6 105.5 40t46.5 85q0 106 -147 150q-31 8 -31 18q0 8 26 29l158 129h82q-14 -8 -75.5 -65.5t-78.5 -73.5q205 -20 205 -146q0 -55 -43 -99t-102 -69q-84 -37 -160 -36q-27 0 -27 16z" />
<glyph unicode="&#xc8;" horiz-adv-x="1249" d="M186 1526q0 16 33 16q41 0 96.5 -1t94.5 -3t41 -2q422 0 469 2q59 4 88 10q4 0 13 5.5t15 5.5q8 0 8 -19q0 -6 -3 -17.5t-7 -33t-6 -45.5q0 -4 -4 -62.5t-6 -72.5q-4 -23 -14 -23q-16 0 -17 27q0 45 -12 73.5t-41 45t-105 24.5q-51 6 -280 6q-12 0 -12 -20v-565 q0 -20 12 -21q279 0 325 4q76 6 97 29q23 27 30 26q10 0 11 -16q0 -4 -3 -18.5t-7.5 -41t-6.5 -55.5q-8 -82 -8 -131q0 -39 -14.5 -39t-14.5 19q0 41 -8 67q-18 63 -106 72q-92 10 -293 10q-14 0 -14 -14v-180v-350q4 -106 46 -137t191 -31q143 0 197 22q72 31 92 148 q6 31 18.5 30.5t12.5 -30.5q0 -14 -10.5 -92t-16.5 -107q-10 -39 -28.5 -46t-82.5 -7q-135 0 -247.5 3t-176 6t-81.5 3q-2 0 -40 -2t-86.5 -3t-74.5 -1q-33 0 -33 16q0 12 16 13q25 0 62 8q45 8 59 112q10 86 11 445v360q0 377 -5 443q-4 55 -21 80.5t-67 35.5q-25 6 -69 6 q-17 1 -17 13zM340 1855q0 10 22 17q94 27 123 39q27 10 33 10q4 0 8 -4t9.5 -12.5t13.5 -16.5q61 -61 201 -149q39 -27 38 -29q0 -10 -18 -10q-49 0 -371 121q-59 22 -59 34z" />
<glyph unicode="&#xc9;" horiz-adv-x="1249" d="M186 1526q0 16 33 16q41 0 96.5 -1t94.5 -3t41 -2q422 0 469 2q59 4 88 10q4 0 13 5.5t15 5.5q8 0 8 -19q0 -6 -3 -17.5t-7 -33t-6 -45.5q0 -4 -4 -62.5t-6 -72.5q-4 -23 -14 -23q-16 0 -17 27q0 45 -12 73.5t-41 45t-105 24.5q-51 6 -280 6q-12 0 -12 -20v-565 q0 -20 12 -21q279 0 325 4q76 6 97 29q23 27 30 26q10 0 11 -16q0 -4 -3 -18.5t-7.5 -41t-6.5 -55.5q-8 -82 -8 -131q0 -39 -14.5 -39t-14.5 19q0 41 -8 67q-18 63 -106 72q-92 10 -293 10q-14 0 -14 -14v-180v-350q4 -106 46 -137t191 -31q143 0 197 22q72 31 92 148 q6 31 18.5 30.5t12.5 -30.5q0 -14 -10.5 -92t-16.5 -107q-10 -39 -28.5 -46t-82.5 -7q-135 0 -247.5 3t-176 6t-81.5 3q-2 0 -40 -2t-86.5 -3t-74.5 -1q-33 0 -33 16q0 12 16 13q25 0 62 8q45 8 59 112q10 86 11 445v360q0 377 -5 443q-4 55 -21 80.5t-67 35.5q-25 6 -69 6 q-17 1 -17 13zM537 1712q0 8 14 17q121 84 278 174q45 27 58 26q8 0 20 -18q8 -10 51 -90q14 -25 -8 -25h-61q-143 -14 -311 -86q-25 -10 -31 -10q-10 0 -10 12z" />
<glyph unicode="&#xca;" horiz-adv-x="1249" d="M186 1526q0 16 33 16q41 0 96.5 -1t94.5 -3t41 -2q422 0 469 2q59 4 88 10q4 0 13 5.5t15 5.5q8 0 8 -19q0 -6 -3 -17.5t-7 -33t-6 -45.5q0 -4 -4 -62.5t-6 -72.5q-4 -23 -14 -23q-16 0 -17 27q0 45 -12 73.5t-41 45t-105 24.5q-51 6 -280 6q-12 0 -12 -20v-565 q0 -20 12 -21q279 0 325 4q76 6 97 29q23 27 30 26q10 0 11 -16q0 -4 -3 -18.5t-7.5 -41t-6.5 -55.5q-8 -82 -8 -131q0 -39 -14.5 -39t-14.5 19q0 41 -8 67q-18 63 -106 72q-92 10 -293 10q-14 0 -14 -14v-180v-350q4 -106 46 -137t191 -31q143 0 197 22q72 31 92 148 q6 31 18.5 30.5t12.5 -30.5q0 -14 -10.5 -92t-16.5 -107q-10 -39 -28.5 -46t-82.5 -7q-135 0 -247.5 3t-176 6t-81.5 3q-2 0 -40 -2t-86.5 -3t-74.5 -1q-33 0 -33 16q0 12 16 13q25 0 62 8q45 8 59 112q10 86 11 445v360q0 377 -5 443q-4 55 -21 80.5t-67 35.5q-25 6 -69 6 q-17 1 -17 13zM397 1690q0 6 13 22q49 49 229 213q23 20 33 21q6 0 33 -21q180 -135 206 -156q25 -16 25 -20t-10 -18l-43 -45q-12 -12 -19 -13q-8 0 -16 10q-29 31 -89.5 80t-82.5 62q-16 8 -21 8q-12 0 -32 -10q-51 -27 -174 -129q-23 -20 -37.5 -20t-14.5 16z" />
<glyph unicode="&#xcb;" horiz-adv-x="1249" d="M186 1526q0 16 33 16q41 0 96.5 -1t94.5 -3t41 -2q422 0 469 2q59 4 88 10q4 0 13 5.5t15 5.5q8 0 8 -19q0 -6 -3 -17.5t-7 -33t-6 -45.5q0 -4 -4 -62.5t-6 -72.5q-4 -23 -14 -23q-16 0 -17 27q0 45 -12 73.5t-41 45t-105 24.5q-51 6 -280 6q-12 0 -12 -20v-565 q0 -20 12 -21q279 0 325 4q76 6 97 29q23 27 30 26q10 0 11 -16q0 -4 -3 -18.5t-7.5 -41t-6.5 -55.5q-8 -82 -8 -131q0 -39 -14.5 -39t-14.5 19q0 41 -8 67q-18 63 -106 72q-92 10 -293 10q-14 0 -14 -14v-180v-350q4 -106 46 -137t191 -31q143 0 197 22q72 31 92 148 q6 31 18.5 30.5t12.5 -30.5q0 -14 -10.5 -92t-16.5 -107q-10 -39 -28.5 -46t-82.5 -7q-135 0 -247.5 3t-176 6t-81.5 3q-2 0 -40 -2t-86.5 -3t-74.5 -1q-33 0 -33 16q0 12 16 13q25 0 62 8q45 8 59 112q10 86 11 445v360q0 377 -5 443q-4 55 -21 80.5t-67 35.5q-25 6 -69 6 q-17 1 -17 13zM373 1788q0 33 22.5 60.5t65.5 27.5q39 0 63.5 -22.5t24.5 -59.5q0 -41 -24.5 -67.5t-65.5 -26.5q-43 0 -64.5 26.5t-21.5 61.5zM784 1788q0 33 22.5 60.5t65.5 27.5q39 0 64 -22.5t25 -59.5q0 -41 -25 -67.5t-66 -26.5q-43 0 -64.5 26.5t-21.5 61.5z" />
<glyph unicode="&#xcc;" horiz-adv-x="901" d="M125 1855q0 10 22 17q94 27 123 39q27 10 33 10q4 0 8 -4t9.5 -12.5t13.5 -16.5q61 -61 201 -149q39 -27 38 -29q0 -10 -18 -10q-49 0 -371 121q-59 22 -59 34zM211 1526q0 16 33 16q31 0 80 -1t87 -3t40 -2t39.5 2t86 3t74.5 1q33 0 33 -16q0 -12 -16 -13q-14 0 -52 -6 q-41 -8 -56 -34.5t-19 -81.5q-4 -66 -4 -443v-360q0 -358 10 -445q6 -51 21.5 -78.5t58.5 -33.5q57 -8 92 -8q16 0 16 -13q0 -16 -33 -16q-49 0 -109.5 1t-100 3t-41.5 2t-40 -2t-86.5 -3t-74.5 -1q-33 0 -33 16q0 12 16 13q25 0 62 8q45 8 59 112q10 86 11 445v360 q0 377 -5 443q-6 100 -69 114q-31 8 -64 8q-16 1 -16 13z" />
<glyph unicode="&#xcd;" horiz-adv-x="901" d="M211 1526q0 16 33 16q31 0 80 -1t87 -3t40 -2t39.5 2t86 3t74.5 1q33 0 33 -16q0 -12 -16 -13q-14 0 -52 -6q-41 -8 -56 -34.5t-19 -81.5q-4 -66 -4 -443v-360q0 -358 10 -445q6 -51 21.5 -78.5t58.5 -33.5q57 -8 92 -8q16 0 16 -13q0 -16 -33 -16q-49 0 -109.5 1t-100 3 t-41.5 2t-40 -2t-86.5 -3t-74.5 -1q-33 0 -33 16q0 12 16 13q25 0 62 8q45 8 59 112q10 86 11 445v360q0 377 -5 443q-6 100 -69 114q-31 8 -64 8q-16 1 -16 13zM342 1712q0 8 14 17q121 84 279 174q45 27 57 26q8 0 21 -18q8 -10 51 -90q14 -25 -8 -25h-62 q-143 -14 -311 -86q-25 -10 -31 -10q-10 0 -10 12z" />
<glyph unicode="&#xce;" horiz-adv-x="901" d="M182 1690q0 6 13 22q49 49 229 213q23 20 33 21q6 0 32 -21q180 -135 207 -156q25 -16 25 -20t-10 -18l-43 -45q-12 -12 -19 -13q-8 0 -16 10q-29 31 -89.5 80t-82.5 62q-16 8 -21 8q-12 0 -32 -10q-51 -27 -175 -129q-23 -20 -37 -20t-14 16zM211 1526q0 16 33 16 q31 0 80 -1t87 -3t40 -2t39.5 2t86 3t74.5 1q33 0 33 -16q0 -12 -16 -13q-14 0 -52 -6q-41 -8 -56 -34.5t-19 -81.5q-4 -66 -4 -443v-360q0 -358 10 -445q6 -51 21.5 -78.5t58.5 -33.5q57 -8 92 -8q16 0 16 -13q0 -16 -33 -16q-49 0 -109.5 1t-100 3t-41.5 2t-40 -2 t-86.5 -3t-74.5 -1q-33 0 -33 16q0 12 16 13q25 0 62 8q45 8 59 112q10 86 11 445v360q0 377 -5 443q-6 100 -69 114q-31 8 -64 8q-16 1 -16 13z" />
<glyph unicode="&#xcf;" horiz-adv-x="901" d="M158 1788q0 33 22.5 60.5t65.5 27.5q39 0 63.5 -22.5t24.5 -59.5q0 -41 -24.5 -67.5t-65.5 -26.5q-43 0 -64.5 26.5t-21.5 61.5zM211 1526q0 16 33 16q31 0 80 -1t87 -3t40 -2t39.5 2t86 3t74.5 1q33 0 33 -16q0 -12 -16 -13q-14 0 -52 -6q-41 -8 -56 -34.5t-19 -81.5 q-4 -66 -4 -443v-360q0 -358 10 -445q6 -51 21.5 -78.5t58.5 -33.5q57 -8 92 -8q16 0 16 -13q0 -16 -33 -16q-49 0 -109.5 1t-100 3t-41.5 2t-40 -2t-86.5 -3t-74.5 -1q-33 0 -33 16q0 12 16 13q25 0 62 8q45 8 59 112q10 86 11 445v360q0 377 -5 443q-6 100 -69 114 q-31 8 -64 8q-16 1 -16 13zM569 1788q0 33 22.5 60.5t65.5 27.5q39 0 63.5 -22.5t24.5 -59.5q0 -41 -24.5 -67.5t-65.5 -26.5q-43 0 -64.5 26.5t-21.5 61.5z" />
<glyph unicode="&#xd0;" horiz-adv-x="1878" d="M170 762l6 33q6 18 27 18h162v135q0 377 -5 443q-4 55 -21 80.5t-67 35.5q-25 6 -69 6q-16 0 -17 13q0 16 33 16q41 0 96.5 -1t94.5 -3t41 -2l102 4q100 2 174 2h39q90 0 143.5 -1t153.5 -13t174 -35t160 -70t151 -114q199 -207 199 -521q0 -344 -221 -577 q-225 -236 -621 -236q-78 0 -186.5 6.5t-186 12.5t-81.5 6q-2 0 -40 -2t-86.5 -3t-74.5 -1q-33 0 -33 16q0 12 16 13q25 0 62 8q45 8 59 112q10 86 11 445v151h-181q-18 0 -14 23zM537 629q0 -281 4 -346q6 -131 22 -156q55 -82 348 -82q297 0 488 191q78 76 121 210t43 279 q0 309 -197 516q-131 139 -292 185.5t-380 46.5q-102 0 -131 -15q-25 -10 -24 -41l-2 -602h419q20 0 15 -22l-8 -39q-2 -16 -27 -17h-399v-108z" />
<glyph unicode="&#xd1;" horiz-adv-x="1939" d="M135 10q0 12 17 13q47 0 84 12q37 10 49 63.5t12 196.5l2 1173q0 102 23 103q8 0 19 -10.5t29.5 -31t22.5 -24.5q76 -86 651 -702q106 -115 283.5 -309.5t208.5 -225.5l-23 1041q-2 102 -17 142t-62 52q-45 10 -101 10q-16 0 -16 14.5t41 14.5q55 0 133 -3t80 -3 q4 0 64.5 3t109.5 3q37 0 37 -14.5t-23 -14.5q-25 0 -49 -6q-49 -10 -62.5 -47t-13.5 -135l-4 -1200q0 -51 -1 -80t-3 -43t-5 -18t-9 -4q-18 0 -150 131q-12 12 -96 97t-212 218t-226 240q-287 309 -535 587l27 -981q2 -125 19.5 -175t60.5 -62q47 -12 102 -12q16 0 16 -13 q0 -16 -36 -16q-51 0 -101.5 1t-81 3t-34.5 2l-70 -4q-72 -2 -127 -2q-33 0 -33 16zM668 1720q0 8 14 31q31 47 82 96t94 49q41 0 172 -63q70 -35 119 -35q80 0 125 60q14 23 24 22q14 0 15 -12q0 -10 -8 -27q-18 -35 -73.5 -88t-96.5 -53q-55 0 -162 53q-8 4 -27.5 14.5 t-33 16.5t-35 11t-43.5 5q-14 0 -28.5 -3t-26 -9t-20.5 -11t-18.5 -14.5t-13.5 -14.5t-10 -13l-8 -9q-16 -18 -28.5 -18t-12.5 12z" />
<glyph unicode="&#xd2;" horiz-adv-x="1873" d="M131 770q0 131 48 266t141.5 257t255 200t362.5 78q352 0 578.5 -208t226.5 -560t-227.5 -595t-589.5 -243q-162 0 -297 48t-225.5 128t-154 186.5t-91 217t-27.5 225.5zM326 827q0 -352 186 -568t469 -216q63 0 130 15.5t147.5 61.5t142 119.5t103.5 204.5t42 301 q0 352 -182 554t-440 202q-266 0 -432 -174t-166 -500zM610 1855q0 10 23 17q94 27 123 39q27 10 32 10q4 0 8.5 -4t9.5 -12.5t13 -16.5q61 -61 201 -149q39 -27 39 -29q0 -10 -19 -10q-49 0 -370 121q-60 22 -60 34z" />
<glyph unicode="&#xd3;" horiz-adv-x="1873" d="M131 770q0 131 48 266t141.5 257t255 200t362.5 78q352 0 578.5 -208t226.5 -560t-227.5 -595t-589.5 -243q-162 0 -297 48t-225.5 128t-154 186.5t-91 217t-27.5 225.5zM326 827q0 -352 186 -568t469 -216q63 0 130 15.5t147.5 61.5t142 119.5t103.5 204.5t42 301 q0 352 -182 554t-440 202q-266 0 -432 -174t-166 -500zM827 1712q0 8 15 17q121 84 278 174q45 27 58 26q8 0 20 -18q8 -10 51 -90q14 -25 -8 -25h-61q-143 -14 -312 -86q-25 -10 -30 -10q-11 0 -11 12z" />
<glyph unicode="&#xd4;" horiz-adv-x="1873" d="M131 770q0 131 48 266t141.5 257t255 200t362.5 78q352 0 578.5 -208t226.5 -560t-227.5 -595t-589.5 -243q-162 0 -297 48t-225.5 128t-154 186.5t-91 217t-27.5 225.5zM326 827q0 -352 186 -568t469 -216q63 0 130 15.5t147.5 61.5t142 119.5t103.5 204.5t42 301 q0 352 -182 554t-440 202q-266 0 -432 -174t-166 -500zM668 1690q0 6 12 22q49 49 229 213q23 20 33 21q6 0 33 -21q180 -135 207 -156q25 -16 24.5 -20t-10.5 -18l-43 -45q-12 -12 -18 -13q-8 0 -17 10q-29 31 -89 80t-83 62q-16 8 -20 8q-12 0 -33 -10q-51 -27 -174 -129 q-23 -20 -37 -20t-14 16z" />
<glyph unicode="&#xd5;" horiz-adv-x="1873" d="M131 770q0 131 48 266t141.5 257t255 200t362.5 78q352 0 578.5 -208t226.5 -560t-227.5 -595t-589.5 -243q-162 0 -297 48t-225.5 128t-154 186.5t-91 217t-27.5 225.5zM326 827q0 -352 186 -568t469 -216q63 0 130 15.5t147.5 61.5t142 119.5t103.5 204.5t42 301 q0 352 -182 554t-440 202q-266 0 -432 -174t-166 -500zM614 1720q0 8 15 31q31 47 82 96t94 49q41 0 172 -63q70 -35 119 -35q80 0 125 60q14 23 24 22q14 0 15 -12q0 -10 -9 -27q-18 -35 -73.5 -88t-96.5 -53q-55 0 -161 53q-8 4 -28 14.5t-33 16.5t-34.5 11t-44.5 5 q-14 0 -28.5 -3t-25.5 -9t-20.5 -11t-18.5 -14.5t-13 -14.5t-10 -13l-9 -9q-16 -18 -28.5 -18t-12.5 12z" />
<glyph unicode="&#xd6;" horiz-adv-x="1873" d="M131 770q0 131 48 266t141.5 257t255 200t362.5 78q352 0 578.5 -208t226.5 -560t-227.5 -595t-589.5 -243q-162 0 -297 48t-225.5 128t-154 186.5t-91 217t-27.5 225.5zM326 827q0 -352 186 -568t469 -216q63 0 130 15.5t147.5 61.5t142 119.5t103.5 204.5t42 301 q0 352 -182 554t-440 202q-266 0 -432 -174t-166 -500zM643 1788q0 33 22.5 60.5t65.5 27.5q39 0 63.5 -22.5t24.5 -59.5q0 -41 -24.5 -67.5t-65.5 -26.5q-43 0 -64.5 26.5t-21.5 61.5zM1055 1788q0 33 22.5 60.5t65.5 27.5q39 0 63.5 -22.5t24.5 -59.5q0 -41 -24.5 -67.5 t-65.5 -26.5q-43 0 -64.5 26.5t-21.5 61.5z" />
<glyph unicode="&#xd8;" horiz-adv-x="1873" d="M131 770q0 131 48 266t141.5 257t255 200t362.5 78q315 0 528 -168l168 180q10 10 29 -4l41 -33q12 -14 0 -26l-166 -179q205 -209 205 -538q0 -352 -227.5 -595t-589.5 -243q-309 0 -512 170l-178 -190q-8 -12 -21 0l-41 39q-12 12 -4 20l178 193q-109 113 -163 264 t-54 309zM326 827q0 -299 139 -505l901 972q-176 207 -444 207q-266 0 -431 -174t-165 -500zM520 250q184 -207 461 -207q63 0 130 15.5t147.5 61.5t142 119.5t103.5 204.5t42 301q0 281 -123 474z" />
<glyph unicode="&#xd9;" horiz-adv-x="1699" d="M68 1526q0 16 32 16q55 0 146 -2l90 -4q4 0 85 3t118 3q33 0 32 -16q0 -12 -16 -13q-14 0 -51 -6q-39 -6 -55.5 -32.5t-20.5 -83.5q-4 -66 -4 -443v-286q0 -205 40 -321t114 -185q70 -66 141.5 -89.5t167.5 -23.5q92 0 179 40t142 107q119 147 119 502v256q0 377 -4 443 q-4 55 -21.5 80.5t-66.5 35.5q-25 6 -70 6q-16 0 -16 13q0 16 33 16q41 0 92 -1t87 -3t38 -2t68.5 3t103.5 3q33 0 33 -16q0 -12 -17 -13q-27 0 -51 -6q-41 -8 -56.5 -34.5t-19.5 -81.5q-4 -66 -4 -443v-219q0 -203 -39 -358.5t-149 -253.5q-170 -152 -422 -152 q-268 0 -422 146q-178 170 -178 538v299q0 377 -4 443q-4 55 -21.5 80.5t-66.5 35.5q-25 6 -70 6q-16 1 -16 13zM524 1855q0 10 23 17q94 27 123 39q27 10 32 10q4 0 8.5 -4t9.5 -12.5t13 -16.5q61 -61 201 -149q39 -27 39 -29q0 -10 -19 -10q-49 0 -370 121q-60 22 -60 34z " />
<glyph unicode="&#xda;" horiz-adv-x="1699" d="M68 1526q0 16 32 16q55 0 146 -2l90 -4q4 0 85 3t118 3q33 0 32 -16q0 -12 -16 -13q-14 0 -51 -6q-39 -6 -55.5 -32.5t-20.5 -83.5q-4 -66 -4 -443v-286q0 -205 40 -321t114 -185q70 -66 141.5 -89.5t167.5 -23.5q92 0 179 40t142 107q119 147 119 502v256q0 377 -4 443 q-4 55 -21.5 80.5t-66.5 35.5q-25 6 -70 6q-16 0 -16 13q0 16 33 16q41 0 92 -1t87 -3t38 -2t68.5 3t103.5 3q33 0 33 -16q0 -12 -17 -13q-27 0 -51 -6q-41 -8 -56.5 -34.5t-19.5 -81.5q-4 -66 -4 -443v-219q0 -203 -39 -358.5t-149 -253.5q-170 -152 -422 -152 q-268 0 -422 146q-178 170 -178 538v299q0 377 -4 443q-4 55 -21.5 80.5t-66.5 35.5q-25 6 -70 6q-16 1 -16 13zM782 1712q0 8 15 17q121 84 278 174q45 27 58 26q8 0 20 -18q8 -10 51 -90q14 -25 -8 -25h-61q-143 -14 -312 -86q-25 -10 -30 -10q-11 0 -11 12z" />
<glyph unicode="&#xdb;" horiz-adv-x="1699" d="M68 1526q0 16 32 16q55 0 146 -2l90 -4q4 0 85 3t118 3q33 0 32 -16q0 -12 -16 -13q-14 0 -51 -6q-39 -6 -55.5 -32.5t-20.5 -83.5q-4 -66 -4 -443v-286q0 -205 40 -321t114 -185q70 -66 141.5 -89.5t167.5 -23.5q92 0 179 40t142 107q119 147 119 502v256q0 377 -4 443 q-4 55 -21.5 80.5t-66.5 35.5q-25 6 -70 6q-16 0 -16 13q0 16 33 16q41 0 92 -1t87 -3t38 -2t68.5 3t103.5 3q33 0 33 -16q0 -12 -17 -13q-27 0 -51 -6q-41 -8 -56.5 -34.5t-19.5 -81.5q-4 -66 -4 -443v-219q0 -203 -39 -358.5t-149 -253.5q-170 -152 -422 -152 q-268 0 -422 146q-178 170 -178 538v299q0 377 -4 443q-4 55 -21.5 80.5t-66.5 35.5q-25 6 -70 6q-16 1 -16 13zM602 1690q0 6 12 22q49 49 230 213q23 20 33 21q6 0 32 -21q180 -135 207 -156q25 -16 25 -20t-11 -18l-43 -45q-12 -12 -18 -13q-8 0 -16 10q-29 31 -89.5 80 t-82.5 62q-16 8 -21 8q-12 0 -33 -10q-51 -27 -174 -129q-23 -20 -37 -20t-14 16z" />
<glyph unicode="&#xdc;" horiz-adv-x="1699" d="M68 1526q0 16 32 16q55 0 146 -2l90 -4q4 0 85 3t118 3q33 0 32 -16q0 -12 -16 -13q-14 0 -51 -6q-39 -6 -55.5 -32.5t-20.5 -83.5q-4 -66 -4 -443v-286q0 -205 40 -321t114 -185q70 -66 141.5 -89.5t167.5 -23.5q92 0 179 40t142 107q119 147 119 502v256q0 377 -4 443 q-4 55 -21.5 80.5t-66.5 35.5q-25 6 -70 6q-16 0 -16 13q0 16 33 16q41 0 92 -1t87 -3t38 -2t68.5 3t103.5 3q33 0 33 -16q0 -12 -17 -13q-27 0 -51 -6q-41 -8 -56.5 -34.5t-19.5 -81.5q-4 -66 -4 -443v-219q0 -203 -39 -358.5t-149 -253.5q-170 -152 -422 -152 q-268 0 -422 146q-178 170 -178 538v299q0 377 -4 443q-4 55 -21.5 80.5t-66.5 35.5q-25 6 -70 6q-16 1 -16 13zM588 1788q0 33 22.5 60.5t65.5 27.5q39 0 63.5 -22.5t24.5 -59.5q0 -41 -24.5 -67.5t-65.5 -26.5q-43 0 -64.5 26.5t-21.5 61.5zM999 1788q0 33 22.5 60.5 t65.5 27.5q39 0 64 -22.5t25 -59.5q0 -41 -25 -67.5t-66 -26.5q-43 0 -64.5 26.5t-21.5 61.5z" />
<glyph unicode="&#xdd;" horiz-adv-x="1339" d="M-63 1527.5q0 14.5 26 14.5q23 0 112 -3t91 -3q4 0 30.5 2t66.5 3t75 1q27 0 27 -14q0 -4 -31 -19q-27 -14 -27 -36q0 -31 27 -80q27 -47 188.5 -326t188.5 -322q25 55 159 290t181 313q35 55 34.5 104t-32.5 57q-31 10 -31 21q0 12 33 12q31 0 81 -3t54 -3q2 0 89 3 t110 3q27 0 26 -12q0 -16 -26 -17q-49 0 -95 -28q-45 -27 -108 -105q-49 -59 -206 -321t-185 -330q-31 -74 -31 -205v-176q0 -119 6 -205q6 -102 84 -112q57 -8 92 -8q16 0 17 -13q0 -16 -33 -16q-49 0 -109.5 1t-100.5 3t-42 2t-40 -2t-86 -3t-75 -1q-33 0 -33 16 q0 12 17 13q25 0 61 8q57 12 64 112q6 86 6 205v176q0 111 -47 215q-10 25 -158.5 268.5t-202.5 321.5q-72 106 -139 152q-49 33 -88 32q-20 0 -20 14.5zM623 1712q0 8 14 17q121 84 278 174q45 27 58 26q8 0 20 -18q8 -10 51 -90q14 -25 -8 -25h-61q-143 -14 -311 -86 q-25 -10 -31 -10q-10 0 -10 12z" />
<glyph unicode="&#xde;" horiz-adv-x="1325" d="M186 1526q0 16 33 16q41 0 94.5 -1t93 -3t44.5 -2q2 0 41.5 2t97 3t102.5 1q33 0 33 -14.5t-16 -14.5q-41 0 -80 -8q-88 -14 -92 -108q-4 -172 -5 -193q119 8 179 8q248 0 381 -116q39 -35 69.5 -101.5t30.5 -140.5q0 -217 -142.5 -352t-361.5 -135q-33 0 -43 2 q-23 0 -22 14q0 18 55 18q150 0 252 96.5t102 237.5q0 199 -114 316q-100 102 -281 102q-59 0 -88 -12q-16 -6 -17 -39v-514q0 -358 11 -445q6 -51 21.5 -78.5t58.5 -33.5q57 -8 92 -8q16 0 16 -13q0 -16 -33 -16q-49 0 -109.5 1t-100 3t-42.5 2l-36 -2q-37 -2 -85.5 -3 t-74.5 -1q-33 0 -33 16q0 12 16 13q25 0 62 8q45 8 59 112q10 86 11 445v360q0 377 -5 443q-4 55 -21 80.5t-67 35.5q-25 6 -69 6q-17 1 -17 13z" />
<glyph unicode="&#xdf;" horiz-adv-x="2334" d="M203 98q0 53 10 217q2 33 16.5 33t14.5 -22q0 -47 6 -76q23 -106 106.5 -157.5t196.5 -51.5q139 0 216 82t77 190q0 104 -50.5 180t-185.5 189l-92 76q-154 125 -210 227t-56 217q0 166 114.5 267.5t309.5 101.5q104 0 190 -21q49 -10 72 -10q20 0 20 -14l-2 -27 q-2 -27 -4 -78t-2 -112q0 -47 -14 -47q-12 0 -16 26q-6 63 -27 103q-59 109 -256 108q-109 0 -180.5 -64.5t-71.5 -172.5q0 -86 51 -155t199 -189l57 -46q174 -137 236.5 -243.5t62.5 -237.5q0 -82 -40 -177t-134 -163q-123 -86 -309 -86q-162 0 -275 55q-20 10 -25 22.5 t-5 55.5zM1370 98q0 53 10 217q2 33 16.5 33t14.5 -22q0 -47 6 -76q23 -106 107 -157.5t196 -51.5q139 0 216 82t77 190q0 104 -50 180t-185 189l-92 76q-154 125 -210.5 227t-56.5 217q0 166 115 267.5t309 101.5q104 0 191 -21q49 -10 71 -10q20 0 21 -14l-2 -27 q-2 -27 -4 -78t-2 -112q0 -47 -15 -47q-12 0 -16 26q-6 63 -27 103q-59 109 -256 108q-109 0 -180.5 -64.5t-71.5 -172.5q0 -86 51.5 -155t198.5 -189l58 -46q174 -137 236.5 -243.5t62.5 -237.5q0 -82 -40 -177t-134 -163q-123 -86 -310 -86q-162 0 -274 55 q-20 10 -25.5 22.5t-5.5 55.5z" />
<glyph unicode="&#xe0;" d="M-55 10q0 12 18 13q27 0 60 4q66 8 102.5 56t69.5 136l464 1272q29 80 45.5 80t45.5 -74q8 -20 103 -270t206.5 -539t167.5 -426q82 -201 176 -227q37 -12 82 -12q20 0 20 -13q0 -16 -41 -16q-180 0 -321 4q-61 4 -61.5 14.5t14.5 14.5q29 10 12 55l-190 504 q-6 12 -19 12h-440q-14 0 -21 -16l-123 -363q-29 -80 -28 -137q0 -29 23.5 -44t54.5 -15h20q20 0 21 -13q0 -16 -31 -16q-29 0 -90.5 3t-69.5 3q-2 0 -88 -3t-143 -3q-39 0 -39 16zM391 1855q0 10 23 17q94 27 123 39q27 10 32 10q4 0 8.5 -4t9.5 -12.5t13 -16.5 q61 -61 201 -149q39 -27 39 -29q0 -10 -19 -10q-49 0 -370 121q-60 22 -60 34zM475 686q-6 -14 6 -14h391q12 0 9 14l-195 553q-14 47 -31 0z" />
<glyph unicode="&#xe1;" d="M-55 10q0 12 18 13q27 0 60 4q66 8 102.5 56t69.5 136l464 1272q29 80 45.5 80t45.5 -74q8 -20 103 -270t206.5 -539t167.5 -426q82 -201 176 -227q37 -12 82 -12q20 0 20 -13q0 -16 -41 -16q-180 0 -321 4q-61 4 -61.5 14.5t14.5 14.5q29 10 12 55l-190 504 q-6 12 -19 12h-440q-14 0 -21 -16l-123 -363q-29 -80 -28 -137q0 -29 23.5 -44t54.5 -15h20q20 0 21 -13q0 -16 -31 -16q-29 0 -90.5 3t-69.5 3q-2 0 -88 -3t-143 -3q-39 0 -39 16zM475 686q-6 -14 6 -14h391q12 0 9 14l-195 553q-14 47 -31 0zM608 1712q0 8 15 17 q121 84 278 174q45 27 57 26q8 0 21 -18q8 -10 51 -90q14 -25 -8 -25h-61q-143 -14 -312 -86q-25 -10 -31 -10q-10 0 -10 12z" />
<glyph unicode="&#xe2;" d="M-55 10q0 12 18 13q27 0 60 4q66 8 102.5 56t69.5 136l464 1272q29 80 45.5 80t45.5 -74q8 -20 103 -270t206.5 -539t167.5 -426q82 -201 176 -227q37 -12 82 -12q20 0 20 -13q0 -16 -41 -16q-180 0 -321 4q-61 4 -61.5 14.5t14.5 14.5q29 10 12 55l-190 504 q-6 12 -19 12h-440q-14 0 -21 -16l-123 -363q-29 -80 -28 -137q0 -29 23.5 -44t54.5 -15h20q20 0 21 -13q0 -16 -31 -16q-29 0 -90.5 3t-69.5 3q-2 0 -88 -3t-143 -3q-39 0 -39 16zM449 1690q0 6 12 22q49 49 229 213q23 20 33 21q6 0 33 -21q180 -135 207 -156 q25 -16 24.5 -20t-10.5 -18l-43 -45q-12 -12 -19 -13q-8 0 -16 10q-29 31 -89 80t-83 62q-16 8 -20 8q-12 0 -33 -10q-51 -27 -174 -129q-23 -20 -37 -20t-14 16zM475 686q-6 -14 6 -14h391q12 0 9 14l-195 553q-14 47 -31 0z" />
<glyph unicode="&#xe3;" d="M-55 10q0 12 18 13q27 0 60 4q66 8 102.5 56t69.5 136l464 1272q29 80 45.5 80t45.5 -74q8 -20 103 -270t206.5 -539t167.5 -426q82 -201 176 -227q37 -12 82 -12q20 0 20 -13q0 -16 -41 -16q-180 0 -321 4q-61 4 -61.5 14.5t14.5 14.5q29 10 12 55l-190 504 q-6 12 -19 12h-440q-14 0 -21 -16l-123 -363q-29 -80 -28 -137q0 -29 23.5 -44t54.5 -15h20q20 0 21 -13q0 -16 -31 -16q-29 0 -90.5 3t-69.5 3q-2 0 -88 -3t-143 -3q-39 0 -39 16zM395 1720q0 8 15 31q31 47 82 96t94 49q41 0 172 -63q70 -35 119 -35q80 0 124 60 q14 23 25 22q14 0 14 -12q0 -10 -8 -27q-18 -35 -73.5 -88t-96.5 -53q-55 0 -162 53q-8 4 -27.5 14.5t-32.5 16.5t-34.5 11t-44.5 5q-61 0 -125 -74q-14 -18 -28 -18q-13 0 -13 12zM475 686q-6 -14 6 -14h391q12 0 9 14l-195 553q-14 47 -31 0z" />
<glyph unicode="&#xe4;" d="M-55 10q0 12 18 13q27 0 60 4q66 8 102.5 56t69.5 136l464 1272q29 80 45.5 80t45.5 -74q8 -20 103 -270t206.5 -539t167.5 -426q82 -201 176 -227q37 -12 82 -12q20 0 20 -13q0 -16 -41 -16q-180 0 -321 4q-61 4 -61.5 14.5t14.5 14.5q29 10 12 55l-190 504 q-6 12 -19 12h-440q-14 0 -21 -16l-123 -363q-29 -80 -28 -137q0 -29 23.5 -44t54.5 -15h20q20 0 21 -13q0 -16 -31 -16q-29 0 -90.5 3t-69.5 3q-2 0 -88 -3t-143 -3q-39 0 -39 16zM424 1788q0 33 22.5 60.5t65.5 27.5q39 0 63.5 -22.5t24.5 -59.5q0 -41 -24.5 -67.5 t-65.5 -26.5q-43 0 -64.5 26.5t-21.5 61.5zM475 686q-6 -14 6 -14h391q12 0 9 14l-195 553q-14 47 -31 0zM836 1788q0 33 22.5 60.5t65.5 27.5q39 0 63.5 -22.5t24.5 -59.5q0 -41 -24.5 -67.5t-65.5 -26.5q-43 0 -64.5 26.5t-21.5 61.5z" />
<glyph unicode="&#xe5;" d="M-55 10q0 12 18 13q27 0 60 4q66 8 102.5 56t69.5 136l464 1272q29 80 45.5 80t45.5 -74q8 -20 103 -270t206.5 -539t167.5 -426q82 -201 176 -227q37 -12 82 -12q20 0 20 -13q0 -16 -41 -16q-180 0 -321 4q-61 4 -61.5 14.5t14.5 14.5q29 10 12 55l-190 504 q-6 12 -19 12h-440q-14 0 -21 -16l-123 -363q-29 -80 -28 -137q0 -29 23.5 -44t54.5 -15h20q20 0 21 -13q0 -16 -31 -16q-29 0 -90.5 3t-69.5 3q-2 0 -88 -3t-143 -3q-39 0 -39 16zM475 686q-6 -14 6 -14h391q12 0 9 14l-195 553q-14 47 -31 0zM514 1800q0 72 68.5 124 t173.5 52q78 0 122 -31.5t46 -84.5q0 -80 -77 -130.5t-173 -50.5q-76 0 -118 34t-42 87zM604 1827q0 -43 32 -70.5t71 -27.5q51 0 85.5 30.5t34.5 73.5q0 39 -26.5 66.5t-79.5 27.5q-41 0 -79 -26.5t-38 -73.5z" />
<glyph unicode="&#xe6;" horiz-adv-x="1867" d="M-143 10q0 12 22 13q45 0 86 20q61 31 103.5 76t111.5 143q70 96 752 1165q37 57 45 86q6 29 27 29q6 0 29.5 -3t35.5 -3q422 0 469 2q59 4 88 10q4 0 13.5 5.5t15.5 5.5q8 0 8 -19q0 -6 -3 -17.5t-7 -33t-6 -45.5q0 -4 -4.5 -62.5t-6.5 -72.5q-4 -23 -14 -23 q-16 0 -16 27q0 45 -12.5 73.5t-41 45t-104.5 24.5q-51 6 -281 6q-12 0 -12 -20v-649q0 -20 12 -21q279 0 326 4q76 6 96 29q23 27 31 26q10 0 10 -16q0 -4 -3 -18.5t-7 -41t-6 -55.5q-8 -82 -8 -116q0 -33 -15 -33q-12 0 -16 22q0 27 -6 50q-18 61 -121 71q-41 4 -279 4 q-14 0 -14 -18v-92v-352q4 -106 46 -136t192 -30q143 0 196 22q39 16 60.5 49t31.5 97q6 31 18.5 30.5t12.5 -30.5q0 -14 -10 -91t-16 -106q-10 -39 -29 -46t-82 -7q-135 0 -248 3t-176.5 6t-81.5 3q-4 0 -80 -3t-112 -3q-33 0 -33 16q0 12 16 13q20 0 58 8q45 8 59 112 q10 86 10 445v94q0 16 -18 16h-361q-27 0 -37 -14q-57 -78 -233 -379q-88 -145 -88 -207q0 -43 41 -59q43 -16 90 -16q25 0 25 -14.5t-35 -14.5q-51 0 -109.5 1t-99.5 3t-47 2q-4 0 -42 -2t-92.5 -3t-97.5 -1q-26 0 -26 16zM633 791q-10 -18 8 -19h328q18 0 18 16v553 q0 6 -3 8.5t-7 0.5t-8 -9q-29 -43 -176.5 -284t-159.5 -266z" />
<glyph unicode="&#xe7;" horiz-adv-x="1648" d="M131 793q0 129 53.5 282.5t175.5 276.5q219 219 625 219q164 0 297 -25q145 -27 209 -30q27 -2 27 -23q0 -6 -2.5 -19.5t-4.5 -39t-4 -56.5q-2 -37 -4 -117.5t-2 -93.5q-2 -43 -18.5 -43t-16.5 43q0 135 -86 209q-57 49 -168.5 83t-240.5 34q-317 0 -471 -150 q-104 -100 -144.5 -230t-40.5 -304q0 -303 210 -526.5t530 -223.5q256 0 356 103q57 59 76 172q6 31 20.5 31t14.5 -31q0 -16 -15.5 -116.5t-29.5 -145.5q-8 -29 -16.5 -38t-37.5 -22q-117 -47 -368 -47q-430 0 -676 221q-248 224 -248 607zM659 -473q0 18 41 22 q59 6 105.5 40t46.5 85q0 106 -147 150q-31 8 -31 18q0 8 26 29l158 129h82q-14 -8 -75.5 -65.5t-78.5 -73.5q205 -20 205 -146q0 -55 -43 -99t-102 -69q-84 -37 -160 -36q-27 0 -27 16z" />
<glyph unicode="&#xe8;" horiz-adv-x="1249" d="M186 1526q0 16 33 16q41 0 96.5 -1t94.5 -3t41 -2q422 0 469 2q59 4 88 10q4 0 13 5.5t15 5.5q8 0 8 -19q0 -6 -3 -17.5t-7 -33t-6 -45.5q0 -4 -4 -62.5t-6 -72.5q-4 -23 -14 -23q-16 0 -17 27q0 45 -12 73.5t-41 45t-105 24.5q-51 6 -280 6q-12 0 -12 -20v-565 q0 -20 12 -21q279 0 325 4q76 6 97 29q23 27 30 26q10 0 11 -16q0 -4 -3 -18.5t-7.5 -41t-6.5 -55.5q-8 -82 -8 -131q0 -39 -14.5 -39t-14.5 19q0 41 -8 67q-18 63 -106 72q-92 10 -293 10q-14 0 -14 -14v-180v-350q4 -106 46 -137t191 -31q143 0 197 22q72 31 92 148 q6 31 18.5 30.5t12.5 -30.5q0 -14 -10.5 -92t-16.5 -107q-10 -39 -28.5 -46t-82.5 -7q-135 0 -247.5 3t-176 6t-81.5 3h-13q-12 0 -31.5 -1t-37.5 -1q-82 -4 -119 -4q-33 0 -33 16q0 12 16 13q25 0 62 8q45 8 59 112q10 86 11 445v360q0 377 -5 443q-4 55 -21 80.5t-67 35.5 q-25 6 -69 6q-17 1 -17 13zM340 1855q0 10 22 17q94 27 123 39q27 10 33 10q4 0 8 -4t9.5 -12.5t13.5 -16.5q61 -61 201 -149q39 -27 38 -29q0 -10 -18 -10q-49 0 -371 121q-59 22 -59 34z" />
<glyph unicode="&#xe9;" horiz-adv-x="1249" d="M186 1526q0 16 33 16q41 0 96.5 -1t94.5 -3t41 -2q422 0 469 2q59 4 88 10q4 0 13 5.5t15 5.5q8 0 8 -19q0 -6 -3 -17.5t-7 -33t-6 -45.5q0 -4 -4 -62.5t-6 -72.5q-4 -23 -14 -23q-16 0 -17 27q0 45 -12 73.5t-41 45t-105 24.5q-51 6 -280 6q-12 0 -12 -20v-565 q0 -20 12 -21q279 0 325 4q76 6 97 29q23 27 30 26q10 0 11 -16q0 -4 -3 -18.5t-7.5 -41t-6.5 -55.5q-8 -82 -8 -131q0 -39 -14.5 -39t-14.5 19q0 41 -8 67q-18 63 -106 72q-92 10 -293 10q-14 0 -14 -14v-180v-350q4 -106 46 -137t191 -31q143 0 197 22q72 31 92 148 q6 31 18.5 30.5t12.5 -30.5q0 -14 -10.5 -92t-16.5 -107q-10 -39 -28.5 -46t-82.5 -7q-135 0 -247.5 3t-176 6t-81.5 3h-13q-12 0 -31.5 -1t-37.5 -1q-82 -4 -119 -4q-33 0 -33 16q0 12 16 13q25 0 62 8q45 8 59 112q10 86 11 445v360q0 377 -5 443q-4 55 -21 80.5t-67 35.5 q-25 6 -69 6q-17 1 -17 13zM537 1712q0 8 14 17q121 84 278 174q45 27 58 26q8 0 20 -18q8 -10 51 -90q14 -25 -8 -25h-61q-143 -14 -311 -86q-25 -10 -31 -10q-10 0 -10 12z" />
<glyph unicode="&#xea;" horiz-adv-x="1249" d="M186 1526q0 16 33 16q41 0 96.5 -1t94.5 -3t41 -2q422 0 469 2q59 4 88 10q4 0 13 5.5t15 5.5q8 0 8 -19q0 -6 -3 -17.5t-7 -33t-6 -45.5q0 -4 -4 -62.5t-6 -72.5q-4 -23 -14 -23q-16 0 -17 27q0 45 -12 73.5t-41 45t-105 24.5q-51 6 -280 6q-12 0 -12 -20v-565 q0 -20 12 -21q279 0 325 4q76 6 97 29q23 27 30 26q10 0 11 -16q0 -4 -3 -18.5t-7.5 -41t-6.5 -55.5q-8 -82 -8 -131q0 -39 -14.5 -39t-14.5 19q0 41 -8 67q-18 63 -106 72q-92 10 -293 10q-14 0 -14 -14v-180v-350q4 -106 46 -137t191 -31q143 0 197 22q72 31 92 148 q6 31 18.5 30.5t12.5 -30.5q0 -14 -10.5 -92t-16.5 -107q-10 -39 -28.5 -46t-82.5 -7q-135 0 -247.5 3t-176 6t-81.5 3h-13q-12 0 -31.5 -1t-37.5 -1q-82 -4 -119 -4q-33 0 -33 16q0 12 16 13q25 0 62 8q45 8 59 112q10 86 11 445v360q0 377 -5 443q-4 55 -21 80.5t-67 35.5 q-25 6 -69 6q-17 1 -17 13zM397 1690q0 6 13 22q49 49 229 213q23 20 33 21q6 0 33 -21q180 -135 206 -156q25 -16 25 -20t-10 -18l-43 -45q-12 -12 -19 -13q-8 0 -16 10q-29 31 -89.5 80t-82.5 62q-16 8 -21 8q-12 0 -32 -10q-51 -27 -174 -129q-23 -20 -37.5 -20t-14.5 16 z" />
<glyph unicode="&#xeb;" horiz-adv-x="1249" d="M186 1526q0 16 33 16q41 0 96.5 -1t94.5 -3t41 -2q422 0 469 2q59 4 88 10q4 0 13 5.5t15 5.5q8 0 8 -19q0 -6 -3 -17.5t-7 -33t-6 -45.5q0 -4 -4 -62.5t-6 -72.5q-4 -23 -14 -23q-16 0 -17 27q0 45 -12 73.5t-41 45t-105 24.5q-51 6 -280 6q-12 0 -12 -20v-565 q0 -20 12 -21q279 0 325 4q76 6 97 29q23 27 30 26q10 0 11 -16q0 -4 -3 -18.5t-7.5 -41t-6.5 -55.5q-8 -82 -8 -131q0 -39 -14.5 -39t-14.5 19q0 41 -8 67q-18 63 -106 72q-92 10 -293 10q-14 0 -14 -14v-180v-350q4 -106 46 -137t191 -31q143 0 197 22q72 31 92 148 q6 31 18.5 30.5t12.5 -30.5q0 -14 -10.5 -92t-16.5 -107q-10 -39 -28.5 -46t-82.5 -7q-135 0 -247.5 3t-176 6t-81.5 3h-13q-12 0 -31.5 -1t-37.5 -1q-82 -4 -119 -4q-33 0 -33 16q0 12 16 13q25 0 62 8q45 8 59 112q10 86 11 445v360q0 377 -5 443q-4 55 -21 80.5t-67 35.5 q-25 6 -69 6q-17 1 -17 13zM373 1788q0 33 22.5 60.5t65.5 27.5q39 0 63.5 -22.5t24.5 -59.5q0 -41 -24.5 -67.5t-65.5 -26.5q-43 0 -64.5 26.5t-21.5 61.5zM784 1788q0 33 22.5 60.5t65.5 27.5q39 0 64 -22.5t25 -59.5q0 -41 -25 -67.5t-66 -26.5q-43 0 -64.5 26.5 t-21.5 61.5z" />
<glyph unicode="&#xec;" horiz-adv-x="901" d="M125 1855q0 10 22 17q94 27 123 39q27 10 33 10q4 0 8 -4t9.5 -12.5t13.5 -16.5q61 -61 201 -149q39 -27 38 -29q0 -10 -18 -10q-49 0 -371 121q-59 22 -59 34zM211 1526q0 16 33 16q31 0 80 -1t87 -3t40 -2t39.5 2t86 3t74.5 1q33 0 33 -16q0 -12 -16 -13q-14 0 -52 -6 q-41 -8 -56 -34.5t-19 -81.5q-4 -66 -4 -443v-360q0 -358 10 -445q6 -51 21.5 -78.5t58.5 -33.5q57 -8 92 -8q16 0 16 -13q0 -16 -33 -16q-49 0 -109.5 1t-100 3t-41.5 2t-40 -2t-86.5 -3t-74.5 -1q-33 0 -33 16q0 12 16 13q25 0 62 8q45 8 59 112q10 86 11 445v360 q0 377 -5 443q-6 100 -69 114q-31 8 -64 8q-16 1 -16 13z" />
<glyph unicode="&#xed;" horiz-adv-x="901" d="M211 1526q0 16 33 16q31 0 80 -1t87 -3t40 -2t39.5 2t86 3t74.5 1q33 0 33 -16q0 -12 -16 -13q-14 0 -52 -6q-41 -8 -56 -34.5t-19 -81.5q-4 -66 -4 -443v-360q0 -358 10 -445q6 -51 21.5 -78.5t58.5 -33.5q57 -8 92 -8q16 0 16 -13q0 -16 -33 -16q-49 0 -109.5 1t-100 3 t-41.5 2t-40 -2t-86.5 -3t-74.5 -1q-33 0 -33 16q0 12 16 13q25 0 62 8q45 8 59 112q10 86 11 445v360q0 377 -5 443q-6 100 -69 114q-31 8 -64 8q-16 1 -16 13zM342 1712q0 8 14 17q121 84 279 174q45 27 57 26q8 0 21 -18q8 -10 51 -90q14 -25 -8 -25h-62 q-143 -14 -311 -86q-25 -10 -31 -10q-10 0 -10 12z" />
<glyph unicode="&#xee;" horiz-adv-x="901" d="M182 1690q0 6 13 22q49 49 229 213q23 20 33 21q6 0 32 -21q180 -135 207 -156q25 -16 25 -20t-10 -18l-43 -45q-12 -12 -19 -13q-8 0 -16 10q-29 31 -89.5 80t-82.5 62q-16 8 -21 8q-12 0 -32 -10q-51 -27 -175 -129q-23 -20 -37 -20t-14 16zM211 1526q0 16 33 16 q31 0 80 -1t87 -3t40 -2t39.5 2t86 3t74.5 1q33 0 33 -16q0 -12 -16 -13q-14 0 -52 -6q-41 -8 -56 -34.5t-19 -81.5q-4 -66 -4 -443v-360q0 -358 10 -445q6 -51 21.5 -78.5t58.5 -33.5q57 -8 92 -8q16 0 16 -13q0 -16 -33 -16q-49 0 -109.5 1t-100 3t-41.5 2t-40 -2 t-86.5 -3t-74.5 -1q-33 0 -33 16q0 12 16 13q25 0 62 8q45 8 59 112q10 86 11 445v360q0 377 -5 443q-6 100 -69 114q-31 8 -64 8q-16 1 -16 13z" />
<glyph unicode="&#xef;" horiz-adv-x="901" d="M158 1788q0 33 22.5 60.5t65.5 27.5q39 0 63.5 -22.5t24.5 -59.5q0 -41 -24.5 -67.5t-65.5 -26.5q-43 0 -64.5 26.5t-21.5 61.5zM211 1526q0 16 33 16q31 0 80 -1t87 -3t40 -2t39.5 2t86 3t74.5 1q33 0 33 -16q0 -12 -16 -13q-14 0 -52 -6q-41 -8 -56 -34.5t-19 -81.5 q-4 -66 -4 -443v-360q0 -358 10 -445q6 -51 21.5 -78.5t58.5 -33.5q57 -8 92 -8q16 0 16 -13q0 -16 -33 -16q-49 0 -109.5 1t-100 3t-41.5 2t-40 -2t-86.5 -3t-74.5 -1q-33 0 -33 16q0 12 16 13q25 0 62 8q45 8 59 112q10 86 11 445v360q0 377 -5 443q-6 100 -69 114 q-31 8 -64 8q-16 1 -16 13zM569 1788q0 33 22.5 60.5t65.5 27.5q39 0 63.5 -22.5t24.5 -59.5q0 -41 -24.5 -67.5t-65.5 -26.5q-43 0 -64.5 26.5t-21.5 61.5z" />
<glyph unicode="&#xf0;" horiz-adv-x="1878" d="M170 762l6 33q6 18 27 18h162v135q0 377 -5 443q-4 55 -21 80.5t-67 35.5q-25 6 -69 6q-16 0 -17 13q0 16 33 16q41 0 96.5 -1t94.5 -3t41 -2l102 4q100 2 174 2h39q90 0 143.5 -1t153.5 -13t174 -35t160 -70t151 -114q199 -207 199 -521q0 -344 -221 -577 q-225 -236 -621 -236q-78 0 -186.5 6.5t-186 12.5t-81.5 6q-2 0 -40 -2t-86.5 -3t-74.5 -1q-33 0 -33 16q0 12 16 13q25 0 62 8q45 8 59 112q10 86 11 445v151h-181q-18 0 -14 23zM537 629q0 -281 4 -346q6 -131 22 -156q55 -82 348 -82q297 0 488 191q78 76 121 210t43 279 q0 309 -197 516q-131 139 -292 185.5t-380 46.5q-102 0 -131 -15q-25 -10 -24 -41l-2 -602h419q20 0 15 -22l-8 -39q-2 -16 -27 -17h-399v-108z" />
<glyph unicode="&#xf1;" horiz-adv-x="1939" d="M135 10q0 12 17 13q47 0 84 12q37 10 49 63.5t12 196.5l2 1173q0 102 23 103q8 0 19 -10.5t29.5 -31t22.5 -24.5q76 -86 651 -702q106 -115 283.5 -309.5t208.5 -225.5l-23 1041q-2 102 -17 142t-62 52q-45 10 -101 10q-16 0 -16 14.5t41 14.5q55 0 133 -3t80 -3 q4 0 64.5 3t109.5 3q37 0 37 -14.5t-23 -14.5q-25 0 -49 -6q-49 -10 -62.5 -47t-13.5 -135l-4 -1200q0 -51 -1 -80t-3 -43t-5 -18t-9 -4q-18 0 -150 131q-12 12 -96 97t-212 218t-226 240q-287 309 -535 587l27 -981q2 -125 19.5 -175t60.5 -62q47 -12 102 -12q16 0 16 -13 q0 -16 -36 -16q-51 0 -101.5 1t-81 3t-34.5 2l-70 -4q-72 -2 -127 -2q-33 0 -33 16zM668 1720q0 8 14 31q31 47 82 96t94 49q41 0 172 -63q70 -35 119 -35q80 0 125 60q14 23 24 22q14 0 15 -12q0 -10 -8 -27q-18 -35 -73.5 -88t-96.5 -53q-55 0 -162 53q-8 4 -27.5 14.5 t-33 16.5t-35 11t-43.5 5q-14 0 -28.5 -3t-26 -9t-20.5 -11t-18.5 -14.5t-13.5 -14.5t-10 -13l-8 -9q-16 -18 -28.5 -18t-12.5 12z" />
<glyph unicode="&#xf2;" horiz-adv-x="1873" d="M131 770q0 131 48 266t141.5 257t255 200t362.5 78q352 0 578.5 -208t226.5 -560t-227.5 -595t-589.5 -243q-162 0 -297 48t-225.5 128t-154 186.5t-91 217t-27.5 225.5zM326 827q0 -352 186 -568t469 -216q63 0 130 15.5t147.5 61.5t142 119.5t103.5 204.5t42 301 q0 352 -182 554t-440 202q-266 0 -432 -174t-166 -500zM610 1855q0 10 23 17q94 27 123 39q27 10 32 10q4 0 8.5 -4t9.5 -12.5t13 -16.5q61 -61 201 -149q39 -27 39 -29q0 -10 -19 -10q-49 0 -370 121q-60 22 -60 34z" />
<glyph unicode="&#xf3;" horiz-adv-x="1873" d="M131 770q0 131 48 266t141.5 257t255 200t362.5 78q352 0 578.5 -208t226.5 -560t-227.5 -595t-589.5 -243q-162 0 -297 48t-225.5 128t-154 186.5t-91 217t-27.5 225.5zM326 827q0 -352 186 -568t469 -216q63 0 130 15.5t147.5 61.5t142 119.5t103.5 204.5t42 301 q0 352 -182 554t-440 202q-266 0 -432 -174t-166 -500zM827 1712q0 8 15 17q121 84 278 174q45 27 58 26q8 0 20 -18q8 -10 51 -90q14 -25 -8 -25h-61q-143 -14 -312 -86q-25 -10 -30 -10q-11 0 -11 12z" />
<glyph unicode="&#xf4;" horiz-adv-x="1873" d="M131 770q0 131 48 266t141.5 257t255 200t362.5 78q352 0 578.5 -208t226.5 -560t-227.5 -595t-589.5 -243q-162 0 -297 48t-225.5 128t-154 186.5t-91 217t-27.5 225.5zM326 827q0 -352 186 -568t469 -216q63 0 130 15.5t147.5 61.5t142 119.5t103.5 204.5t42 301 q0 352 -182 554t-440 202q-266 0 -432 -174t-166 -500zM668 1690q0 6 12 22q49 49 229 213q23 20 33 21q6 0 33 -21q180 -135 207 -156q25 -16 24.5 -20t-10.5 -18l-43 -45q-12 -12 -18 -13q-8 0 -17 10q-29 31 -89 80t-83 62q-16 8 -20 8q-12 0 -33 -10q-51 -27 -174 -129 q-23 -20 -37 -20t-14 16z" />
<glyph unicode="&#xf5;" horiz-adv-x="1873" d="M131 770q0 131 48 266t141.5 257t255 200t362.5 78q352 0 578.5 -208t226.5 -560t-227.5 -595t-589.5 -243q-162 0 -297 48t-225.5 128t-154 186.5t-91 217t-27.5 225.5zM326 827q0 -352 186 -568t469 -216q63 0 130 15.5t147.5 61.5t142 119.5t103.5 204.5t42 301 q0 352 -182 554t-440 202q-266 0 -432 -174t-166 -500zM614 1720q0 8 15 31q31 47 82 96t94 49q41 0 172 -63q70 -35 119 -35q80 0 125 60q14 23 24 22q14 0 15 -12q0 -10 -9 -27q-18 -35 -73.5 -88t-96.5 -53q-55 0 -161 53q-8 4 -28 14.5t-33 16.5t-34.5 11t-44.5 5 q-14 0 -28.5 -3t-25.5 -9t-20.5 -11t-18.5 -14.5t-13 -14.5t-10 -13l-9 -9q-16 -18 -28.5 -18t-12.5 12z" />
<glyph unicode="&#xf6;" horiz-adv-x="1873" d="M131 770q0 131 48 266t141.5 257t255 200t362.5 78q352 0 578.5 -208t226.5 -560t-227.5 -595t-589.5 -243q-162 0 -297 48t-225.5 128t-154 186.5t-91 217t-27.5 225.5zM326 827q0 -352 186 -568t469 -216q63 0 130 15.5t147.5 61.5t142 119.5t103.5 204.5t42 301 q0 352 -182 554t-440 202q-266 0 -432 -174t-166 -500zM643 1788q0 33 22.5 60.5t65.5 27.5q39 0 63.5 -22.5t24.5 -59.5q0 -41 -24.5 -67.5t-65.5 -26.5q-43 0 -64.5 26.5t-21.5 61.5zM1055 1788q0 33 22.5 60.5t65.5 27.5q39 0 63.5 -22.5t24.5 -59.5q0 -41 -24.5 -67.5 t-65.5 -26.5q-43 0 -64.5 26.5t-21.5 61.5z" />
<glyph unicode="&#xf8;" horiz-adv-x="1873" d="M131 770q0 131 48 266t141.5 257t255 200t362.5 78q315 0 528 -168l168 180q10 10 29 -4l41 -33q12 -14 0 -26l-166 -179q205 -209 205 -538q0 -352 -227.5 -595t-589.5 -243q-309 0 -512 170l-178 -190q-8 -12 -21 0l-41 39q-12 12 -4 20l178 193q-109 113 -163 264 t-54 309zM326 827q0 -299 139 -505l901 972q-176 207 -444 207q-266 0 -431 -174t-165 -500zM520 250q184 -207 461 -207q63 0 130 15.5t147.5 61.5t142 119.5t103.5 204.5t42 301q0 281 -123 474z" />
<glyph unicode="&#xf9;" horiz-adv-x="1699" d="M68 1526q0 16 32 16q55 0 146 -2l90 -4q4 0 85 3t118 3q33 0 32 -16q0 -12 -16 -13q-14 0 -51 -6q-39 -6 -55.5 -32.5t-20.5 -83.5q-4 -66 -4 -443v-286q0 -205 40 -321t114 -185q70 -66 141.5 -89.5t167.5 -23.5q92 0 179 40t142 107q119 147 119 502v256q0 377 -4 443 q-4 55 -21.5 80.5t-66.5 35.5q-25 6 -70 6q-16 0 -16 13q0 16 33 16q41 0 92 -1t87 -3t38 -2t68.5 3t103.5 3q33 0 33 -16q0 -12 -17 -13q-27 0 -51 -6q-41 -8 -56.5 -34.5t-19.5 -81.5q-4 -66 -4 -443v-219q0 -203 -39 -358.5t-149 -253.5q-170 -152 -422 -152 q-268 0 -422 146q-178 170 -178 538v299q0 377 -4 443q-4 55 -21.5 80.5t-66.5 35.5q-25 6 -70 6q-16 1 -16 13zM524 1855q0 10 23 17q94 27 123 39q27 10 32 10q4 0 8.5 -4t9.5 -12.5t13 -16.5q61 -61 201 -149q39 -27 39 -29q0 -10 -19 -10q-49 0 -370 121q-60 22 -60 34z " />
<glyph unicode="&#xfa;" horiz-adv-x="1699" d="M68 1526q0 16 32 16q55 0 146 -2l90 -4q4 0 85 3t118 3q33 0 32 -16q0 -12 -16 -13q-14 0 -51 -6q-39 -6 -55.5 -32.5t-20.5 -83.5q-4 -66 -4 -443v-286q0 -205 40 -321t114 -185q70 -66 141.5 -89.5t167.5 -23.5q92 0 179 40t142 107q119 147 119 502v256q0 377 -4 443 q-4 55 -21.5 80.5t-66.5 35.5q-25 6 -70 6q-16 0 -16 13q0 16 33 16q41 0 92 -1t87 -3t38 -2t68.5 3t103.5 3q33 0 33 -16q0 -12 -17 -13q-27 0 -51 -6q-41 -8 -56.5 -34.5t-19.5 -81.5q-4 -66 -4 -443v-219q0 -203 -39 -358.5t-149 -253.5q-170 -152 -422 -152 q-268 0 -422 146q-178 170 -178 538v299q0 377 -4 443q-4 55 -21.5 80.5t-66.5 35.5q-25 6 -70 6q-16 1 -16 13zM782 1712q0 8 15 17q121 84 278 174q45 27 58 26q8 0 20 -18q8 -10 51 -90q14 -25 -8 -25h-61q-143 -14 -312 -86q-25 -10 -30 -10q-11 0 -11 12z" />
<glyph unicode="&#xfb;" horiz-adv-x="1699" d="M68 1526q0 16 32 16q55 0 146 -2l90 -4q4 0 85 3t118 3q33 0 32 -16q0 -12 -16 -13q-14 0 -51 -6q-39 -6 -55.5 -32.5t-20.5 -83.5q-4 -66 -4 -443v-286q0 -205 40 -321t114 -185q70 -66 141.5 -89.5t167.5 -23.5q92 0 179 40t142 107q119 147 119 502v256q0 377 -4 443 q-4 55 -21.5 80.5t-66.5 35.5q-25 6 -70 6q-16 0 -16 13q0 16 33 16q41 0 92 -1t87 -3t38 -2t68.5 3t103.5 3q33 0 33 -16q0 -12 -17 -13q-27 0 -51 -6q-41 -8 -56.5 -34.5t-19.5 -81.5q-4 -66 -4 -443v-219q0 -203 -39 -358.5t-149 -253.5q-170 -152 -422 -152 q-268 0 -422 146q-178 170 -178 538v299q0 377 -4 443q-4 55 -21.5 80.5t-66.5 35.5q-25 6 -70 6q-16 1 -16 13zM602 1690q0 6 12 22q49 49 230 213q23 20 33 21q6 0 32 -21q180 -135 207 -156q25 -16 25 -20t-11 -18l-43 -45q-12 -12 -18 -13q-8 0 -16 10q-29 31 -89.5 80 t-82.5 62q-16 8 -21 8q-12 0 -33 -10q-51 -27 -174 -129q-23 -20 -37 -20t-14 16z" />
<glyph unicode="&#xfc;" horiz-adv-x="1699" d="M68 1526q0 16 32 16q55 0 146 -2l90 -4q4 0 85 3t118 3q33 0 32 -16q0 -12 -16 -13q-14 0 -51 -6q-39 -6 -55.5 -32.5t-20.5 -83.5q-4 -66 -4 -443v-286q0 -205 40 -321t114 -185q70 -66 141.5 -89.5t167.5 -23.5q92 0 179 40t142 107q119 147 119 502v256q0 377 -4 443 q-4 55 -21.5 80.5t-66.5 35.5q-25 6 -70 6q-16 0 -16 13q0 16 33 16q41 0 92 -1t87 -3t38 -2t68.5 3t103.5 3q33 0 33 -16q0 -12 -17 -13q-27 0 -51 -6q-41 -8 -56.5 -34.5t-19.5 -81.5q-4 -66 -4 -443v-219q0 -203 -39 -358.5t-149 -253.5q-170 -152 -422 -152 q-268 0 -422 146q-178 170 -178 538v299q0 377 -4 443q-4 55 -21.5 80.5t-66.5 35.5q-25 6 -70 6q-16 1 -16 13zM588 1788q0 33 22.5 60.5t65.5 27.5q39 0 63.5 -22.5t24.5 -59.5q0 -41 -24.5 -67.5t-65.5 -26.5q-43 0 -64.5 26.5t-21.5 61.5zM999 1788q0 33 22.5 60.5 t65.5 27.5q39 0 64 -22.5t25 -59.5q0 -41 -25 -67.5t-66 -26.5q-43 0 -64.5 26.5t-21.5 61.5z" />
<glyph unicode="&#xfd;" horiz-adv-x="1339" d="M-63 1527.5q0 14.5 26 14.5q23 0 112 -3t91 -3q4 0 30.5 2t66.5 3t75 1q27 0 27 -14q0 -4 -31 -19q-27 -14 -27 -36q0 -31 27 -80q27 -47 188.5 -326t188.5 -322q25 55 159 290t181 313q35 55 34.5 104t-32.5 57q-31 10 -31 21q0 12 33 12q31 0 81 -3t54 -3q2 0 89 3 t110 3q27 0 26 -12q0 -16 -26 -17q-49 0 -95 -28q-45 -27 -108 -105q-49 -59 -206 -321t-185 -330q-31 -74 -31 -205v-176q0 -119 6 -205q6 -102 84 -112q57 -8 92 -8q16 0 17 -13q0 -16 -33 -16q-49 0 -109.5 1t-100.5 3t-42 2t-40 -2t-86 -3t-75 -1q-33 0 -33 16 q0 12 17 13q25 0 61 8q57 12 64 112q6 86 6 205v176q0 111 -47 215q-10 25 -158.5 268.5t-202.5 321.5q-72 106 -139 152q-49 33 -88 32q-20 0 -20 14.5zM623 1712q0 8 14 17q121 84 278 174q45 27 58 26q8 0 20 -18q8 -10 51 -90q14 -25 -8 -25h-61q-143 -14 -311 -86 q-25 -10 -31 -10q-10 0 -10 12z" />
<glyph unicode="&#xfe;" horiz-adv-x="1325" d="M186 1526q0 16 33 16q41 0 94.5 -1t93 -3t44.5 -2q2 0 41.5 2t97 3t102.5 1q33 0 33 -14.5t-16 -14.5q-41 0 -80 -8q-88 -14 -92 -108q-4 -172 -5 -193q119 8 179 8q248 0 381 -116q39 -35 69.5 -101.5t30.5 -140.5q0 -217 -142.5 -352t-361.5 -135q-33 0 -43 2 q-23 0 -22 14q0 18 55 18q150 0 252 96.5t102 237.5q0 199 -114 316q-100 102 -281 102q-59 0 -88 -12q-16 -6 -17 -39v-514q0 -358 11 -445q6 -51 21.5 -78.5t58.5 -33.5q57 -8 92 -8q16 0 16 -13q0 -16 -33 -16q-49 0 -109.5 1t-100 3t-42.5 2l-36 -2q-37 -2 -85.5 -3 t-74.5 -1q-33 0 -33 16q0 12 16 13q25 0 62 8q45 8 59 112q10 86 11 445v360q0 377 -5 443q-4 55 -21 80.5t-67 35.5q-25 6 -69 6q-17 1 -17 13z" />
<glyph unicode="&#xff;" horiz-adv-x="1339" d="M-63 1527.5q0 14.5 26 14.5q23 0 112 -3t91 -3q4 0 30.5 2t66.5 3t75 1q27 0 27 -14q0 -4 -31 -19q-27 -14 -27 -36q0 -31 27 -80q27 -47 188.5 -326t188.5 -322q25 55 159 290t181 313q35 55 34.5 104t-32.5 57q-31 10 -31 21q0 12 33 12q31 0 81 -3t54 -3q2 0 89 3 t110 3q27 0 26 -12q0 -16 -26 -17q-49 0 -95 -28q-45 -27 -108 -105q-49 -59 -206 -321t-185 -330q-31 -74 -31 -205v-176q0 -119 6 -205q6 -102 84 -112q57 -8 92 -8q16 0 17 -13q0 -16 -33 -16q-49 0 -109.5 1t-100.5 3t-42 2t-40 -2t-86 -3t-75 -1q-33 0 -33 16 q0 12 17 13q25 0 61 8q57 12 64 112q6 86 6 205v176q0 111 -47 215q-10 25 -158.5 268.5t-202.5 321.5q-72 106 -139 152q-49 33 -88 32q-20 0 -20 14.5zM428 1788q0 33 22.5 60.5t65.5 27.5q39 0 63.5 -22.5t24.5 -59.5q0 -41 -24.5 -67.5t-65.5 -26.5q-43 0 -64.5 26.5 t-21.5 61.5zM840 1788q0 33 22.5 60.5t65.5 27.5q39 0 63.5 -22.5t24.5 -59.5q0 -41 -24.5 -67.5t-65.5 -26.5q-43 0 -64.5 26.5t-21.5 61.5z" />
<glyph unicode="&#x152;" horiz-adv-x="2430" d="M131 768q0 106 29.5 215t94 215.5t158 188t232.5 133t305 51.5q387 2 590 -256h8v133q0 18 -2 45t-2 31q0 18 21 18q2 0 23.5 -3t39.5 -3q426 0 473 2q59 4 88 10q4 0 13.5 5.5t15.5 5.5q8 0 8 -19q0 -6 -6 -34.5t-10 -57.5q0 -4 -4 -62.5t-6 -72.5q-4 -23 -15 -23 q-16 0 -16 27q0 45 -12.5 73.5t-41 45t-104.5 24.5q-53 6 -280 6q-12 0 -13 -24v-565q0 -20 13 -21q279 0 325 4q76 6 96 29q23 27 31 26q10 0 10 -16q0 -4 -3 -18.5t-7 -41t-6 -55.5q-8 -82 -8 -116q0 -33 -15 -33q-12 0 -16 22q0 27 -6 50q-18 61 -121 71q-41 4 -278 4 q-14 0 -15 -18v-92v-436q4 -106 46 -136t192 -30q143 0 196 22q39 16 60.5 49t32.5 97q6 31 18 30.5t12 -30.5q0 -14 -10 -91t-16 -106q-10 -39 -28.5 -46t-82.5 -7q-135 0 -247.5 3t-176 6t-82 3t-40 -3t-29.5 -3q-20 0 -21 14q0 8 3 27.5t3 34.5l4 180h-6 q-84 -94 -137 -135q-199 -150 -483 -150q-201 0 -358.5 73t-250 191.5t-139.5 256t-47 282.5zM326 827q0 -352 186 -568t467 -216q63 0 130 15.5t148.5 61.5t143 119.5t103.5 204.5t42 301q0 352 -183 554t-441 202q-266 0 -431 -174t-165 -500z" />
<glyph unicode="&#x153;" horiz-adv-x="2430" d="M131 768q0 106 29.5 215t94 215.5t158 188t232.5 133t305 51.5q387 2 590 -256h8v133q0 18 -2 45t-2 31q0 18 21 18q2 0 23.5 -3t39.5 -3q426 0 473 2q59 4 88 10q4 0 13.5 5.5t15.5 5.5q8 0 8 -19q0 -6 -6 -34.5t-10 -57.5q0 -4 -4 -62.5t-6 -72.5q-4 -23 -15 -23 q-16 0 -16 27q0 45 -12.5 73.5t-41 45t-104.5 24.5q-53 6 -280 6q-12 0 -13 -24v-565q0 -20 13 -21q279 0 325 4q76 6 96 29q23 27 31 26q10 0 10 -16q0 -4 -3 -18.5t-7 -41t-6 -55.5q-8 -82 -8 -116q0 -33 -15 -33q-12 0 -16 22q0 27 -6 50q-18 61 -121 71q-41 4 -278 4 q-14 0 -15 -18v-92v-436q4 -106 46 -136t192 -30q143 0 196 22q39 16 60.5 49t32.5 97q6 31 18 30.5t12 -30.5q0 -14 -10 -91t-16 -106q-10 -39 -28.5 -46t-82.5 -7q-106 0 -346 6q-121 6 -160 6q-18 0 -39.5 -3t-29.5 -3q-20 0 -21 14q0 8 3 27.5t3 34.5l4 180h-6 q-84 -94 -137 -135q-199 -150 -483 -150q-201 0 -358.5 73t-250 191.5t-139.5 256t-47 282.5zM326 827q0 -352 186 -568t467 -216q63 0 130 15.5t148.5 61.5t143 119.5t103.5 204.5t42 301q0 352 -183 554t-441 202q-266 0 -431 -174t-165 -500z" />
<glyph unicode="&#x178;" horiz-adv-x="1339" d="M-63 1527.5q0 14.5 26 14.5q23 0 112 -3t91 -3q4 0 30.5 2t66.5 3t75 1q27 0 27 -14q0 -4 -31 -19q-27 -14 -27 -36q0 -31 27 -80q27 -47 188.5 -326t188.5 -322q25 55 159 290t181 313q35 55 34.5 104t-32.5 57q-31 10 -31 21q0 12 33 12q31 0 81 -3t54 -3q2 0 89 3 t110 3q27 0 26 -12q0 -16 -26 -17q-49 0 -95 -28q-45 -27 -108 -105q-49 -59 -206 -321t-185 -330q-31 -74 -31 -205v-176q0 -119 6 -205q6 -102 84 -112q57 -8 92 -8q16 0 17 -13q0 -16 -33 -16q-49 0 -109.5 1t-100.5 3t-42 2t-40 -2t-86 -3t-75 -1q-33 0 -33 16 q0 12 17 13q25 0 61 8q57 12 64 112q6 86 6 205v176q0 111 -47 215q-10 25 -158.5 268.5t-202.5 321.5q-72 106 -139 152q-49 33 -88 32q-20 0 -20 14.5zM428 1788q0 33 22.5 60.5t65.5 27.5q39 0 63.5 -22.5t24.5 -59.5q0 -41 -24.5 -67.5t-65.5 -26.5q-43 0 -64.5 26.5 t-21.5 61.5zM840 1788q0 33 22.5 60.5t65.5 27.5q39 0 63.5 -22.5t24.5 -59.5q0 -41 -24.5 -67.5t-65.5 -26.5q-43 0 -64.5 26.5t-21.5 61.5z" />
<glyph unicode="&#x2c6;" horiz-adv-x="1865" d="M664 1690q0 6 12 22q49 49 229 213q23 20 33 21q6 0 33 -21q180 -135 207 -156q25 -16 24.5 -20t-10.5 -18l-43 -45q-12 -12 -19 -13q-8 0 -16 10q-29 31 -89 80t-83 62q-16 8 -20 8q-12 0 -33 -10q-51 -27 -174 -129q-23 -20 -37 -20t-14 16z" />
<glyph unicode="&#x2dc;" horiz-adv-x="1865" d="M610 1720q0 8 15 31q31 47 82 96t94 49q41 0 172 -63q70 -35 119 -35q80 0 125 60q14 23 24 22q14 0 14 -12q0 -10 -8 -27q-18 -35 -73.5 -88t-96.5 -53q-55 0 -162 53q-8 4 -27.5 14.5t-32.5 16.5t-34.5 11t-44.5 5q-14 0 -28.5 -3t-25.5 -9t-20.5 -11t-18.5 -14.5 t-13 -14.5t-11 -13l-8 -9q-16 -18 -28.5 -18t-12.5 12z" />
<glyph unicode="&#x2013;" horiz-adv-x="1024" d="M0 782v95h1024v-95h-1024z" />
<glyph unicode="&#x2014;" horiz-adv-x="2048" d="M0 782v95h2048v-95h-2048z" />
<glyph unicode="&#x2018;" horiz-adv-x="409" d="M98 1260q0 98 55.5 210.5t120.5 192.5q10 16 27 16q10 0 10 -10q0 -8 -8 -27q-68 -143 -67 -292q0 -86 40 -133q18 -20 19 -35q0 -12 -19 -13q-45 0 -143 37q-35 19 -35 54z" />
<glyph unicode="&#x2019;" horiz-adv-x="409" d="M98 1180q0 8 8 26q68 143 68 293q0 86 -41 133q-18 20 -18 35q0 12 18 12q45 0 143 -37q35 -16 35 -53q0 -98 -55 -210.5t-121 -192.5q-10 -16 -26 -17q-11 1 -11 11z" />
<glyph unicode="&#x201a;" horiz-adv-x="409" d="M98 -219q0 8 8 26q68 143 68 293q0 86 -41 133q-18 20 -18 35q0 12 18 13q45 0 143 -37q35 -18 35 -54q0 -98 -55 -210.5t-121 -192.5q-10 -16 -26 -16q-11 0 -11 10z" />
<glyph unicode="&#x201c;" horiz-adv-x="665" d="M94 1260q0 98 55.5 210.5t120.5 192.5q10 16 27 16q10 0 10 -10q0 -8 -8 -27q-68 -143 -68 -292q0 -86 41 -133q18 -20 19 -35q0 -12 -19 -13q-45 0 -143 37q-35 19 -35 54zM360 1260q0 98 55.5 210.5t121.5 192.5q10 16 26 16q10 0 10 -10q0 -8 -8 -27 q-68 -143 -67 -292q0 -86 41 -133q18 -20 18 -35q0 -12 -18 -13q-45 0 -144 37q-35 19 -35 54z" />
<glyph unicode="&#x201d;" horiz-adv-x="665" d="M92 1180q0 8 8 26q68 143 68 293q0 86 -41 133q-18 20 -18 35q0 12 18 12q45 0 143 -37q35 -16 35 -53q0 -98 -55 -210.5t-121 -192.5q-10 -16 -27 -17q-10 1 -10 11zM358 1180q0 8 9 26q68 143 67 293q0 86 -41 133q-18 20 -18 35q0 12 18 12q45 0 144 -37 q35 -16 34 -53q0 -98 -55 -210.5t-121 -192.5q-10 -16 -26 -17q-11 1 -11 11z" />
<glyph unicode="&#x201e;" horiz-adv-x="665" d="M92 -219q0 8 8 26q68 143 68 293q0 86 -41 133q-18 20 -18 35q0 12 18 13q45 0 143 -37q35 -18 35 -54q0 -98 -55 -210.5t-121 -192.5q-10 -16 -27 -16q-10 0 -10 10zM358 -219q0 8 9 26q68 143 67 293q0 86 -41 133q-18 20 -18 35q0 12 18 13q45 0 144 -37 q35 -18 34 -54q0 -98 -55 -210.5t-121 -192.5q-10 -16 -26 -16q-11 0 -11 10z" />
<glyph unicode="&#x2022;" horiz-adv-x="860" d="M252 971q0 16 24 16q47 0 273 -45q61 -14 61 -34.5t-12 -41.5q-57 -90 -229 -243q-33 -29 -41 -29q-10 0 -11 10q0 4 13 41q23 78 22 164q0 104 -71 139q-29 15 -29 23z" />
<glyph unicode="&#x2026;" horiz-adv-x="2048" d="M231 109q0 41 29 75.5t80 34.5q49 0 80 -28.5t31 -75.5q0 -49 -31 -82t-80 -33q-53 0 -81 34t-28 75zM915 109q0 41 29 75.5t80 34.5q49 0 80 -28.5t31 -75.5q0 -49 -31 -82t-80 -33q-53 0 -81 34t-28 75zM1599 109q0 41 29 75.5t80 34.5q49 0 80 -28.5t31 -75.5 q0 -49 -31 -82t-80 -33q-53 0 -81 34t-28 75z" />
<glyph unicode="&#x2039;" horiz-adv-x="768" d="M154 819q0 12 39 45q57 49 364 357q27 23 37 22q18 0 18 -16q0 -14 -12 -27q-2 -2 -29.5 -34.5t-66.5 -78l-81 -94.5t-79 -95t-53 -69q29 -35 126 -134t165 -158q29 -27 28 -31q0 -6 -8 -14l-61 -68q-6 -10 -17 -10q-8 0 -47 45q-188 213 -287 311q-36 37 -36 49z" />
<glyph unicode="&#x203a;" horiz-adv-x="768" d="M156 430q0 14 12 27q2 2 29.5 34.5t66.5 77.5t81 94.5t79 95.5t53 68q-29 35 -126 134.5t-165 158.5q-29 27 -28 31q0 6 8 14l61 68q6 10 17 10q8 0 47 -45q188 -213 287 -311q37 -37 36.5 -49.5t-39.5 -44.5q-57 -49 -364 -357q-27 -23 -37 -22q-18 0 -18 16z" />
<glyph unicode="&#x2122;" horiz-adv-x="1536" d="M0 1421q4 45 20 113q4 18 9 18q2 0 13 -4t28 -6q10 0 27.5 -2t29.5 -3t18 -1h359q27 0 48 2t32.5 4t13.5 2q4 0 4 -31q0 -72 -4 -100q-2 -25 -12 -24q-8 0 -15 22l-2 19q-2 16 -7 24t-27.5 15.5t-63.5 7.5h-111v-375q0 -152 2 -187q2 -49 44 -55l26 -4q25 0 25 -10 t-27 -10q-23 0 -72 2t-51 2l-53 -2q-51 -2 -78 -2q-25 0 -24.5 10t24.5 10h27q45 6 49 59q2 35 2 187v375h-129q-88 0 -98 -56q-4 -23 -19 -22q-10 -1 -8 22zM567 846q0 10 25 10h14q43 0 53 76l80 586q4 39 23 38q14 0 29 -28l260 -537l254 543q12 23 26.5 22.5t18.5 -36.5 l71 -564q8 -57 24.5 -76.5t55.5 -23.5h12q20 0 20.5 -10t-17.5 -10q-127 0 -173 8q-18 2 -20 26l-49 445l-4 2l-203 -428q-23 -51 -39 -51t-41 51l-211 434h-6l-35 -350q-4 -45 -4 -78q0 -14 9.5 -26.5t23.5 -12.5q39 0 39 -10t-18.5 -10t-60.5 2t-46 2q-2 0 -36 -2t-56 -2 q-19 0 -19 10z" />
<glyph unicode="&#xe000;" horiz-adv-x="1540" d="M0 1540h1540v-1540h-1540v1540z" />
<glyph unicode="&#xfb01;" horiz-adv-x="2113" d="M186 1526q0 16 33 16q41 0 96.5 -1t94.5 -3t41 -2q457 0 503 2q78 4 90 8l15 7q10 5 14 6q12 0 12 -19q0 -6 -3 -17.5t-7 -33t-6 -45.5q0 -4 -4 -62.5t-6 -72.5q-4 -23 -17 -23q-14 0 -14 25q0 37 -18 78q-10 25 -47 44t-93 21l-315 6q-18 0 -18 -22v-566q0 -18 14 -18 l262 2q63 0 92 2q74 6 94 37q16 20 23 20q10 0 10 -16q0 -4 -3 -18.5t-7 -41t-6 -55.5q-8 -82 -8 -137q0 -39 -14.5 -39t-14.5 19q-6 53 -12 73q-23 63 -107 74q-51 6 -309 6q-14 0 -14 -18v-174q0 -358 10 -445q6 -51 21.5 -78.5t58.5 -33.5q57 -8 92 -8q16 0 16 -13 q0 -16 -33 -16q-49 0 -109.5 1t-100 3t-41.5 2t-40 -2t-86.5 -3t-74.5 -1q-33 0 -33 16q0 12 16 13q25 0 62 8q45 8 59 112q10 86 11 445v360q0 377 -5 443q-4 55 -21 80.5t-67 35.5q-25 6 -69 6q-17 1 -17 13zM1423 1526q0 16 33 16q31 0 80 -1t87 -3t40 -2t40 2t86 3t75 1 q33 0 32 -16q0 -12 -16 -13q-14 0 -51 -6q-41 -8 -56.5 -34.5t-19.5 -81.5q-4 -66 -4 -443v-360q0 -358 10 -445q6 -51 21.5 -78.5t58.5 -33.5q57 -8 92 -8q16 0 17 -13q0 -16 -33 -16q-49 0 -109.5 1t-100.5 3t-42 2t-40 -2t-86 -3t-75 -1q-33 0 -32 16q0 12 16 13 q25 0 61 8q45 8 60 112q10 86 10 445v360q0 377 -4 443q-6 100 -70 114q-31 8 -63 8q-17 1 -17 13z" />
<glyph unicode="&#xfb02;" horiz-adv-x="2424" d="M186 1526q0 16 33 16q41 0 96.5 -1t94.5 -3t41 -2q457 0 503 2q78 4 90 8l15 7q10 5 14 6q12 0 12 -19q0 -6 -3 -17.5t-7 -33t-6 -45.5q0 -4 -4 -62.5t-6 -72.5q-4 -23 -17 -23q-14 0 -14 25q0 37 -18 78q-10 25 -47 44t-93 21l-315 6q-18 0 -18 -22v-566q0 -18 14 -18 l262 2q63 0 92 2q74 6 94 37q16 20 23 20q10 0 10 -16q0 -4 -3 -18.5t-7 -41t-6 -55.5q-8 -82 -8 -137q0 -39 -14.5 -39t-14.5 19q-6 53 -12 73q-23 63 -107 74q-51 6 -309 6q-14 0 -14 -18v-174q0 -358 10 -445q6 -51 21.5 -78.5t58.5 -33.5q57 -8 92 -8q16 0 16 -13 q0 -16 -33 -16q-49 0 -109.5 1t-100 3t-41.5 2t-40 -2t-86.5 -3t-74.5 -1q-33 0 -33 16q0 12 16 13q25 0 62 8q45 8 59 112q10 86 11 445v360q0 377 -5 443q-4 55 -21 80.5t-67 35.5q-25 6 -69 6q-17 1 -17 13zM1399 1526q0 16 33 16q41 0 96 -1t94 -3t41 -2t45 2t96.5 3 t79.5 1q33 0 33 -16q0 -12 -16 -13q-31 0 -68 -6q-43 -8 -59.5 -34.5t-20.5 -81.5q-4 -66 -4 -443v-364q0 -236 9 -339.5t36 -129.5q47 -47 246 -47q100 0 157.5 10t90.5 51q43 51 53 123q4 27 18 27q12 0 13 -31q0 -94 -31 -205q-10 -37 -30.5 -46t-98.5 -9q-170 0 -341 6 t-208 6q-4 0 -84 -3t-117 -3q-33 0 -32 16q0 12 16 13q25 0 61 8q45 8 60 112q10 86 10 445v360q0 377 -4 443q-4 55 -21.5 80.5t-66.5 35.5q-25 6 -70 6q-16 1 -16 13z" />
<glyph unicode="&#xfb03;" horiz-adv-x="3325" d="M2636 1526q0 16 33 16q31 0 80 -1t87 -3t40 -2t39.5 2t86 3t74.5 1q33 0 33 -16q0 -12 -16 -13q-14 0 -52 -6q-41 -8 -56 -34.5t-19 -81.5q-4 -66 -4 -443v-360q0 -358 10 -445q6 -51 21.5 -78.5t58.5 -33.5q57 -8 92 -8q16 0 16 -13q0 -16 -33 -16q-49 0 -109.5 1 t-100 3t-41.5 2t-40 -2t-86.5 -3t-74.5 -1q-33 0 -33 16q0 12 16 13q25 0 62 8q45 8 59 112q10 86 11 445v360q0 377 -5 443q-6 100 -69 114q-31 8 -64 8q-16 1 -16 13zM1398 1526q0 16 33 16q41 0 96.5 -1t94.5 -3t41 -2q457 0 503 2q78 4 90 8l15 7q10 5 14 6q12 0 12 -19 q0 -6 -3 -17.5t-7 -33t-6 -45.5q0 -4 -4 -62.5t-6 -72.5q-4 -23 -17 -23q-14 0 -14 25q0 37 -18 78q-10 25 -47 44t-93 21l-315 6q-18 0 -18 -22v-566q0 -18 14 -18l262 2q63 0 92 2q74 6 94 37q16 20 23 20q10 0 10 -16q0 -4 -3 -18.5t-7 -41t-6 -55.5q-8 -82 -8 -137 q0 -39 -14.5 -39t-14.5 19q-6 53 -12 73q-23 63 -107 74q-51 6 -309 6q-14 0 -14 -18v-174q0 -358 10 -445q6 -51 21.5 -78.5t58.5 -33.5q57 -8 92 -8q16 0 16 -13q0 -16 -33 -16q-49 0 -109.5 1t-100 3t-41.5 2t-40 -2t-86.5 -3t-74.5 -1q-33 0 -33 16q0 12 16 13 q25 0 62 8q45 8 59 112q10 86 11 445v360q0 377 -5 443q-4 55 -21 80.5t-67 35.5q-25 6 -69 6q-17 1 -17 13zM186 1526q0 16 33 16q41 0 96.5 -1t94.5 -3t41 -2q457 0 503 2q78 4 90 8l15 7q10 5 14 6q12 0 12 -19q0 -6 -3 -17.5t-7 -33t-6 -45.5q0 -4 -4 -62.5t-6 -72.5 q-4 -23 -17 -23q-14 0 -14 25q0 37 -18 78q-10 25 -47 44t-93 21l-315 6q-18 0 -18 -22v-566q0 -18 14 -18l262 2q63 0 92 2q74 6 94 37q16 20 23 20q10 0 10 -16q0 -4 -3 -18.5t-7 -41t-6 -55.5q-8 -82 -8 -137q0 -39 -14.5 -39t-14.5 19q-6 53 -12 73q-23 63 -107 74 q-51 6 -309 6q-14 0 -14 -18v-174q0 -358 10 -445q6 -51 21.5 -78.5t58.5 -33.5q57 -8 92 -8q16 0 16 -13q0 -16 -33 -16q-49 0 -109.5 1t-100 3t-41.5 2t-40 -2t-86.5 -3t-74.5 -1q-33 0 -33 16q0 12 16 13q25 0 62 8q45 8 59 112q10 86 11 445v360q0 377 -5 443 q-4 55 -21 80.5t-67 35.5q-25 6 -69 6q-17 1 -17 13z" />
<glyph unicode="&#xfb04;" horiz-adv-x="3637" d="M2611 1526q0 16 33 16q41 0 96.5 -1t94.5 -3t41 -2t45 2t96 3t80 1q33 0 33 -16q0 -12 -17 -13q-31 0 -67 -6q-43 -8 -59.5 -34.5t-20.5 -81.5q-4 -66 -4 -443v-364q0 -236 9 -339.5t36 -129.5q47 -47 245 -47q100 0 157.5 10t90.5 51q43 51 53 123q4 27 19 27 q12 0 12 -31q0 -94 -31 -205q-10 -37 -30.5 -46t-98.5 -9q-170 0 -341 6t-207 6h-29q-31 -2 -55 -2q-82 -4 -117 -4q-33 0 -33 16q0 12 16 13q25 0 62 8q45 8 59 112q10 86 11 445v360q0 377 -5 443q-4 55 -21 80.5t-67 35.5q-25 6 -69 6q-17 1 -17 13zM1398 1526 q0 16 33 16q41 0 96.5 -1t94.5 -3t41 -2q457 0 503 2q78 4 90 8l15 7q10 5 14 6q12 0 12 -19q0 -6 -3 -17.5t-7 -33t-6 -45.5q0 -4 -4 -62.5t-6 -72.5q-4 -23 -17 -23q-14 0 -14 25q0 37 -18 78q-10 25 -47 44t-93 21l-315 6q-18 0 -18 -22v-566q0 -18 14 -18l262 2 q63 0 92 2q74 6 94 37q16 20 23 20q10 0 10 -16q0 -4 -3 -18.5t-7 -41t-6 -55.5q-8 -82 -8 -137q0 -39 -14.5 -39t-14.5 19q-6 53 -12 73q-23 63 -107 74q-51 6 -309 6q-14 0 -14 -18v-174q0 -358 10 -445q6 -51 21.5 -78.5t58.5 -33.5q57 -8 92 -8q16 0 16 -13 q0 -16 -33 -16q-49 0 -109.5 1t-100 3t-41.5 2t-40 -2t-86.5 -3t-74.5 -1q-33 0 -33 16q0 12 16 13q25 0 62 8q45 8 59 112q10 86 11 445v360q0 377 -5 443q-4 55 -21 80.5t-67 35.5q-25 6 -69 6q-17 1 -17 13zM186 1526q0 16 33 16q41 0 96.5 -1t94.5 -3t41 -2q457 0 503 2 q78 4 90 8l15 7q10 5 14 6q12 0 12 -19q0 -6 -3 -17.5t-7 -33t-6 -45.5q0 -4 -4 -62.5t-6 -72.5q-4 -23 -17 -23q-14 0 -14 25q0 37 -18 78q-10 25 -47 44t-93 21l-315 6q-18 0 -18 -22v-566q0 -18 14 -18l262 2q63 0 92 2q74 6 94 37q16 20 23 20q10 0 10 -16 q0 -4 -3 -18.5t-7 -41t-6 -55.5q-8 -82 -8 -137q0 -39 -14.5 -39t-14.5 19q-6 53 -12 73q-23 63 -107 74q-51 6 -309 6q-14 0 -14 -18v-174q0 -358 10 -445q6 -51 21.5 -78.5t58.5 -33.5q57 -8 92 -8q16 0 16 -13q0 -16 -33 -16q-49 0 -109.5 1t-100 3t-41.5 2t-40 -2 t-86.5 -3t-74.5 -1q-33 0 -33 16q0 12 16 13q25 0 62 8q45 8 59 112q10 86 11 445v360q0 377 -5 443q-4 55 -21 80.5t-67 35.5q-25 6 -69 6q-17 1 -17 13z" />
</font>
</defs>
</svg>
